#TITLE:Seismo;
#SUBTITLE:The8BitDrummer's Ending Song;
#ARTIST:Foozogz;
#TITLETRANSLIT:;
#SUBTITLETRANSLIT:;
#ARTISTTRANSLIT:;
#CREDIT:owenviau1 and Jose_Varela;
#BANNER:BN.png;
#BACKGROUND:BG.PNG;
#LYRICSPATH:;
#CDTITLE:CDTitle_Collabs.png;
#MUSIC:Foozogz - Seismo.ogg;
#OFFSET:-0.237;
#SAMPLESTART:21.432;
#SAMPLELENGTH:29.999;
#SELECTABLE:YES;
#DISPLAYBPM:109.974;
#BPMS:0.000=109.974,84.000=879.927,85.000=1173.120,86.000=1564.370,87.000=2085.450,88.000=2779.920,89.000=3706.560,90.000=4948.450,91.000=6590.390,92.000=8780.490,93.000=11707.300,94.000=15652.199,95.000=20869.600,96.000=27692.301,97.000=36923.102,98.000=49655.199,99.000=65454.500,100.000=87272.703,101.000=120000.000,102.000=160000.000,103.000=205714.000,104.000=288000.000,105.000=360000.000,106.000=480000.000,107.000=720000.000,108.000=960000.000,110.000=1440000.000,111.000=2880000.000,115.000=960000.000,116.000=219.948,117.000=109.974,128.000=219.948,129.000=879.927,130.000=879.658,131.000=879.927,132.000=879.658,133.000=879.927,134.000=879.658,135.000=879.927,136.000=879.658,137.000=879.927,138.000=879.658,139.000=879.927,140.000=879.658,141.000=879.927,142.000=879.658,143.000=879.927,144.000=879.658,145.000=879.927,146.000=879.658,147.000=879.927,148.000=879.658,149.000=879.927,150.000=879.658,151.000=879.927,152.000=879.658,153.000=439.896,155.000=109.974,161.000=219.948,162.500=109.974,169.000=219.948,170.500=109.974,177.000=219.948,178.500=109.974,185.000=219.948,186.500=109.974,202.000=879.927,203.000=879.658,204.000=879.927,205.000=879.658,206.000=879.927,207.000=879.658,208.000=879.927,209.000=879.658,210.000=879.927,211.000=879.658,212.000=879.927,213.000=879.658,214.000=219.948,215.000=109.974,226.000=219.948,227.000=502.793,228.000=502.706,229.000=502.793,230.000=502.706,231.000=1005.590,234.000=1005.240,235.000=1005.590,236.000=1005.240,237.000=1005.590,238.000=1005.240,239.000=1508.640,240.000=1573.770,241.000=1642.900,242.000=1714.290,243.000=1788.820,244.000=1866.490,245.000=1947.260,246.000=2032.460,247.000=2120.770,248.000=2211.980,249.000=2309.540,250.000=2410.040,251.000=2513.090,252.000=2622.950,253.000=2737.640,254.000=2857.140,255.000=2981.370,256.000=3110.150,257.000=3246.900,258.000=3388.240,259.000=3533.740,260.000=3687.580,261.000=3845.130,262.000=4016.740,263.000=4192.140,264.000=4370.260,265.000=4564.180,266.000=4760.330,267.000=4965.520,268.000=5179.860,269.000=5403.380,270.000=5647.060,271.000=5889.570,272.000=6140.730,273.000=6414.250,274.000=6697.670,275.000=6973.370,276.000=7291.140,277.000=7598.940,278.000=7933.880,279.000=8275.860,280.000=5760.000,281.000=6140.730,282.000=6545.450,283.000=6990.290,284.000=7441.860,285.000=7955.800,286.000=8470.590,287.000=6776.470,289.000=8135.590,290.000=8861.540,291.000=9664.430,292.000=10549.500,293.000=11520.000,294.000=8372.090,295.000=9568.110,296.000=10950.600,297.000=9381.110,298.000=9350.650,299.000=14048.800,300.000=16842.100,301.000=13457.900,302.000=18000.000,303.000=24000.000,305.000=36000.000,306.000=53333.301,307.000=80000.000,310.000=109.928,311.000=109.924,313.000=109.928,314.000=109.924,317.000=109.928,318.000=109.924,320.000=109.928,321.000=109.924,323.000=109.928,324.000=109.924,326.000=109.928,327.000=109.924,329.000=109.928,330.000=109.924,332.000=109.928,333.000=109.924,336.000=109.928,337.000=109.924,339.000=109.928,340.000=109.924,342.000=109.928,343.000=109.924,345.000=109.928,346.000=109.924,348.000=109.928,349.000=109.924,351.000=109.928,352.000=109.924,354.000=109.928,355.000=109.924,357.000=109.928,358.000=109.924,361.000=109.928,362.000=109.924,364.000=109.928,365.000=109.924,367.000=109.928,368.000=109.924,370.000=109.928,371.000=109.924,373.000=109.928,374.000=109.924,376.000=109.928,377.000=109.924,380.000=109.928,381.000=109.924,383.000=109.928,384.000=109.924,386.000=109.928,387.000=109.924,389.000=109.928,390.000=109.924,392.000=109.928,393.000=109.924,395.000=109.928,396.000=109.924,398.000=109.928,399.000=109.924,401.000=109.928,402.000=109.924,405.000=109.928,406.000=109.924,408.000=109.928,409.000=109.924,411.000=109.928,412.000=109.924,414.000=109.928,415.000=109.924,417.000=109.928,418.000=109.974,473.000=109.970,474.000=109.974,570.000=219.948,571.000=879.927,572.000=879.658,573.000=879.927,574.000=879.658,575.000=879.927,576.000=879.658,577.000=879.927,578.000=879.658,579.000=879.927,580.000=879.658,581.000=879.927,582.000=879.658,583.000=879.927,584.000=879.658,585.000=879.927,586.000=879.658,587.000=879.927,588.000=879.658,589.000=879.927,590.000=879.658,591.000=879.927,592.000=879.658,593.000=879.927,594.000=879.658,595.000=879.927,596.000=879.658,597.000=879.927,598.000=879.658,599.000=109.974;
#STOPS:161.000=0.067
,161.250=0.067
,161.500=0.067
,161.750=0.067
,162.000=0.067
,162.250=0.067
,169.000=0.067
,169.250=0.067
,169.500=0.067
,169.750=0.067
,170.000=0.067
,170.250=0.067
,177.000=0.067
,177.250=0.067
,177.500=0.067
,177.750=0.034
,177.875=0.034
,178.000=0.067
,178.250=0.067
,185.000=0.067
,185.250=0.067
,185.500=0.067
,185.750=0.067
,186.000=0.067
,186.250=0.067
;
#BGCHANGES:382.000=nothing.png=1.000=0=0=1,
99999=-nosongbg-=1.000=0=0=0 // don't automatically add -songbackground-
;
#FGCHANGES:359.000=flash=1.000=0=0=1
,360.500=flash=1.000=0=0=1
,363.000=flash=1.000=0=0=1
,363.750=flash=1.000=0=0=1
,364.500=flash=1.000=0=0=1
,367.000=flash=1.000=0=0=1
,368.500=flash=1.000=0=0=1
,371.000=flash=1.000=0=0=1
,372.500=flash=1.000=0=0=1
,375.000=flash=1.000=0=0=1
,376.500=flash=1.000=0=0=1
,379.000=flash=1.000=0=0=1
,379.750=flash=1.000=0=0=1
,380.500=flash=1.000=0=0=1
,381.250=flash=1.000=0=0=1
,382.000=flash-slow=1.000=0=0=1
,603.000=flash-end=1.000=0=0=1
;
// cache tags:
#FIRSTBEAT:11.000;
#LASTBEAT:604.000;
#SONGFILENAME:Songs/owenviau1 Simfiles 07_final/Seismo - [owenviau1 & Jose_Varela] - v2.8.4 (Codename - Lua Remake) v1.0.0/Seismo.sm;
#HASMUSIC:1;
#HASBANNER:1;
#MUSICLENGTH:242.856;
// end cache tags

//---------------dance-single - 15.86 (16-) (owenvia----------------
#NOTES:
     dance-single:
     15.86 (16-) (owenvia:
     Hard:
     16:
     1.000,1.000,0.070,0.564,1.000,1932.000,17.000,137.000,30.000,7.000:

0000
0000
0000
0000
,
0000
0000
0000
0000
,
0000
0000
0000
0000
0000
0000
0000
0000
0000
0000
0000
0000
2000
0000
3010
0100
,
0001
0000
0000
0000
0000
0000
1000
0000
0000
0010
0000
0000
0200
0000
0000
0300
0000
0000
0001
0000
0000
0000
0000
0000
1000
0000
0000
0100
0000
0000
0010
0000
0000
0000
0000
0000
0002
0000
0000
0000
0000
0000
0103
0010
1000
0001
0010
0100
,
1000
0000
0000
0000
0000
0000
0010
0000
0000
0100
0000
0000
0002
0000
0000
0003
0000
0000
1000
0000
0000
0000
0000
0000
0100
0000
0000
0010
0000
0000
0001
0000
0000
1000
0000
0000
0010
0000
0100
0001
0000
0000
1000
0000
0000
0100
0000
0000
,
0010
0000
0000
0000
0000
0000
0001
0000
0000
0100
0000
0000
0020
0000
0000
0030
0000
0000
1000
0000
0000
0000
0000
0000
0000
0000
0000
0001
0000
0000
0010
0000
0000
0100
0000
0000
1000
0010
0100
0001
1000
0100
0010
0000
0000
0001
0000
0000
,
0100
0000
0000
0000
0000
0000
0010
0000
0000
1000
0000
0000
0002
0000
0000
0003
0000
0000
0100
0000
0000
0000
0000
0000
0000
0000
0000
0010
0000
0000
1000
0000
0000
0100
0000
0000
0010
0001
0100
0010
1000
0001
0100
0000
0000
0010
0000
0000
,
1000
0000
0000
0000
0000
0000
0001
0000
0000
0100
0000
0000
0020
0000
0000
0030
0000
0000
1000
0000
0000
0000
0000
0000
0000
0000
0000
0001
0000
0000
0010
0000
0000
0100
0000
0000
2000
0000
0000
0000
0000
0000
3010
0100
0001
1000
0100
0010
,
0001
0000
0000
0000
0100
0000
0010
0000
2000
0000
3000
0000
0001
0000
0000
0000
0000
0000
0010
0000
0100
0000
1000
0000
0001
0100
0010
1000
0001
0000
0010
0000
,
0100
0000
0000
0000
1000
0000
0001
0000
2000
0000
3000
0000
0010
0000
0000
0000
0100
0000
0001
0000
1000
0000
0100
0000
0020
0000
0000
0030
0002
0000
0000
0003
,
1000
0010
0100
0001
1000
0100
0010
0001
0100
0010
1000
0001
0010
0100
1000
0010
0100
0010
1000
0001
1000
0010
0100
0001
1000
0100
0010
0001
0100
0010
1000
0001
,
0100
0001
0010
0100
1000
0010
0100
0001
1000
0010
1000
0001
0100
0001
0010
0100
1000
0010
0100
0001
1000
0100
0010
0001
1000
0100
1000
0010
0100
0000
0001
0000
,
1000
0000
0010
0000
2000
0000
0000
0000
3001
0100
0010
1000
0002
0000
0000
0000
0103
0000
0010
0000
2000
0000
0000
0000
3001
0000
0000
0000
0100
0000
0010
0000
,
1000
0000
0001
0000
0010
0000
0100
0000
1000
0010
0100
0001
2000
0000
0000
0000
3010
0000
0100
0000
0002
0000
0000
0000
0023
0030
0200
0300
2000
3000
0020
0030
,
0100
0001
1000
0100
0010
0001
0100
0010
0100
0001
1000
0010
1000
0100
0010
0001
0100
0010
1000
0001
0010
0100
1000
0010
0100
0001
1000
0100
0010
0001
1000
0010
,
1000
0001
0100
0010
1000
0100
0010
0001
1000
0100
1000
0010
0100
0001
0010
0001
1000
0010
0100
0001
1000
0100
0010
0001
0100
0010
1000
0001
0100
0000
0010
0000
,
1000
0000
0001
0000
0200
0000
0000
0000
0301
0010
0100
1000
0002
0000
0000
0000
0103
0000
0010
0000
2000
0000
0000
0000
3001
0000
0000
0000
0100
0000
0010
0000
,
1000
0000
0001
0000
0010
0000
0100
0000
1000
0010
0100
0001
2000
0000
0000
0000
3010
0000
0100
0000
0002
0000
0000
0000
1003
0000
0010
0000
0100
0001
1000
0100
,
0010
0001
0100
0010
1000
0001
0100
0001
0010
0100
1000
0010
0100
0001
1000
0100
0010
0001
0100
0010
1000
0100
1000
0001
,
0010
0100
1000
0010
0100
0001
1000
0100
1000
0010
0100
0001
1000
0100
0010
0001
0100
0010
1000
0001
0100
0001
0010
0100
,
1000
0010
0100
0000
0001
0000
1000
0100
0010
0000
0001
0000
0100
0010
1000
0000
0001
0000
0100
0010
1000
0100
0010
0001
0010
0100
1000
0000
0002
0000
0000
0000
,
0000
0000
0000
0000
,
0000
0000
0000
0000
,
0000
0000
0000
0000
,
0000
0000
0000
0000
,
0000
0000
0000
0000
,
0000
0000
0000
0000
,
0000
0000
0000
0003
,
0000
0000
0000
0000
,
0100
0000
0010
0000
1000
0000
0000
0000
0001
0000
0100
0010
1000
0000
0100
0000
0010
0001
1000
0000
0001
0000
0100
0010
1000
0000
0001
0000
0010
0100
1000
0000
,
0001
0100
0010
1000
0100
0010
0001
1000
0010
1000
0100
0010
0001
0100
0010
1000
0001
0010
0001
1000
0010
0100
0001
1000
,
0100
0010
0001
1000
0100
1000
0010
0100
0001
1000
0100
0010
0001
0100
0010
1000
0001
0010
0001
1000
0100
0010
0001
1000
,
0020
2032
0000
0000
,
0000
0000
0000
0000
,
0000
0000
0000
0000
,
0000
0000
0000
0000
,
0000
0000
0000
0000
,
0000
0000
0000
0000
,
0000
0000
0000
0000
0000
0000
0000
0000
0000
0000
0000
0000
0000
0000
0000
0000
0000
0000
3013
0100
0001
1000
0100
0010
,
0001
0000
0000
0000
0000
0000
0000
0000
0100
0000
0000
0000
0000
0000
0000
0000
0001
0000
0000
0000
0000
0000
0000
0000
0010
0000
0000
0000
0000
0000
0000
0000
0100
0000
0000
0000
0000
0000
0000
0000
1000
0000
0000
0000
0000
0000
0000
0000
0010
0000
0000
0000
0000
0000
0000
0000
0000
0000
0000
0000
0100
0000
0000
0000
0000
0000
0000
0000
0000
0000
0000
0000
0001
0000
0000
0000
0000
0000
0000
0000
0000
0000
0000
0000
1000
0000
0000
0000
0000
0000
0000
0000
0000
0000
0000
0000
0100
0000
0000
0000
0000
0000
0000
0000
0000
0000
0000
0000
0010
0000
0000
0000
0000
0000
0000
0000
0000
0000
0000
0000
2001
0000
0000
0000
0000
0000
0000
0000
0000
0000
0000
0000
3001
0000
0000
0000
0000
0000
0000
0000
0000
0000
0000
0000
0100
0000
0000
0000
0000
0000
0010
0000
0000
0000
0000
0000
1000
0000
0000
0000
0000
0000
0001
0000
0000
0000
0000
0000
0100
0000
0000
0000
0000
0000
0001
0000
0000
0000
0000
0000
0010
0000
0000
0000
0000
0000
0100
0000
0000
0000
0000
0000
,
1000
0010
0100
0000
0001
0010
0100
0000
1000
0000
0001
0000
1000
0000
0001
0000
1000
0000
0001
0000
2000
0000
3200
0000
0310
0001
1000
0000
0010
0000
1000
0001
,
0100
0000
0010
0000
2002
0000
3003
0000
1000
0100
0010
0000
0001
0000
0100
0010
1000
0000
0001
0000
0010
0100
1000
0000
0010
0100
0001
1000
0100
0010
0001
1000
,
0010
0100
0001
0000
1000
0100
0010
0000
0001
0000
0100
0000
0001
0000
0100
0000
0001
0000
0100
0000
0002
0000
0023
0000
0130
1000
0001
0000
0100
0000
0010
1000
,
0001
0000
0010
0000
2002
0000
3003
0000
1000
0100
0010
0000
0001
0000
0100
0010
1000
0100
0010
0001
0100
0001
1000
0010
0100
0001
1000
0100
0010
0001
0100
0010
,
1000
0001
0010
0000
0100
0000
1000
0001
0100
0000
0010
0000
0100
0000
0010
0100
0010
0000
0100
0000
0020
0000
2030
0000
3001
0010
0100
0000
1000
0000
0010
0100
,
0001
0000
0000
0000
0000
0000
0000
0000
0000
0000
0000
0000
1000
0000
0000
0000
0000
0000
0000
0000
0000
0000
0000
0000
2002
0000
0000
0000
0000
0000
0000
0000
0000
0000
0000
0000
3003
0000
0000
0000
0000
0000
0000
0000
0000
0000
0000
0000
0001
0000
0000
0000
0000
0000
0010
0000
0000
0000
0000
0000
0100
0000
0000
0000
0000
0000
1000
0000
0000
0000
0000
0000
0010
0000
0000
0000
0000
0000
0100
0000
0000
0000
0000
0000
0001
0000
0000
0000
0000
0000
0100
0000
0000
0000
0000
0000
0010
0000
0000
0000
0000
0000
1000
0000
0000
0000
0000
0000
0001
0000
0000
0000
0000
0000
1000
0000
0000
0000
0000
0000
0100
0000
0000
0000
0000
0000
0010
0000
0000
0000
0000
0000
0001
0000
0000
0000
0000
0000
1000
0000
0000
0000
0000
0000
0010
0000
0000
0000
0000
0000
0000
0000
0100
0000
0000
0000
0000
0000
0000
0000
0001
0000
0000
0000
0000
0000
0000
0000
1000
0000
0000
0000
0000
0000
0000
0000
0100
0000
0000
0000
0000
0000
0000
0000
0010
0000
0000
0000
0000
0000
0000
0000
,
0001
1000
0010
0000
0100
0000
0001
0000
1000
0000
0010
0000
1000
0000
0010
0000
1000
0000
0010
0000
2000
0000
3200
0000
0310
0001
0100
0000
0010
0000
1000
0001
,
0100
0000
0000
0000
0000
0000
0000
0000
0000
0000
0000
0000
0010
0000
0000
0000
0000
0000
0000
0000
0000
0000
0000
0000
2002
0000
0000
0000
0000
0000
0000
0000
0000
0000
0000
0000
3003
0000
0000
0000
0000
0000
0000
0000
0000
0000
0000
0000
1000
0000
0000
0000
0000
0000
0000
0000
0100
0000
0000
0000
0000
0000
0000
0000
0010
0000
0000
0000
0000
0000
0000
0000
0001
0000
0000
0000
0000
0000
0000
0000
0100
0000
0000
0000
0000
0000
0000
0000
0010
0000
0000
0000
0000
0000
0000
0000
1000
0000
0000
0000
0000
0000
0100
0000
0000
0000
0000
0000
0010
0000
0000
0000
0000
0000
0001
0000
0000
0000
0000
0000
0100
0000
0000
0000
0000
0000
0010
0000
0000
0000
0000
0000
1000
0000
0000
0000
0000
0000
0001
0000
0000
0000
0000
0000
0010
0000
0000
0000
0000
0000
0000
0000
0100
0000
0000
0000
0000
0000
0000
0000
1000
0000
0000
0000
0000
0000
0000
0000
0001
0000
0000
0000
0000
0000
0000
0000
0100
0000
0000
0000
0000
0000
0000
0000
0010
0000
0000
0000
0000
0000
0000
0000
,
0100
0001
1000
0010
0100
0001
1000
0100
0010
0001
0100
0001
1000
0010
0100
0001
1000
0010
0100
0010
1000
0001
0010
0100
,
1000
0000
0000
0000
0000
0000
0000
0000
0010
0000
0000
0000
0000
0000
0000
0000
0100
0000
0000
0000
0000
0000
0000
0000
0010
0000
0000
0000
0000
0000
0000
0000
1000
0000
0000
0000
0000
0000
0000
0000
0001
0000
0000
0000
0000
0000
0000
0000
0100
0000
0000
0000
0000
0000
0000
0000
0001
0000
0000
0000
0000
0000
0000
0000
0010
0000
0000
0000
0000
0000
0000
0000
0100
0000
0000
0000
0000
0000
0000
0000
1000
0000
0000
0000
0000
0000
0000
0000
0010
0000
0000
0000
0000
0000
0000
0000
0100
0000
0000
0000
0000
0000
0000
0000
0001
0000
0000
0000
0000
0000
0000
0000
1000
0000
0000
0000
0000
0000
0000
0000
0100
0000
0000
0000
0000
0000
0000
0000
0010
0000
0000
0000
0000
0000
0000
0000
0001
0000
0000
0000
0000
0000
0000
0000
1000
0000
0000
0000
0000
0000
0100
0000
0000
0000
0000
0000
0010
0000
0000
0000
0000
0000
0000
0000
0000
0000
0000
0000
0001
0000
0000
0000
0000
0000
0000
0000
0000
0000
0000
0000
0100
0000
0000
0000
0000
0000
0010
0000
0000
0000
0000
0000
,
1000
0000
0001
0000
0100
0010
0100
0000
0001
0000
1000
0100
0010
0000
0001
0000
2002
0000
0000
0000
0000
0000
0000
0000
0000
0000
0000
0000
0000
0000
0000
0000
,
0000
0000
0000
0000
,
0000
0000
0000
0000
,
0000
0000
0000
0000
0000
0000
0000
0000
0000
0000
0000
0000
0000
0000
0000
0000
3103
0000
0010
0000
1000
0000
0000
0000
0001
0000
0010
0100
1000
0000
0001
0000
,
0100
0000
0000
0000
0000
0000
0010
0000
0000
0000
0000
0000
1000
0000
0000
0000
0000
0000
0000
0000
0000
0000
0000
0000
0100
0000
0000
0000
0000
0000
0000
0000
0000
0000
0000
0000
0010
0000
0000
0000
0000
0000
0001
0000
0000
0000
0000
0000
0100
0000
0000
0000
0000
0000
0000
0000
0000
0000
0000
0000
0010
0000
0000
0000
0000
0000
0000
0000
0000
0000
0000
0000
1000
0000
0000
0000
0000
0000
0000
0000
0100
0000
0000
0000
0000
0000
0000
0000
0010
0000
0000
0000
0000
0000
0000
0000
0001
0000
0000
0000
0000
0000
0000
0000
0100
0000
0000
0000
0000
0000
0000
0000
0001
0000
0000
0000
0000
0000
0000
0000
1000
0000
0000
0000
0000
0000
0000
0000
0010
0000
0000
0000
0000
0000
0000
0000
0100
0000
0000
0000
0000
0000
0000
0000
0001
0000
0000
0000
0000
0000
0000
0000
1000
0000
0000
0000
0000
0000
0000
0000
0100
0000
0000
0000
0000
0000
0000
0000
0010
0000
0000
0000
0000
0000
0000
0000
0001
0000
0000
0000
0000
0000
0000
0000
0100
0000
0000
0000
0000
0000
0000
0000
,
0010
1000
0001
0010
0100
1000
0001
0100
0001
1000
0010
0100
0001
1000
0100
0010
0001
0100
0001
1000
0010
0100
0010
1000
,
0001
0010
0001
1000
0100
0010
0001
0100
0010
1000
0001
0010
0200
0000
0000
0000
0000
0000
2302
0000
0000
0000
0000
0000
,
0000
0000
0000
0000
,
0000
0000
0000
0000
,
0000
0000
0000
0000
,
0000
0000
0000
0000
,
0000
0000
0000
0000
,
0000
0000
0000
0000
,
0000
0000
0000
0000
,
0000
0000
0000
0000
,
0000
0000
0000
0000
,
0000
0000
0000
0000
,
0000
0000
0000
0000
,
0000
0000
0000
0000
,
0000
0000
0000
0000
,
0000
0000
0000
0000
,
0000
0000
0000
0000
,
0000
0000
0000
0000
,
0000
0000
0000
0000
,
0000
0000
0000
0000
,
0000
0000
0000
0000
,
0000
0000
0000
0000
,
0000
0000
0000
0000
0000
0000
0000
0000
0000
0000
0000
0000
3003
0010
0001
1000
0010
0100
0010
1000
0100
0010
0001
0100
,
0010
0000
1000
0000
0001
0000
0010
0100
1000
0000
0010
0000
0100
0001
1000
0000
0001
0010
0100
1000
0010
0100
0001
1000
0100
1000
0010
0100
0001
1000
0100
0010
,
0001
1000
0010
1000
0100
0010
0001
0100
0010
1000
0001
0100
0001
0010
0100
1000
0010
0100
0010
1000
0100
0010
0001
0100
0001
1000
0010
0100
0001
1000
0100
0010
,
0001
0000
0000
0000
0000
0000
0000
0000
0100
0000
0000
0000
0000
0000
0000
0000
0010
0000
0000
0000
0000
0000
0000
0000
1000
0000
0000
0000
0000
0000
0000
0000
0010
0000
0000
0000
0000
0000
0000
0000
0100
0000
0000
0000
0000
0000
0000
0000
0001
0000
0000
0000
0000
0000
0000
0000
0010
0000
0000
0000
0000
0000
0000
0000
0100
0000
0000
0000
0000
0000
0000
0000
1000
0000
0000
0000
0000
0000
0010
0000
0000
0000
0000
0000
0100
0000
0000
0000
0000
0000
0001
0000
0000
0000
0000
0000
1000
0000
0000
0000
0000
0000
0100
0000
0000
0000
0000
0000
0010
0000
0000
0000
0000
0000
0001
0000
0000
0000
0000
0000
0100
0000
0000
0000
0000
0000
0010
0000
0000
0000
0000
0000
1000
0000
0000
0000
0000
0000
0001
0000
0000
0000
0000
0000
0100
0000
0000
0000
0000
0000
0001
0000
0000
0000
0000
0000
0010
0000
0000
0000
0000
0000
0100
0000
0000
0000
0000
0000
1000
0000
0000
0000
0000
0000
0010
0000
0000
0000
0000
0000
0100
0000
0000
0000
0000
0000
0001
0000
0000
0000
0000
0000
,
1000
0100
0010
0001
1000
0010
1000
0001
0100
0010
1000
0100
0010
0001
0100
0010
2000
0000
0000
0000
0000
0000
0000
0000
0000
0000
0000
0000
0000
0000
0000
0000
,
0000
0000
3020
0000
,
0230
0000
0302
0000
,
0000
0000
2003
0000
,
3010
0000
0000
0100
0000
0001
1000
0000
0020
0000
0000
0000
0000
0000
0000
0000
,
0000
0000
0000
0000
0000
0000
0130
1000
0002
0000
0000
0000
0203
0000
0320
0000
,
2030
0000
3001
0010
0100
2000
0000
0000
3002
0000
0000
0000
0203
0000
0320
0000
,
0000
0000
2030
0000
3002
0000
0000
0000
0023
0000
0000
0000
0000
0000
0130
1000
,
0002
0000
0000
0000
0203
0000
0000
0000
0310
1000
0001
0010
0001
0100
0010
1000
,
0100
0010
0001
1000
0010
1000
0100
0010
0001
0100
0010
1000
0001
0100
0001
0010
,
0100
1000
0010
0100
0001
1000
0100
0010
0001
1000
0010
1000
0001
0010
0100
1000
,
0001
0010
0001
0100
0010
0100
0001
1000
0010
1000
0100
0010
0001
1000
0010
0100
,
0001
1000
0100
0010
0001
0100
0010
0100
0001
1000
0010
0100
0010
1000
0001
0010
,
0001
1000
0010
0100
0001
1000
0100
0010
0001
0100
0010
1000
0010
0100
0001
1000
,
0100
0010
0001
0100
0010
1000
0001
0010
0100
0000
0000
0000
0000
0000
0000
0000
,
0000
0000
0001
0000
,
0000
0000
0010
0000
,
0000
0000
0100
0000
,
0000
0000
1000
0000
,
0000
0000
0010
0000
,
0000
0000
0100
0000
,
0000
0000
1000
0000
,
0000
0000
0000
0000
0000
0000
0000
0000
0000
0000
0000
0000
0000
0000
0000
0000
0010
0100
0001
0000
1000
0000
0100
0010
0001
0000
0100
0000
0010
1000
0001
0000
,
1000
0100
0010
0001
0100
0010
1000
0001
0100
0000
0010
0000
2000
0000
0000
0000
3001
0010
0100
1000
0010
0100
0001
1000
0010
1000
0100
0010
0001
0100
0001
1000
,
0010
0100
0001
1000
0100
0010
0001
0100
0010
1000
0001
0010
0100
1000
0001
0100
0010
1000
0002
0000
0103
0010
1000
0000
0002
0000
0103
0010
1000
0000
0001
0000
,
0100
0010
2000
0000
3100
0000
0010
0001
0200
0000
0310
0000
1000
0000
0001
0000
0100
0010
1000
0100
0010
0001
1000
0010
1000
0001
0100
0010
1000
0100
0010
0001
,
1000
0010
1000
0001
0100
0010
1000
0100
0010
0001
0100
0010
1000
0001
0010
0100
2000
0000
3010
0000
0100
0001
2000
0000
3100
0000
0010
0001
2000
0000
3010
0000
,
0200
0000
0301
0000
1000
0100
0010
0000
0001
0000
0100
0010
1000
0000
0001
0000
1000
0100
0010
0001
0100
0010
1000
0001
0100
0001
1000
0100
0010
0001
0100
0010
,
1000
0001
0010
0001
0100
0010
1000
0010
0100
0001
0010
0100
1000
0100
0010
0001
2000
0000
3010
0000
0100
0001
2000
0000
3100
0000
0010
0001
0200
0000
0310
0000
,
2000
0000
3100
0000
0010
0001
0200
0000
0310
0000
1000
0001
2000
0000
3100
0000
0010
0001
0100
0010
1000
0010
0100
0001
1000
0000
0110
0000
0000
0110
0000
0000
,
1000
0000
0000
0000
0000
0000
0100
0000
0000
0000
0000
0000
0010
0000
0000
0000
0000
0000
0001
0000
0000
0000
0000
0000
0100
0000
0000
0000
0000
0000
0001
0000
0000
0000
0000
0000
1000
0000
0000
0000
0000
0000
0010
0000
0000
0000
0000
0000
0100
0000
0000
0000
0001
0000
0000
0000
1000
0000
0000
0000
0100
0000
0000
0000
0010
0000
0000
0000
0001
0000
0000
0000
0100
0000
0000
0000
0010
0000
0000
0000
1000
0000
0000
0000
0001
0000
0000
0000
0010
0000
0000
0000
0100
0000
0000
0000
1000
0000
0000
0000
0000
0000
0000
0000
0000
0000
0000
0000
0100
0000
0000
0000
0000
0000
0000
0000
0000
0000
0000
0000
0010
0000
0000
0000
0000
0000
0000
0000
0000
0000
0000
0000
0001
0000
0000
0000
0000
0000
0000
0000
0000
0000
0000
0000
0100
0000
0000
0000
0000
0000
0010
0000
0000
0000
0000
0000
1000
0000
0000
0000
0000
0000
0100
0000
0000
0000
0000
0000
0010
0000
0000
0000
0000
0000
0001
0000
0000
0000
0000
0000
0100
0000
0000
0000
0000
0000
0001
0000
0000
0000
0000
0000
,
1000
0000
0000
0000
0001
0000
2000
0000
3100
0000
0010
0001
0100
0010
1000
0001
0100
0010
1000
0100
0010
0001
1000
0010
1000
0001
0100
0010
1000
0100
0010
0001
,
0100
0010
0100
0001
1000
0010
0100
0010
1000
0001
1000
0100
0010
0001
0100
0010
1000
0001
0200
0000
0310
0000
1000
0001
0020
0000
0130
0000
1000
0000
0001
0000
,
0100
0010
1000
0000
0200
0000
0310
0001
1000
0000
0020
0000
0130
0000
0001
0000
1000
0100
0010
0001
0100
0010
1000
0001
0100
0001
1000
0010
0100
0001
1000
0100
,
0010
0001
0100
0010
1000
0001
0010
0100
1000
0010
0100
0010
1000
0100
0010
0001
2000
0000
3010
0000
0100
0001
2000
0000
3100
0000
0010
0001
0200
0000
0310
0000
,
2000
0000
3001
0000
0010
0100
1000
0000
0010
0000
0100
0001
1000
0000
0010
0000
1000
0100
0010
0001
0100
0010
1000
0001
0100
0001
1000
0010
0100
0001
1000
0100
,
0010
0001
1000
0010
1000
0100
0010
0001
0100
0010
1000
0001
0010
0001
0100
0010
2000
0000
3001
0000
0200
0320
2030
0000
3100
0000
0020
0032
0203
0000
0310
0000
,
2000
0000
3100
0000
0020
0032
0203
0000
0310
0000
2000
3002
2003
0000
3100
0000
0002
0000
0000
0000
0000
0000
0000
0000
0000
0000
0000
0000
0000
0000
0000
0000
,
0000
0000
0000
0000
0000
0000
0000
0000
0000
0000
0000
0000
0000
0000
0000
0000
1003
0100
0010
0000
0001
0000
0100
0010
1000
0000
0001
0000
0010
0100
1000
0000
,
0001
0100
0010
1000
0002
0000
1003
0100
0010
0001
0200
0000
0310
1000
0001
0010
0100
1000
0001
0100
0010
1000
0001
0010
0100
1000
0001
0000
0100
0010
1000
0001
,
0100
0001
0010
0100
1000
0000
0010
0100
0001
1000
0100
0010
0001
0100
0010
1000
0001
0010
0100
0000
1000
0000
0010
0100
0001
0000
1000
0000
0010
0000
0100
0000
,
0001
1000
0100
0000
0010
0000
0001
0100
0010
0000
1000
0000
0100
0000
0010
0000
0001
0100
0010
1000
0001
0100
0001
1000
0010
0100
0001
1000
0100
0010
0001
0100
,
0010
0000
0000
0000
0000
0000
0000
0000
1000
0000
0000
0000
0000
0000
0000
0000
0100
0000
0000
0000
0000
0000
0000
0000
0010
0000
0000
0000
0000
0000
0000
0000
0001
0000
0000
0000
0000
0000
0000
0000
1000
0000
0000
0000
0000
0000
0000
0000
0010
0000
0000
0000
0000
0000
0100
0000
0000
0000
0000
0000
0001
0000
0000
0000
0000
0000
1000
0000
0000
0000
0000
0000
0100
0000
0000
0000
0000
0000
0010
0000
0000
0000
0000
0000
0001
0000
0000
0000
0000
0000
0100
0000
0000
0000
0000
0000
0010
0000
0000
0000
0000
0000
1000
0000
0000
0000
0000
0000
0001
0000
0000
0000
0000
0000
0000
0000
0000
0000
0000
0000
0010
0000
0000
0000
0000
0000
0000
0000
0000
0000
0000
0000
0100
0000
0000
0000
0000
0000
1000
0000
0000
0000
0000
0000
0001
0000
0000
0000
0000
0000
0100
0000
0000
0000
0000
0000
0010
0000
0000
0000
0000
0000
1000
0000
0000
0000
0000
0000
0100
0000
0000
0000
0000
0000
0010
0000
0000
0000
0000
0000
0001
0000
0000
0000
0000
0000
1000
0000
0000
0000
0000
0000
,
0010
0000
0100
0000
0001
1000
0010
0000
0100
0000
0001
0010
0100
0000
1000
0000
0010
0100
0001
1000
0100
0010
0001
1000
0010
1000
0001
0010
0100
1000
0010
0100
,
0010
1000
0001
0100
0001
1000
0010
0100
0001
1000
0100
0010
0001
0100
0010
1000
0001
0010
0100
0000
1000
0000
0010
0100
0001
0000
1000
0000
0010
0000
0100
0000
,
0001
1000
0100
0000
0010
0000
0001
1000
0010
0000
0100
0000
0001
0000
1000
0000
0400
0000
0000
0000
0000
0000
0000
0000
0000
0000
0000
0000
0000
0000
0000
0000
,
0000
0000
0000
0000
0000
0000
0000
0000
0000
0000
0000
0000
0000
0000
0000
0000
0000
0000
0000
0000
0000
0000
0000
0000
0000
0000
0000
0000
0000
0000
0000
0000
0000
0000
0000
0000
0000
0000
0000
0000
0000
0000
0000
0000
0000
0000
0000
0000
0000
0000
0000
0000
0000
0000
0000
0000
0000
0000
0000
0000
0000
0000
0000
0000
0000
0000
0000
0000
0000
0000
0000
0000
0000
0000
0000
0000
0000
0000
0000
0000
0000
0000
0000
0000
0000
0000
0000
0000
0000
0000
0000
0000
0000
0000
0000
0000
0301
0000
0000
0000
0000
0000
0000
0000
1000
0000
0000
0000
0000
0000
0000
0000
0100
0000
0000
0000
0000
0000
0000
0000
0010
0000
0000
0000
0000
0000
0000
0000
0001
0000
0000
0000
0000
0000
0000
0000
0100
0000
0000
0000
0000
0000
0000
0000
0010
0000
0000
0000
0000
0000
1000
0000
0000
0000
0000
0000
0001
0000
0000
0000
0000
0000
0100
0000
0000
0000
0000
0000
0001
0000
0000
0000
0000
0000
0010
0000
0000
0000
0000
0000
0100
0000
0000
0000
0000
0000
1000
0000
0000
0000
0000
0000
,
0010
0000
0000
0000
0100
0000
0001
0000
0100
0000
1000
0000
0001
0010
0100
1000
0001
0100
0010
1000
0001
0100
0001
0010
0100
1000
0001
0000
0100
0000
0010
0000
,
1000
0000
0001
0000
1000
0000
0001
0000
1000
0000
0001
0000
2000
0000
3200
0000
0310
0001
1000
0000
0010
0000
1000
0001
0100
0000
0010
0000
2002
0000
3003
0000
,
1000
0100
0010
0000
0001
0000
0100
0010
1000
0000
0001
0000
0010
0100
1000
0000
0010
0100
0001
1000
0100
0010
0001
1000
0010
0100
0001
0000
1000
0100
0010
0000
,
0001
0000
0100
0000
0001
0000
0100
0000
0001
0000
0100
0000
0002
0000
0023
0000
0130
1000
0001
0000
0100
0000
0010
1000
0001
0000
0010
0000
2002
0000
3003
0000
,
1000
0100
0010
0000
0001
0000
0100
0010
1000
0100
0010
0001
0100
0001
1000
0010
0100
0001
1000
0100
0010
0001
0100
0010
1000
0001
0010
0000
0100
0000
1000
0001
,
0100
0000
0010
0000
0100
0000
0010
0100
0010
0000
0100
0000
0020
0000
2030
0000
3001
0010
0100
0000
1000
0000
0010
0100
0001
0000
1000
0000
2002
0000
3003
0000
,
0001
0000
0000
0000
0000
0000
0010
0000
0000
0000
0000
0000
0100
0000
0000
0000
0000
0000
1000
0000
0000
0000
0000
0000
0010
0000
0000
0000
0000
0000
0100
0000
0000
0000
0000
0000
0001
0000
0000
0000
0000
0000
0100
0000
0000
0000
0000
0000
0010
0000
0000
0000
0000
0000
1000
0000
0000
0000
0000
0000
0001
0000
0000
0000
0000
0000
1000
0000
0000
0000
0000
0000
0100
0000
0000
0000
0000
0000
0010
0000
0000
0000
0000
0000
0001
0000
0000
0000
0000
0000
1000
0000
0000
0000
0000
0000
0010
0000
0000
0000
0000
0000
0000
0000
0100
0000
0000
0000
0000
0000
0000
0000
0001
0000
0000
0000
0000
0000
0000
0000
1000
0000
0000
0000
0000
0000
0000
0000
0100
0000
0000
0000
0000
0000
0000
0000
0010
0000
0000
0000
0000
0000
0000
0000
0001
0000
0000
0000
0000
0000
1000
0000
0000
0000
0000
0000
0010
0000
0000
0000
0000
0000
0000
0000
0000
0000
0000
0000
0100
0000
0000
0000
0000
0000
0000
0000
0000
0000
0000
0000
0001
0000
0000
0000
0000
0000
0000
0000
0000
0000
0000
0000
,
1000
0000
0010
0000
1000
0000
0010
0000
1000
0000
0010
0000
2000
0000
3200
0000
0310
0001
0100
0000
0010
0000
1000
0001
0100
0000
0010
0000
2002
0000
3003
0000
,
1000
0000
0000
0000
0000
0000
0000
0000
0100
0000
0000
0000
0000
0000
0000
0000
0010
0000
0000
0000
0000
0000
0000
0000
0001
0000
0000
0000
0000
0000
0000
0000
0100
0000
0000
0000
0000
0000
0000
0000
0010
0000
0000
0000
0000
0000
0000
0000
1000
0000
0000
0000
0000
0000
0100
0000
0000
0000
0000
0000
0010
0000
0000
0000
0000
0000
0001
0000
0000
0000
0000
0000
0100
0000
0000
0000
0000
0000
0010
0000
0000
0000
0000
0000
1000
0000
0000
0000
0000
0000
0001
0000
0000
0000
0000
0000
0010
0000
0000
0000
0000
0000
0000
0000
0100
0000
0000
0000
0000
0000
0000
0000
1000
0000
0000
0000
0000
0000
0000
0000
0001
0000
0000
0000
0000
0000
0000
0000
0100
0000
0000
0000
0000
0000
0000
0000
0010
0000
0000
0000
0000
0000
0000
0000
0100
0000
0000
0000
0000
0000
0000
0000
0001
0000
0000
0000
0000
0000
0000
0000
1000
0000
0000
0000
0000
0000
0000
0000
0010
0000
0000
0000
0000
0000
0000
0000
0100
0000
0000
0000
0000
0000
0000
0000
0001
0000
0000
0000
0000
0000
0000
0000
,
1000
0100
0010
0001
0100
0001
1000
0010
0100
0001
1000
0010
0100
0010
1000
0001
0010
0100
1000
0010
0100
0010
1000
0001
,
0100
0000
0000
0000
0000
0000
0000
0000
0001
0000
0000
0000
0000
0000
0000
0000
0010
0000
0000
0000
0000
0000
0000
0000
0100
0000
0000
0000
0000
0000
0000
0000
1000
0000
0000
0000
0000
0000
0000
0000
0010
0000
0000
0000
0000
0000
0000
0000
0100
0000
0000
0000
0000
0000
0000
0000
0001
0000
0000
0000
0000
0000
0000
0000
1000
0000
0000
0000
0000
0000
0000
0000
0100
0000
0000
0000
0000
0000
0000
0000
0010
0000
0000
0000
0000
0000
0000
0000
0001
0000
0000
0000
0000
0000
0000
0000
1000
0000
0000
0000
0000
0000
0100
0000
0000
0000
0000
0000
0010
0000
0000
0000
0000
0000
0000
0000
0000
0000
0000
0000
0001
0000
0000
0000
0000
0000
0000
0000
0000
0000
0000
0000
0100
0000
0000
0000
0000
0000
0010
0000
0000
0000
0000
0000
1000
0000
0000
0000
0000
0000
0000
0000
0000
0000
0000
0000
0001
0000
0000
0000
0000
0000
0000
0000
0000
0000
0000
0000
0100
0000
0000
0000
0000
0000
0010
0000
0000
0000
0000
0000
0100
0000
0000
0000
0000
0000
0000
0000
0000
0000
0000
0000
,
0001
0000
1000
0100
0010
0000
0001
0000
2002
0000
0000
0000
0000
0000
0000
0000
3103
0010
0001
0000
0100
0010
1000
0000
0100
0000
0010
0001
0100
0000
0010
0000
,
1000
0000
0000
0000
0000
0000
0001
0000
0000
0000
0000
0000
1000
0000
0000
0000
0000
0000
0000
0000
0000
0000
0000
0000
0010
0000
0000
0000
0000
0000
0000
0000
0000
0000
0000
0000
0100
0000
0000
0000
0000
0000
0001
0000
0000
0000
0000
0000
1000
0000
0000
0000
0000
0000
0000
0000
0000
0000
0000
0000
0100
0000
0000
0000
0000
0000
0000
0000
0000
0000
0000
0000
0010
0000
0000
0000
0000
0000
0001
0000
0000
0000
0000
0000
1000
0000
0000
0000
0000
0000
0000
0000
0000
0000
0000
0000
0100
0000
0000
0000
0000
0000
0000
0000
0010
0000
0000
0000
0000
0000
0000
0000
0001
0000
0000
0000
0000
0000
0000
0000
0100
0000
0000
0000
0000
0000
0000
0000
0010
0000
0000
0000
0000
0000
0000
0000
1000
0000
0000
0000
0000
0000
0000
0000
0001
0000
0000
0000
0000
0000
0000
0000
0100
0000
0000
0000
0000
0000
0000
0000
0001
0000
0000
0000
0000
0000
0000
0000
1000
0000
0000
0000
0000
0000
0000
0000
0010
0000
0000
0000
0000
0000
0000
0000
0100
0000
0000
0000
0000
0000
0000
0000
,
0001
1000
0100
0010
0001
0100
0010
1000
0001
0010
0001
1000
0010
0100
0001
1000
0100
0010
0001
0100
0001
1000
0010
0100
,
0001
1000
0100
0010
0001
0100
0010
1000
0001
0010
0100
1000
0020
0000
0000
0000
0000
0000
2032
0000
0000
0000
0000
0000
,
0000
0000
0000
0000
,
0000
0000
0000
0000
,
0000
0000
0000
0000
,
0000
0000
0000
0000
,
0000
0000
0000
0000
,
0000
0000
0000
0000
,
0000
0000
0000
0000
0000
0000
0000
0000
0000
0000
0000
0000
0000
0000
0000
0000
0000
0000
3103
0010
0001
0100
0010
1000
,
0001
0000
0000
0000
0000
0000
0000
0000
0010
0000
0000
0000
0000
0000
0000
0000
0100
0000
0000
0000
0000
0000
0000
0000
1000
0000
0000
0000
0000
0000
0000
0000
0010
0000
0000
0000
0000
0000
0000
0000
0100
0000
0000
0000
0000
0000
0000
0000
0001
0000
0000
0000
0000
0000
0000
0000
0000
0000
0000
0000
1000
0000
0000
0000
0000
0000
0000
0000
0000
0000
0000
0000
0020
0000
0000
0000
0000
0000
0000
0000
0000
0000
0000
0000
0230
0000
0000
0000
0000
0000
0000
0000
0000
0000
0000
0000
0000
0000
0000
0000
0000
0000
0000
0000
0000
0000
0000
0000
0300
0000
0000
0000
0000
0000
0000
0000
0000
0000
0000
0000
0002
0000
0000
0000
0000
0000
0000
0000
0000
0000
0000
0000
0000
0000
0000
0000
0000
0000
0000
0000
0000
0000
0000
0000
2MM3
0000
0000
0000
0000
0000
0MM0
0000
0000
0000
0000
0000
3MMM
0000
0000
0000
0000
0000
0MMM
0000
0000
0000
0000
0000
MMMM
0000
0000
0000
0000
0000
MMMM
0000
0000
0000
0000
0000
MMMM
0000
0000
0000
0000
0000
MMMM
0000
0000
0000
0000
0000
,
MMMM
0000
0000
0000
,
0000
0000
0000
0000
,
0000
0000
0000
0000
,
FFFF
FFFF
FFFF
FFFF
FFFF
FFFF
FFFF
FFFF
FFFF
FFFF
FFFF
FFFF
FFFF
FFFF
FFFF
FFFF
,
FFFF
0000
0000
0000
;
