#TITLE:JOY TO THE WORLD;
#SUBTITLE:;
#ARTIST:VIOLENT STRING ENSAMBLE;
#TITLETRANSLIT:;
#SUBTITLETRANSLIT:;
#ARTISTTRANSLIT:;
#CREDIT:;
#BANNER:JOY TO THE WORLD.png;
#BACKGROUND:JOY TO THE WORLD-bg.png;
#LYRICSPATH:;
#CDTITLE:Christmas Speed.png;
#MUSIC:JOY TO THE WORLD.mp3;
#OFFSET:-0.053;
#SAMPLESTART:27.039;
#SAMPLELENGTH:12.000;
#SELECTABLE:YES;
#BPMS:0.000=176.766;
#STOPS:;
#BGCHANGES:;
// cache tags:
#FIRSTBEAT:16.000;
#LASTBEAT:260.000;
#SONGFILENAME:Songs/DDRExtreme.co.uk presents ChristmasMix/JOY TO THE WORLD/JOY TO THE WORLD.sm;
#HASMUSIC:1;
#HASBANNER:1;
#MUSICLENGTH:90.937;
// end cache tags

//---------------dance-single - ----------------
#NOTES:
     dance-single:
     :
     Easy:
     4:
     0.254,0.286,0.033,0.000,0.000,159.000,3.000,0.000,0.000,0.000:  // measure 1
0000
0000
0000
0000
,  // measure 2
0000
0000
0000
0000
,  // measure 3
0000
0000
0000
0000
,  // measure 4
0000
0000
0000
0000
,  // measure 5
0010
0000
0000
0000
,  // measure 6
1000
0010
1000
0000
,  // measure 7
0010
0000
1000
0000
,  // measure 8
0001
0010
0001
0000
,  // measure 9
1000
0100
0001
0010
,  // measure 10
1000
0000
0001
0000
,  // measure 11
1000
0010
0001
0100
,  // measure 12
1000
0000
0000
0000
,  // measure 13
0010
0010
0100
0100
,  // measure 14
0001
0000
0000
0000
,  // measure 15
0001
0001
1000
1000
,  // measure 16
0010
0000
0000
0000
,  // measure 17
0100
0010
0000
0100
,  // measure 18
0001
0000
1000
0010
,  // measure 19
0100
0000
0001
0000
,  // measure 20
1001
0000
0000
0000
,  // measure 21
1000
0000
0010
0000
,  // measure 22
0100
0000
0000
0001
,  // measure 23
0010
0000
0100
0000
,  // measure 24
1000
0000
0000
0001
,  // measure 25
1000
0000
0000
1000
,  // measure 26
0001
0000
0000
0001
,  // measure 27
1000
0000
0000
0000
,  // measure 28
0000
0010
0010
0010
,  // measure 29
0010
0100
0010
0000
,  // measure 30
1000
1000
1000
0000
,  // measure 31
0001
0001
0001
0000
,  // measure 32
1000
0100
1000
0000
,  // measure 33
0001
1000
0001
0000
,  // measure 34
1000
1000
1000
0000
,  // measure 35
0001
0001
0001
0000
,  // measure 36
0100
0010
0100
0000
,  // measure 37
0001
0010
0100
1000
,  // measure 38
0001
0000
1000
0001
,  // measure 39
0010
0100
1000
0001
,  // measure 40
1000
0000
0000
0010
,  // measure 41
0100
0010
0100
0010
,  // measure 42
0100
0000
0000
0010
,  // measure 43
0100
0010
0100
0010
,  // measure 44
0100
0000
0000
0001
,  // measure 45
1000
0001
0000
1000
,  // measure 46
0001
0000
1000
0001
,  // measure 47
1000
0000
0001
0000
,  // measure 48
1001
0000
0000
0000
,  // measure 49
0010
0000
0100
0000
,  // measure 50
0001
0000
0000
1000
,  // measure 51
0010
0000
0100
0000
,  // measure 52
0001
0000
0000
0100
,  // measure 53
0010
0000
0000
0010
,  // measure 54
0100
0000
0000
0100
,  // measure 55
0010
0000
0000
0000
,  // measure 56
0000
1000
1000
1000
,  // measure 57
1000
0001
1000
0000
,  // measure 58
0010
0010
0010
0000
,  // measure 59
0100
0100
0100
0000
,  // measure 60
0001
1000
0001
0000
,  // measure 61
0100
0010
0100
0000
,  // measure 62
0001
0001
0001
0000
,  // measure 63
1000
1000
1000
0000
,  // measure 64
0001
0100
1000
0010
,  // measure 65
0001
0100
1000
0010
,  // measure 66
1001
0000
0000
0000
;

//---------------dance-single - ----------------
#NOTES:
     dance-single:
     :
     Medium:
     7:
     0.515,0.572,0.671,0.231,0.000,246.000,61.000,21.000,0.000,0.000:  // measure 1
0000
0000
0000
0000
,  // measure 2
0000
0000
0000
0000
,  // measure 3
0000
0000
0000
0000
,  // measure 4
0000
0000
0000
0000
,  // measure 5
1000
0001
1100
0000
,  // measure 6
0001
1000
0101
0000
,  // measure 7
1000
0001
0011
0101
,  // measure 8
1001
0101
0011
1000
,  // measure 9
0010
0100
0001
1000
,  // measure 10
0010
0000
0000
0100
0010
0000
1000
0000
,  // measure 11
0001
1000
0010
0100
,  // measure 12
0020
0000
0030
1001
,  // measure 13
0100
0000
1001
0000
0100
0000
1000
0001
,  // measure 14
1000
0000
0001
0000
0100
0000
0001
1000
,  // measure 15
0001
0000
1001
0000
0100
0000
0010
0100
,  // measure 16
0010
0000
1000
0000
0001
0000
1000
0010
,  // measure 17
1000
1001
0010
1001
,  // measure 18
0110
0000
0000
1000
0001
0000
1001
0000
,  // measure 19
0110
0000
1001
0000
,  // measure 20
0220
0000
0000
0330
,  // measure 21
2000
0000
3020
0000
,  // measure 22
0230
0001
0301
0000
,  // measure 23
0002
0000
0203
0000
,  // measure 24
0320
1000
1030
0001
,  // measure 25
0101
0000
0000
0010
,  // measure 26
1010
0000
0000
0100
,  // measure 27
2002
0000
0000
0000
,  // measure 28
3003
1010
0101
1010
,  // measure 29
1000
0010
1000
0000
1100
0000
0001
0000
,  // measure 30
0001
0100
0001
0000
0011
0000
1000
0000
,  // measure 31
1000
0001
1000
0000
1010
0000
0001
0000
,  // measure 32
0001
1000
0001
0000
0101
0000
1000
0000
,  // measure 33
0010
0100
0010
0100
0010
0000
1100
0000
,  // measure 34
0010
0100
0010
0100
0010
0000
0101
0000
,  // measure 35
0010
0100
0010
0100
0010
0000
1010
0000
,  // measure 36
0010
0100
0010
0100
0010
0000
0011
0000
,  // measure 37
0101
0011
0101
1001
,  // measure 38
0011
0000
0000
1000
0010
0000
1100
0000
,  // measure 39
1010
1100
1010
1100
,  // measure 40
2002
0000
3003
1000
,  // measure 41
0101
0000
1000
0000
0101
0000
1000
0010
,  // measure 42
1000
0000
0000
0000
0000
0000
0001
0010
,  // measure 43
0001
0000
0010
0000
1100
0000
0010
0100
,  // measure 44
0010
0000
0000
0000
0000
0000
1000
0001
,  // measure 45
1000
1001
0000
0101
,  // measure 46
1010
0000
0000
1000
0010
0000
1001
0000
,  // measure 47
0110
0000
1000
0010
0100
0000
0001
0010
,  // measure 48
0100
1000
0010
0100
,  // measure 49
0002
0000
2003
0000
,  // measure 50
3020
0100
0130
0000
,  // measure 51
0200
0000
0320
0000
,  // measure 52
2030
0001
3001
0100
,  // measure 53
0101
0000
0000
0010
,  // measure 54
1010
0000
0000
0010
,  // measure 55
2002
0000
0000
3003
,  // measure 56
0000
0001
1000
0001
1000
0010
0100
0010
,  // measure 57
0100
0001
1000
0000
1001
0000
0100
0000
,  // measure 58
0010
0100
1000
0000
1001
0000
0100
0000
,  // measure 59
0001
0010
0001
0010
0001
0000
1001
0000
,  // measure 60
1000
0100
1000
0100
1000
0000
0001
1000
,  // measure 61
0001
1000
0010
0100
0001
0000
1001
0000
,  // measure 62
0100
0010
1000
0000
1001
0000
0100
0000
,  // measure 63
0010
0100
0001
0000
1001
0000
0010
0000
,  // measure 64
1000
0001
1000
0001
0100
0010
0100
0010
,  // measure 65
1000
0001
0100
0010
1000
0000
0110
0000
,  // measure 66
1001
0000
0000
0000
;

//---------------dance-single - ----------------
#NOTES:
     dance-single:
     :
     Hard:
     8:
     0.650,0.608,0.748,0.088,0.000,338.000,68.000,8.000,0.000,0.000:  // measure 1
0000
0000
0000
0000
,  // measure 2
0000
0000
0000
0000
,  // measure 3
0000
0000
0000
0000
,  // measure 4
0000
0000
0000
0000
,  // measure 5
1000
0010
0100
0000
1001
0000
0011
0000
,  // measure 6
0001
0100
0010
0000
1001
0000
1010
0000
,  // measure 7
1000
0100
0010
0000
0110
0000
0101
0000
,  // measure 8
0001
0010
0100
1000
0001
0000
1001
0000
,  // measure 9
1100
0001
0010
0100
,  // measure 10
1000
0000
0001
0010
0100
0000
1000
0000
,  // measure 11
1010
0100
0001
0010
,  // measure 12
0100
0010
0100
0001
1000
0000
0010
0000
,  // measure 13
1010
0000
0011
0000
1010
0000
0001
0010
,  // measure 14
0001
1000
1000
0100
,  // measure 15
1100
0000
0101
0000
1100
0000
0001
0100
,  // measure 16
0001
1000
1000
0001
,  // measure 17
1001
2010
3100
0102
,  // measure 18
0013
0000
0100
0010
1000
0000
0001
0010
,  // measure 19
0100
0000
1000
0100
0001
0000
0001
0100
,  // measure 20
1000
0100
1000
0100
0001
0100
0001
0100
,  // measure 21
2000
0000
0010
0000
3100
0000
0001
0010
,  // measure 22
0100
1000
0010
0100
0001
0000
1000
0000
,  // measure 23
0002
0010
0103
0001
,  // measure 24
1000
0100
0010
0001
1000
0000
1001
0000
,  // measure 25
0001
0010
0100
1000
0001
0000
1001
0000
,  // measure 26
1000
0010
0100
0001
1000
0000
1001
0000
,  // measure 27
0001
0010
0001
0100
0010
1000
0100
1000
,  // measure 28
0000
1000
0100
1000
0001
0010
0001
1000
,  // measure 29
0100
0010
0100
1000
0001
0000
1001
0000
,  // measure 30
0001
0010
0100
0010
0001
0000
0011
0000
,  // measure 31
1000
0100
0010
0100
1000
0000
1100
0000
,  // measure 32
1000
0100
0001
0100
1000
0000
0001
0010
,  // measure 33
0100
1000
0100
0010
0001
0000
1001
0000
,  // measure 34
1000
0100
1000
0010
1000
0000
1001
0000
,  // measure 35
0001
0010
0001
0100
0001
0000
1001
0000
,  // measure 36
0001
0010
0100
0010
0001
0000
1001
0000
,  // measure 37
1100
1001
0101
1001
,  // measure 38
1100
0000
0000
0001
0100
0000
1001
0000
,  // measure 39
0011
1001
1010
1001
,  // measure 40
0012
0100
0103
0110
,  // measure 41
0110
0000
1010
0000
0011
0000
1000
0010
,  // measure 42
1000
0000
0001
0010
0100
0000
0010
1000
,  // measure 43
0001
0000
1100
0000
0101
0000
1000
0100
,  // measure 44
1000
0000
0010
0100
0001
0000
1000
0100
,  // measure 45
0010
1002
1003
0101
,  // measure 46
0011
0000
0000
1000
0100
0000
1010
0000
,  // measure 47
1001
0000
0001
0010
0001
0000
1000
0010
,  // measure 48
1000
0000
0001
0010
0100
0000
1000
0000
,  // measure 49
1002
0100
1003
0010
,  // measure 50
0001
0100
0010
1000
0100
0000
1001
0000
,  // measure 51
0012
1000
0013
1000
,  // measure 52
0010
1000
0100
1000
0001
0000
1100
0000
,  // measure 53
0010
0100
0010
1000
0001
0000
0101
0000
,  // measure 54
0010
0001
0100
0010
1000
0000
1100
0000
,  // measure 55
0010
1000
0001
1000
0001
0100
0010
0100
,  // measure 56
0000
0001
0100
0001
0100
0010
1000
0010
,  // measure 57
1000
0100
0010
0100
1000
0000
1001
0000
,  // measure 58
0001
0010
0100
1000
0010
0000
1001
0000
,  // measure 59
1000
0100
0001
0100
1000
0000
1001
0000
,  // measure 60
0101
0011
0101
1010
,  // measure 61
0001
0100
0010
1000
0001
0000
0110
0000
,  // measure 62
1000
0100
0001
0100
1000
0000
0110
0000
,  // measure 63
0001
0010
0100
1000
0010
0000
1001
0000
,  // measure 64
1000
0100
0001
0100
1000
0010
0001
0010
,  // measure 65
1000
0100
0001
0100
1000
0000
0110
0000
,  // measure 66
1001
0000
0000
0000
;
