#TITLE:perfect situation;
#SUBTITLE:;
#ARTIST:weezer;
#TITLETRANSLIT:;
#SUBTITLETRANSLIT:;
#ARTISTTRANSLIT:;
#CREDIT:;
#BANNER:ban.jpg;
#BACKGROUND:back.jpg;
#LYRICSPATH:;
#CDTITLE:;
#MUSIC:19 perfect situation.mp3;
#OFFSET:-0.156;
#SAMPLESTART:120.754;
#SAMPLELENGTH:20.000;
#SELECTABLE:YES;
#DISPLAYBPM:93.000;
#BPMS:0.000=93.900;
#STOPS:;
#BGCHANGES:;
// cache tags:
#FIRSTBEAT:0.000;
#LASTBEAT:396.000;
#SONGFILENAME:Songs/new/perfect situation/perfect situation.sm;
#HASMUSIC:1;
#HASBANNER:1;
#MUSICLENGTH:256.697;
// end cache tags

//---------------dance-single - ----------------
#NOTES:
     dance-single:
     :
     Hard:
     8:
     0.521,0.636,0.545,0.448,0.008,681.000,140.000,115.000,0.000,14.000:
1010
0101
0100
0100
1100
0100
0101
0100
,
0110
0110
1100
0101
0110
0011
1100
0110
,
0101
0100
1100
1100
0101
0110
0101
0011
,
1100
1100
1001
1001
0110
0110
1001
1100
,
0110
0101
0110
1001
1100
0110
1001
0101
,
0110
0100
1100
0100
0002
0103
0010
0100
,
1000
0100
0001
0100
0001
0100
0010
0100
,
0010
0000
1000
0000
0100
0000
0001
0000
0101
0000
0010
0000
0100
0010
1000
0100
,
0010
1000
0100
0010
1000
0000
0100
0000
0001
0000
0100
0000
0010
0000
0100
0000
,
1100
0100
0001
0100
0101
0100
0010
0100
,
0110
0100
1100
0100
0101
0100
0110
0200
,
0302
0100
0023
2030
0000
3100
0110
0001
,
0101
0100
0110
0100
1100
0100
0101
0100
,
0010
0100
1000
0100
0100
0001
0100
0010
,
0100
1000
0100
0001
0120
2030
3100
0001
,
0101
0100
1100
0100
0101
0101
0200
2300
,
3020
0230
0302
0103
0020
2030
3200
0302
,
0103
0010
0200
1300
0200
0000
0000
0301
,
0101
0100
1100
0100
0001
0100
0020
1000
,
0130
0100
0001
0001
0002
0000
0103
0100
,
0010
1000
0100
0001
0002
0000
0103
0010
,
1000
0100
0001
0100
0010
0100
1010
0200
,
1000
0300
0100
0000
0001
0000
0100
0000
0010
0000
0100
0000
0001
0000
0000
0000
,
0000
0000
0002
0000
0000
0003
0000
0000
,
0002
0003
0100
1000
0010
0100
0001
0100
,
1100
0100
0101
0100
0110
0011
0100
1100
,
0100
0010
0100
0001
0100
0010
0100
1100
,
0100
0001
0100
0010
0200
0000
1000
1300
,
0001
0100
0011
0100
1000
0100
0020
0130
,
0002
0103
0010
0100
0001
0100
0010
0100
,
2000
3200
0000
0001
0010
1000
0001
0310
,
0200
2300
0010
0100
0001
0010
3100
1000
,
2100
0010
0001
0100
0010
0001
0100
3100
,
0202
0013
1000
0001
0010
0300
1000
0100
,
2200
0000
3302
0023
1030
0100
0001
0001
,
0002
0010
0100
1000
0103
0100
0002
0100
,
0023
2030
0000
0100
0011
0100
3020
1030
,
0020
0000
0130
2000
3200
0302
0103
0010
,
1200
0010
0300
0001
0100
0011
0101
0100
,
2000
3100
0001
0100
0001
0010
0100
1000
,
1100
0100
0101
0100
0110
0100
1100
0100
,
0101
0011
0100
1000
0101
0100
0010
1100
,
0000
0100
0101
0100
0010
0100
1001
0100
,
0010
1100
0100
0001
0100
0110
1100
0101
,
0110
1000
0100
0001
0100
0010
1100
0100
,
0001
0100
0011
0100
0010
0100
1000
0100
,
0001
0100
0010
1000
0100
1100
1100
1000
,
0001
0100
0010
0100
1100
0100
0101
0100
,
0010
0100
1000
0100
0001
0100
0010
0100
,
0002
0100
0013
0100
0001
0100
0010
1000
,
0200
1000
0010
0001
0010
1000
0301
0100
,
0020
2030
0100
0010
0001
0100
0010
0001
,
0100
0010
3001
0002
0103
0010
0100
0100
,
0002
0100
0010
0100
2003
0100
0000
0010
,
3101
0020
2030
0100
0010
0100
0001
3100
,
0020
0000
2030
0100
3002
0000
0103
0010
,
0020
0000
2030
0000
3101
0101
0100
0000
,
1010
0100
0001
0100
0110
1000
0100
0001
,
0010
0100
0001
0100
0010
0100
0100
0001
,
0100
0010
0100
0010
0100
0001
0001
0001
,
0101
0100
1100
0100
0110
0100
0011
0100
,
0000
0101
1100
0100
0001
0100
0010
0110
,
0100
0010
0011
0100
1100
0001
0100
0010
,
0100
0001
0100
0020
2030
3100
0000
0001
,
0200
0000
1000
0010
1000
0302
0103
0020
,
1030
1000
0101
0100
0101
0010
0100
0001
,
0100
0010
0100
0101
0000
0010
0100
0001
,
0100
0100
0010
0100
0100
0100
0001
0100
,
0100
0010
1000
0100
0001
0100
0010
0100
,
1000
0100
0001
0100
0010
1100
0100
0001
,
0000
0200
1000
0010
1000
0001
0010
1000
,
0300
1001
1001
1100
1100
0110
0100
0101
,
0100
2000
0000
0000
0200
0000
0000
0000
,
3300
0020
0000
0000
2000
0000
0000
0030
,
3000
0200
0000
0000
0000
0000
0000
0301
,
1100
0002
0000
0000
0000
0000
0000
0023
,
0000
0230
0000
0000
2000
0000
0000
0000
,
3320
0000
0000
0030
0202
0000
0000
0000
,
2303
0000
0000
0000
0000
0000
0000
3100
,
0101
0020
0000
0000
0000
1030
1100
0000
,
0101
0010
1000
0100
0101
0010
1100
0100
,
0101
0010
1000
0100
0001
0100
0010
0100
,
0100
0200
0010
1000
0010
1000
0010
2300
,
3001
0100
0010
1100
0200
0302
0123
0000
,
2030
3200
0001
0020
2030
0300
0010
0000
,
0100
0001
0100
0010
3100
0002
0103
0020
,
1030
2002
0103
3010
0100
0001
1000
0010
,
0100
0011
0100
1100
0100
0110
0100
0101
,
0100
0020
0000
0000
2230
0000
3020
0300
,
0002
0030
0103
0110
2000
0000
0200
3000
,
0020
0300
0031
0100
0010
0100
1000
0100
,
0200
0000
0320
0131
0020
0000
2030
0100
,
3001
0200
0320
0000
0000
0230
2300
0001
,
3100
0010
1100
0100
0001
0100
1010
0100
,
0001
0110
0100
1000
0100
0001
0100
0010
,
1100
0100
0001
0100
0010
0100
1000
0101
,
0202
0000
0000
0000
,
0000
0000
0000
2303
0000
0000
0000
0000
,
0000
0000
0000
0000
,
3000
0000
0000
0000
;

//---------------dance-single - ----------------
#NOTES:
     dance-single:
     :
     Medium:
     6:
     0.362,0.405,0.062,0.440,0.000,522.000,16.000,113.000,0.000,1.000:
1010
0100
0001
0100
0010
0100
1000
0100
,
0001
0100
0010
0100
1000
0100
1000
0100
,
0010
0100
0010
0100
0001
0100
0001
0100
,
0010
0001
0010
0001
0010
0001
0010
0001
,
0100
1000
0100
0001
0100
1000
0100
0001
,
0010
1000
0010
0001
0010
1000
0010
0001
,
0100
1000
0100
1000
0100
1000
0100
1000
,
0010
0001
0010
0001
0010
0001
0010
0001
,
0100
0100
0100
0100
1000
1000
1000
1000
,
0100
0100
0100
0100
0010
0010
0010
0010
,
0001
0001
0001
0001
0010
1000
0100
0001
,
0010
0010
0100
0100
1000
1000
0100
0100
,
0001
0010
1000
0100
0001
0010
0100
1000
,
1000
0100
0010
0001
0100
0010
0100
0000
,
1000
0100
1000
0000
0001
0100
0001
0000
,
0010
1000
0100
0001
0010
0100
1000
1000
,
2000
0000
3100
0100
0200
0000
0301
0100
,
0020
0000
1030
0100
0200
0000
0000
0301
,
0001
1000
0100
0001
0100
0020
0000
0000
,
1030
1000
2000
3100
0002
0000
0103
0010
,
0200
0000
1000
1300
0200
0000
0301
0001
,
0001
0200
0310
1000
0200
0301
0100
0010
,
0020
2000
0000
0000
0000
3030
0200
0000
,
0302
0000
0103
0100
,
2000
0000
0100
3000
0200
0000
0301
0000
,
0010
1000
0100
0001
0002
0000
0000
0000
,
0103
0100
0200
0000
1300
1000
2000
0000
,
3100
0010
0100
0001
0002
0000
0103
0010
,
0100
0000
1000
0100
1000
0000
0100
0001
,
0010
0100
0001
0100
0010
0100
0001
0100
,
1000
1000
0000
0000
0000
1000
0100
0001
,
1001
1001
0110
0110
,
2000
0000
0000
3002
0000
0000
0000
0000
,
0023
0000
0000
2000
0030
0000
0000
0000
,
3200
0000
0000
0000
0000
0000
0000
0301
,
2000
0000
0100
0100
,
3200
0000
0000
0320
0000
0000
0000
0000
,
0032
0000
0000
0200
0003
0001
0001
0000
,
2300
0000
0000
0000
0000
0000
0000
3000
,
0001
0001
0001
0001
0001
0001
0001
0001
,
0200
1300
2000
3100
,
0200
0301
0020
1030
,
0200
0000
0000
0301
0020
0000
1000
0030
,
0100
1000
0200
0301
0100
0010
1100
0100
,
0001
0100
1001
0100
0010
0100
1001
0100
,
0100
0100
1001
0100
0100
0100
1001
0010
,
0010
0010
1001
0100
0100
0100
0001
0001
,
0002
0200
0003
0000
1300
0000
1000
0000
,
2002
0000
0003
3200
0000
0000
0000
0300
,
1000
1000
1000
0100
0100
0100
0100
0000
,
0200
1000
1000
1000
1000
1000
1000
1000
,
2300
3200
0320
0032
,
0103
0010
0100
0010
0100
0010
0100
1000
,
1000
1000
0100
0100
0001
0101
0010
0100
,
1000
0100
0001
0100
0010
0100
0001
0100
,
1000
1000
0100
0100
0001
0001
0010
0010
,
0200
0000
1300
1000
0100
1000
0200
0000
,
0000
0300
0001
0001
0001
0100
0002
0000
,
0000
0003
0100
1000
0100
1000
0100
0001
,
0020
0000
1000
0030
0200
0000
0301
0000
,
0100
1000
0100
1000
0100
0001
0020
0000
,
1030
0100
0001
0100
0010
0100
0200
0000
,
1300
0000
0101
0100
0000
0010
0100
1000
,
0100
0000
0200
0300
0100
0000
0100
0000
,
2000
0000
0000
0000
0000
3200
0000
0000
,
0000
0301
0100
0010
0100
2000
0000
0000
,
3200
0000
0300
0002
0000
0023
0000
0230
,
0000
1300
1000
0100
0100
0001
0001
0010
,
0010
1000
0100
0001
0100
0020
0000
1030
,
0100
0001
0100
0010
2000
0200
3301
0100
,
0010
0200
0000
2300
0000
3200
0000
0302
,
0003
0010
0010
0010
0010
0010
0010
0010
,
2000
0000
3200
0000
,
0300
0002
0000
0000
2003
0000
0000
0000
,
3000
0020
0000
0000
0000
0030
0000
0000
,
1000
0200
0000
0000
0300
0100
0100
0100
,
0100
0002
0000
0000
0203
0000
0000
0000
,
1000
0000
0300
2000
0000
0000
3000
2000
,
3000
0200
0000
0000
0010
0000
0010
0000
,
2000
0300
0000
0100
0000
0100
0000
3100
,
1001
0000
0100
0010
0100
0010
0100
1000
,
0100
1000
0100
0001
0100
0020
0000
2030
,
0200
3000
0000
0000
0000
0001
0000
0001
,
0000
0320
0000
0000
0000
1000
0000
1000
,
0000
2030
0000
0100
0000
3200
0000
0001
,
0000
0002
0003
0320
0030
0020
0030
1000
,
0000
1000
0100
0001
0000
1000
0100
0001
,
0000
0010
0100
0010
0100
0010
0100
1000
,
0100
0200
0000
0300
1000
0002
0203
0000
,
0000
2300
0000
3000
1200
0000
0300
0002
,
0003
0020
0000
0030
1000
0200
0000
0000
,
0300
0200
0000
0300
0020
0000
0000
0000
,
2030
0000
0000
3001
0200
0000
2300
0000
,
3200
0000
0000
0301
0010
0000
0020
0000
,
0030
2000
0000
3000
0200
0000
0300
0010
,
0020
0000
0000
0031
0002
0000
0000
0203
,
0000
2300
0000
0000
0000
0000
0000
0000
,
0000
0000
0000
0000
,
0000
0000
0000
0000
,
3000
0000
0000
0000
;
