#TITLE:Lollercaust of Thought;
#SUBTITLE:;
#ARTIST:Callum Whyte;
#TITLETRANSLIT:;
#SUBTITLETRANSLIT:;
#ARTISTTRANSLIT:;
#CREDIT:;
#BANNER:lollers.jpg;
#BACKGROUND:loller.jpg;
#LYRICSPATH:;
#CDTITLE:!samurai7694cdtitle.gif;
#MUSIC:Lollercaust of Thought.mp3;
#OFFSET:-0.020;
#SAMPLESTART:241.641;
#SAMPLELENGTH:16.000;
#SELECTABLE:YES;
#BPMS:0.000=121.280,4.000=120.000;
#STOPS:;
#BGCHANGES:;
// cache tags:
#FIRSTBEAT:4.000;
#LASTBEAT:603.000;
#SONGFILENAME:Songs/Hard Songs Megapack Volume 9/Lollorcaust of Thought/custom song.sm;
#HASMUSIC:1;
#HASBANNER:1;
#MUSICLENGTH:306.372;
// end cache tags

//---------------dance-single - Blank----------------
#NOTES:
     dance-single:
     Blank:
     Hard:
     12:
     1.000,1.000,1.000,0.000,1.000,3518.000,388.000,0.000,0.000,11.000:

0000
0000
0000
0000
,
0100
0000
0100
0000
0100
0100
0100
0000
,
0011
0011
0010
0010
0011
0011
0011
0000
1010
1010
1000
1000
1010
1010
1010
0000
,
0110
0110
0100
0100
0110
0110
0110
0000
1001
1001
1000
1000
1001
1001
1100
1010
,
0110
0110
0010
0010
0110
0110
0110
0000
1100
1100
0100
0100
1100
1100
1100
0110
,
0101
0101
0001
0001
0101
0101
0101
0000
1001
0000
0011
0000
0110
0000
1100
0000
,
0110
0010
1100
1000
0110
0010
0010
0000
0011
0001
1100
0100
0011
0001
0001
0000
,
0110
0100
1010
1000
0110
0100
0100
0000
0101
0001
1010
0010
0101
0001
0001
0100
,
0011
0010
1100
1000
0011
0010
0010
0100
1010
1000
0011
0001
1010
1000
1000
0100
,
0011
0010
0101
0100
0011
0010
1000
0100
1001
0010
0101
1000
0101
0010
0101
1000
,
0101
1000
0010
0001
0010
1000
0101
1000
0010
0001
0010
1000
0101
0010
0001
1000
0001
0010
1100
0010
0001
1000
0001
0010
,
1001
0100
0010
0001
0010
0100
1001
0100
0010
0001
0010
0100
1001
0010
0001
0100
1000
0010
1100
0010
0001
0100
1000
0010
,
1001
0100
0001
0010
1000
0010
0101
1000
0100
1000
0001
1000
0011
0100
0001
0010
1000
0010
1100
0001
0100
1000
0010
1000
,
0101
0000
0000
0101
0000
0000
1000
0000
0000
0100
0000
0000
0010
0000
1000
0000
0100
0000
0010
0000
1000
0000
0100
0000
0011
0000
0000
0000
0000
0000
0110
0000
0000
0000
0000
0000
0101
0000
0000
0000
0000
0000
1100
0000
0000
0000
0000
0000
,
0001
0010
0100
1000
0001
0010
0100
1000
0001
0010
1000
0100
0010
0001
1000
0100
0001
0010
0100
1000
0001
0010
0100
1000
0010
0001
0100
1000
0010
0001
1000
0100
,
0001
0010
0100
1000
0001
0010
0100
1000
0001
0010
0100
1000
0001
0010
0100
1000
0001
0010
0100
1000
0100
0010
0001
0010
0100
1000
0100
0010
0001
0010
0100
1000
,
0001
0000
0000
0000
0000
0000
0100
0000
0000
0000
0000
0000
0001
0000
0000
0000
0000
0000
0100
0000
0000
0000
0000
0000
0001
0000
0000
0000
0000
0000
0000
0000
0010
0000
0000
0000
0000
0000
0000
0000
0100
0000
0000
0000
0000
0000
0000
0000
0001
0000
0000
0000
0000
0000
0000
0000
0010
0000
0000
0000
0000
0000
0000
0000
0100
0000
0000
0000
0000
0000
0000
0000
1000
0000
0000
0000
0000
0000
0000
0000
0100
0000
0000
0000
0000
0000
0000
0000
0010
0000
0000
0000
0000
0000
0000
0000
0001
0000
0000
0000
0000
0000
0100
0000
0000
0000
0000
0000
0001
0000
0000
0000
0000
0000
0100
0000
0000
0000
0000
0000
0001
0000
0000
0000
0000
0000
0000
0000
0010
0000
0000
0000
0000
0000
0000
0000
0100
0000
0000
0000
0000
0000
0000
0000
0001
0000
0000
0000
0000
0000
0000
0000
0010
0000
0000
0000
0000
0000
0000
0000
0100
0000
0000
0000
0000
0000
0000
0000
1000
0000
0000
0000
0000
0000
0000
0000
0100
0000
0000
0000
0000
0000
0000
0000
0010
0000
0000
0000
0000
0000
0000
0000
,
0001
0100
0010
1000
0001
0100
0010
0100
0001
0010
1000
0010
0100
0001
0010
0100
1000
0001
0010
1000
0100
0001
0010
0100
1000
0000
0000
0000
0010
0000
0000
0000
,
1100
0000
1000
0000
0001
0000
0001
0000
1100
0000
0100
0000
0011
0000
0000
0000
0101
0000
0001
0000
1000
0000
1000
0000
0110
0001
1000
0100
0001
0010
0100
0001
,
1010
1000
0100
0100
0011
0001
1001
0000
1100
0100
1001
1000
1001
0001
1001
0100
,
0001
0010
0100
1000
0001
0100
0010
1000
0001
0010
0100
1000
0001
0100
0010
1000
0001
0010
1000
0100
0001
0100
1000
0010
0001
0010
1000
0100
0001
0100
1000
0010
,
0001
0010
0100
1000
0001
1000
0100
0010
0001
0010
0100
1000
0001
1000
0100
0010
0001
1000
0001
1000
0001
1000
0001
1000
0010
0100
0010
0100
0010
0100
0010
0100
,
0011
0000
0000
0000
0100
0100
0100
0100
1011
0000
0000
0000
0000
0000
0000
0000
,
1001
0010
0100
1000
0100
0010
0001
0010
0100
1000
0100
0010
1001
0010
0100
1000
0100
0010
1000
0010
0100
1000
0100
0010
,
1001
0010
0100
1000
0100
0010
0001
0010
0100
1000
0100
0010
0101
0010
1000
0100
0010
1000
0101
0010
0100
1000
0010
0100
,
1001
0010
0100
1000
0100
0010
0001
0010
0100
1000
0100
0010
1001
0010
0100
0010
0100
0001
1000
0100
0010
1000
0100
0010
,
1001
0010
0100
1000
0100
0010
0001
0010
0100
1000
0100
0010
0101
0010
1000
0101
0010
1000
0101
0010
0100
1001
0010
0100
,
0011
1000
0100
0010
0100
1000
0001
1000
0100
0010
0100
1000
0011
0100
1000
0001
0100
1000
0010
0100
1000
0001
0100
1000
,
0101
0010
0001
1000
0001
0010
0100
0010
0001
1000
0001
0010
1001
0100
0010
0001
0100
0010
1000
0100
0010
0001
0100
0010
,
0101
1000
0100
0010
0100
1000
0001
1000
0100
0010
0100
1000
0011
0100
1000
0001
0100
1000
0010
0100
1000
0001
0100
1000
,
0101
0010
0001
1000
0001
0010
0100
0010
0001
1000
0001
0010
1001
0100
0010
0001
0100
0010
1000
0100
0010
0001
0100
0010
,
1001
0010
0001
1000
0100
1000
0001
0010
0001
1000
0100
1000
0001
0010
0001
1000
0100
1000
0001
0010
0001
1000
0100
1000
,
0001
0010
0001
1000
0100
1000
0001
0010
0001
1000
0100
1000
0001
0010
0001
1000
0100
1000
0001
0010
0001
1000
0100
1000
,
0001
0010
0001
1000
0100
1000
0001
0010
0001
1000
0100
1000
0001
0010
0001
1000
0100
1000
0001
0010
0001
1000
0100
1000
,
0001
0010
0001
1000
0100
1000
0001
0010
0001
1000
0100
1000
0001
0010
0001
1000
0100
1000
0001
0010
0001
1000
0100
1000
,
0001
1000
0100
0010
1000
0100
0001
0010
1000
0100
0010
0100
0001
1000
0010
0100
0001
0010
1000
0100
0010
0100
0001
0010
1000
0001
0100
0001
1000
0100
0010
0001
,
1000
0100
0001
0010
0100
1000
0010
0001
0100
1000
0010
0100
0001
0010
0100
0010
1000
0100
0001
0100
0010
1000
0001
0100
1000
0010
0100
0001
0010
1000
0100
0010
,
0001
0100
0001
0100
0001
1000
0100
0010
0001
0100
0001
0100
0001
1000
0100
0010
0001
0100
0001
0100
0001
0010
0001
0010
0001
0100
0001
0100
0001
0010
0100
1000
,
0001
0010
0100
1000
0001
0010
1000
0010
0100
0001
0010
1000
0010
0100
0001
0010
1000
0010
0100
0001
0100
1000
0001
0100
0010
0000
0010
0000
0010
0000
0000
0000
,
0001
1000
0001
0100
0001
0010
0001
0100
0001
1000
0001
0100
0001
0010
0001
0100
0001
1000
0001
0100
0001
0010
0001
1000
0001
0010
0100
1000
0001
0010
0100
1000
,
0010
1000
0100
0010
0001
0010
0100
1000
0010
1000
0100
1000
0001
1000
0010
1000
0001
1000
0100
1000
0010
1000
0100
1000
0010
1000
0001
1000
0010
1000
0001
1000
,
0001
0100
0010
1000
0100
0010
0001
0100
0010
1000
0100
0010
1000
0100
0001
1000
0001
0010
0100
1000
0100
0010
0100
0001
0010
0100
1000
0001
0100
1000
0010
0100
,
1000
0010
0001
0100
0010
0001
1000
0010
0100
0001
0010
0100
1000
0010
0100
1000
0010
0001
1000
0100
0010
0001
0100
0010
1000
0100
0001
0010
0001
0100
0010
1000
,
0100
0100
0100
1000
0000
0000
0011
0000
0000
0000
0101
0000
0110
0000
1010
0000
,
1100
1100
1100
1100
0000
0000
1100
1100
1100
1100
1100
0000
1100
1100
1100
0000
,
0101
0100
0100
1000
0000
0000
0010
0000
1000
0000
0001
0000
0010
0000
1000
0000
,
0000
0000
0000
0100
0000
0000
1000
0000
0000
0100
0000
0000
0010
0000
0100
0000
1000
0000
0100
0000
0010
0000
0001
0000
,
0001
0000
0000
0010
0000
0000
0100
0000
0000
1000
0000
0000
0100
0000
0000
0010
0000
0000
0001
0000
0000
0010
0000
0000
0100
0000
0000
1000
0000
0000
0100
0000
0000
0010
0000
0000
0001
0000
0010
0000
0100
0000
0010
0000
1000
0000
0100
0000
,
0001
0010
0100
0010
1000
0100
0001
1000
0100
0010
0100
1000
0001
0010
1000
0100
1000
0010
0001
0100
0010
0100
1000
0010
,
0001
0100
0010
0100
1000
0010
0100
0010
0001
0100
1000
0010
0001
0100
0010
1000
0001
0100
1000
0010
0001
0100
0010
1000
0001
0010
0100
1000
0001
1000
0100
0010
,
0001
1000
0001
1000
0001
0100
0001
0100
0010
1000
0010
1000
0100
1000
0100
1000
0001
0010
0001
0010
0001
0100
0001
0100
0010
1000
0010
1000
0100
1000
0100
1000
,
0010
0100
1000
0100
0010
0001
1000
0100
0010
0001
1000
0100
0010
0001
1000
0100
0001
0010
0100
1000
0001
0010
0100
1000
0001
0010
0100
1000
0001
0010
0100
1000
,
0001
0010
0001
1000
0001
0100
0001
1000
0100
0010
1000
0010
0001
0100
0001
1000
0001
0100
0001
1000
0001
0010
1000
0100
0010
0001
1000
0100
0010
0001
1000
0010
,
0100
0100
0100
1000
0000
0000
0011
0000
0000
0000
0101
0000
0110
0000
1010
0000
,
1100
1100
1100
1100
0000
0000
1100
1100
1100
1100
1100
0000
1100
1100
1100
0000
,
1001
0010
0100
0001
0010
1000
0011
0100
0010
0001
0100
1000
0101
0010
0100
0001
0010
1000
0011
0100
1000
0010
0001
0100
,
1001
0010
0100
0001
0010
1000
0011
0100
0010
0001
1000
0100
1001
0010
0100
0001
1000
0100
1001
0010
0100
0001
0010
1000
,
0011
0100
0010
0001
0100
1000
0101
0010
1000
0001
0010
0100
1001
0010
0100
0001
0010
1000
0011
0100
1000
0001
0010
0100
,
1001
0010
0100
0001
1000
0010
1100
0010
0100
0001
1000
0100
0011
1000
0001
0100
0010
1000
0110
0001
1000
0010
0100
0010
,
1001
0100
0001
0100
0001
0100
0001
0100
0001
0100
0011
0100
0001
0100
0011
0100
1000
0001
0010
0100
0001
1000
0010
0100
0001
0010
0100
1000
0001
0010
0100
1000
,
0011
0100
0010
0100
1000
0010
0100
0001
0010
0100
0011
1000
0100
1000
0101
0010
0100
0010
1000
0001
0010
0100
0010
1000
0100
1000
0010
0001
0010
0100
0010
1000
,
0101
0010
1000
0100
0001
0010
0100
0010
1000
0100
0011
1000
0001
0010
1100
0001
0010
1000
0100
0001
0010
0100
0010
1000
0100
0001
0010
0100
1000
0100
0010
1000
,
0101
0010
0001
0010
0001
0010
0100
1000
0010
1000
0011
1000
0010
0100
0011
1000
0001
0100
0001
0100
0001
0010
0001
0010
0001
0010
0100
1000
0001
1000
0100
0010
,
1001
0010
0100
1000
0001
1000
0100
0010
0001
0010
0101
1000
0001
1000
0101
0010
0001
1000
0010
1000
0001
1000
0010
1000
0001
1000
0010
1000
0010
1000
0100
0010
,
0101
1000
0010
1000
0010
1000
0010
1000
0010
0001
1010
0100
1000
0010
1100
0001
0010
1000
0001
1000
0010
1000
0001
1000
0010
1000
0100
1000
0010
1000
0100
0010
,
0101
1000
0010
1000
0010
1000
0010
1000
0010
0001
1100
0010
1000
0100
0011
1000
0010
0001
0100
0010
0100
1000
0100
0001
0100
1000
0100
0010
0100
1000
0001
0100
,
0011
1000
0100
0010
0001
1000
0100
0010
0001
1000
0101
0010
0001
1000
0101
0010
0001
1000
0010
0100
0001
1000
0010
0100
0001
1000
0010
0100
0001
1000
0010
0100
,
0011
1000
0001
1000
0001
1000
0001
1000
0001
1000
0101
1000
0001
1000
0101
1000
0001
1000
0001
1000
0001
1000
0001
1000
0001
0010
0100
1000
0001
0010
0100
1000
,
0110
0001
0010
0100
1000
0001
0010
0100
1000
0001
1100
0010
1000
0001
1100
0010
1000
0001
0100
1000
0010
0001
0100
1000
0010
0100
0001
1000
0010
0100
0001
1000
,
0011
0100
1000
0010
0001
1000
0100
0010
0001
1000
0011
0100
0001
0010
1001
0100
0001
0010
0100
1000
0001
0010
0100
1000
0001
0010
0100
1000
0001
0010
0100
1000
,
0011
0100
1000
0010
0001
1000
0001
0100
0010
1000
0011
0100
1000
0010
1100
0001
1000
0100
0001
0010
1000
0001
0100
0010
1000
0001
0100
0010
1000
0001
0100
0010
,
1001
0100
0010
1000
0001
0010
0100
0001
1000
0100
0011
1000
0001
0010
1100
0001
1000
0010
0100
0010
0001
0100
0010
0100
1000
0010
0100
0010
0001
0100
0010
0100
,
1010
0001
0100
0010
0001
1000
0010
0100
1000
0001
1100
0010
0001
1000
0011
0100
1000
0010
0100
1000
0001
0100
0010
0001
1000
0010
0100
1000
0001
0100
0010
0001
,
1010
0100
0010
0100
0001
0010
0100
0010
1000
0100
0011
0100
0001
0010
1100
0010
1000
0001
0100
1000
0001
1000
0010
0001
1000
0001
0100
1000
0001
1000
0010
0001
,
1010
0100
0010
0001
1000
0100
0010
0001
1000
0100
0010
0001
1000
0100
0010
0001
1000
0010
0100
0001
0010
0100
0010
1000
0100
0001
0100
1000
0010
0100
0010
0001
,
1010
0000
1100
0000
1001
0100
0010
0001
,
1001
0100
0010
1000
0100
0001
0010
0100
0001
0010
0101
1000
0010
0100
1001
0010
0001
0100
1000
0100
0010
0001
0010
1000
0100
0001
0010
0100
0010
1000
0100
0001
,
1010
0100
0001
0010
0100
1000
0100
0001
0010
1000
0101
0010
1000
0001
1100
0010
0001
1000
0100
0010
0001
0010
0100
0010
1000
0100
0001
0100
1000
0010
0100
0010
,
1001
0100
0001
0010
0100
1000
0001
0100
0010
1000
0101
0010
1000
0100
0011
1000
0100
0001
0010
0100
0010
0100
0001
1000
0010
0100
0001
0010
0100
1000
0001
0010
,
1001
0001
0001
0001
,
1001
0000
0000
0000
0000
0000
1000
0000
0000
0000
0000
0000
1000
0100
0010
1000
0010
0001
1000
0100
0001
0100
0010
0001
,
0110
0000
0000
0000
0000
0000
0100
0000
0001
0000
0100
0000
0001
0000
0100
0000
0001
0000
0100
0000
0001
0000
0100
0000
0011
0000
1000
0000
0100
0000
0001
0000
1000
0110
0001
0000
1000
0000
0010
0000
0100
0000
0011
0000
1000
0000
0100
0000
,
1010
0000
0000
0000
0000
0000
1000
0000
0010
0000
1000
0000
0010
0000
1000
0000
0010
0000
1000
0000
0010
0000
1000
0000
0110
0000
0001
0000
1000
0000
0100
0000
0001
1010
0100
0000
0001
0000
1000
0000
0001
0000
0110
0000
1000
0000
0001
0000
,
1100
0000
0000
0000
0000
0000
0001
0000
1000
0000
0001
0000
1000
0000
0001
0000
1000
0000
0001
0000
1000
0000
0001
0000
1100
0000
0000
0000
0000
0000
0000
0000
0000
1001
0000
0000
0000
0000
0000
0000
0000
0000
1010
0000
0000
0000
0000
0000
,
0110
0000
0000
0010
0100
1000
0110
0000
0000
0100
0010
0001
0100
0010
0001
0110
0000
0000
0110
0000
0001
0000
0010
0000
,
1010
0000
0000
0000
0000
0000
0100
0000
0001
0000
0100
0000
0001
0000
0100
0000
0001
0000
0100
0000
0001
0000
0100
0000
0011
0000
1000
0000
0100
0000
0001
0000
1000
0110
0001
0000
1000
0000
0010
0000
0100
0000
0011
0000
1000
0000
0100
0000
,
1010
0000
0000
0000
0000
0000
1000
0000
0010
0000
1000
0000
0010
0000
1000
0000
0010
0000
1000
0000
0010
0000
1000
0000
0110
0000
0000
1000
0000
0000
0010
0000
0000
1000
0000
0000
0001
0000
0000
1000
0000
0000
0100
0000
0000
0010
0000
0000
,
1100
0000
0000
0000
0000
0000
0001
0000
1000
0000
0001
0000
1000
0000
0001
0000
1000
0000
0010
0000
0001
0000
0010
0000
1100
0000
0000
0000
0000
0000
0000
0000
0000
1001
0000
0000
0100
0000
0000
0000
0000
0000
0110
0000
0001
0000
0100
0000
,
1001
0000
0000
0001
0100
0010
1001
0000
0000
1000
0010
0100
1000
0100
0010
1000
0100
0001
1000
0100
0001
1000
0010
0001
,
0010
0100
1000
0001
0100
0001
0100
0001
0100
0001
0100
0001
1010
0000
0100
0000
1010
0000
0100
0000
1010
0000
0100
0000
,
0001
0000
0000
0000
0000
0000
0100
0000
0000
0000
0000
0000
0010
0000
0000
0000
0000
0000
1000
0000
0000
0000
0000
0000
0001
0000
0000
0000
0000
0000
0010
0000
0000
0000
0000
0000
0100
0000
0000
0000
0000
0000
1000
0000
0000
0000
0000
0000
0010
0000
0000
0000
0000
0000
1000
0000
0000
0000
0000
0000
0100
0000
0000
0000
0000
0000
0010
0000
0000
0000
0000
0000
0001
0000
0000
0000
0000
0000
0000
0000
0100
0000
0000
0000
0000
0000
0000
0000
1000
0000
0000
0000
0000
0000
0000
0000
0110
0000
0000
0000
0000
0000
0000
0000
0001
0000
0000
0000
0000
0000
0000
0000
1000
0000
0000
0000
0000
0000
0000
0000
0001
0000
0000
0000
0000
0000
0000
0000
0100
0000
0000
0000
1010
0000
0000
0000
0000
0000
0000
0000
0000
0000
0000
0000
0011
0000
0000
0000
0000
0000
0000
0000
0100
0000
0000
0000
0000
0000
0000
0000
1000
0000
0000
0000
0000
0000
0000
0000
0110
0000
0000
0000
0000
0000
0000
0000
0000
0000
0000
0000
0000
0000
0000
0000
0000
0000
0000
0000
0000
0000
0000
0000
,
1001
0000
0000
0010
0000
0000
0100
0000
0000
0001
0000
0000
0010
0000
0000
0100
0000
0000
1000
0000
0000
0100
0000
0000
0001
0000
0010
0000
0100
0000
0010
0000
0100
0000
1000
0000
0001
0000
0100
0000
1000
0000
0010
0000
0100
0000
1000
0000
,
0001
0010
0100
0010
0100
1000
0001
0100
1000
0010
0100
1000
0010
1000
0100
0010
1000
0100
0001
1000
0100
0010
0100
0001
,
1010
0000
0000
0000
0000
0000
0100
0000
1000
0000
0100
0000
1000
0000
0100
0000
1000
0000
0100
0000
1000
0000
0100
0000
0011
0000
0000
0000
0000
0000
0000
0000
0000
0101
0000
0000
0000
0000
0000
0000
0000
0000
0011
0000
0000
0000
0000
0000
,
0110
0000
0000
1000
0010
1000
0010
1000
0010
1000
0010
1000
0001
0000
0010
0000
0100
0000
0010
0000
0100
0000
1000
0000
,
0001
0000
0000
0010
0000
0000
0100
0000
0000
0010
0000
0000
0100
0000
0000
1000
0000
0000
0001
0000
0000
0010
0000
0000
0100
0000
0000
0010
0000
0000
0100
0000
0000
1000
0000
0000
0001
0000
0010
0000
0100
0000
0010
0000
0100
0000
1000
0000
,
0001
0000
0000
0000
0000
0000
0000
0000
0010
0000
0000
0000
0000
0000
0000
0000
0100
0000
0000
0000
0000
0000
0000
0000
0010
0000
0000
0000
0000
0000
0000
0000
0100
0000
0000
0000
0000
0000
0000
0000
1000
0000
0000
0000
0000
0000
0000
0000
0001
0000
0000
0000
0000
0000
0010
0000
0000
0000
0000
0000
0100
0000
0000
0000
0000
0000
0010
0000
0000
0000
0000
0000
0100
0000
0000
0000
0000
0000
1000
0000
0000
0000
0000
0000
0010
0000
0000
0000
0000
0000
0100
0000
0000
0000
0000
0000
0001
0000
0000
0000
0000
0000
1000
0000
0000
0000
0000
0000
0001
0000
0000
0000
0000
0000
1000
0000
0000
0000
0000
0000
0010
0000
0000
0000
0000
0000
0100
0000
0000
0000
0000
0000
0010
0000
0000
0000
0000
0000
0100
0000
0000
0000
0000
0000
0001
0000
0000
0000
0000
0000
0010
0000
0000
0000
0000
0000
0001
0000
0000
0000
0000
0000
0010
0000
0000
0000
0000
0000
1000
0000
0000
0000
0000
0000
0100
0000
0000
0000
0000
0000
0010
0000
0000
0000
0000
0000
0001
0000
0000
0000
0000
0000
,
1010
0000
0000
0000
0000
0000
0100
0000
0010
0000
0100
0000
0010
0000
0100
0000
0010
0000
0101
0000
1000
0000
0100
0000
0011
0000
0000
0000
0000
0000
0000
0000
0000
0101
0000
0000
0000
0000
0000
0000
0000
0000
0011
0000
0000
0000
0000
0000
,
0110
0000
0000
1000
0010
1000
0010
1000
0010
1000
0010
1000
0110
0001
1000
0010
0100
0010
1000
0100
0010
0100
0001
1000
,
0010
0000
0000
0000
0000
0000
0000
0000
0100
0000
0000
0000
0000
0000
0000
0000
1000
0000
0000
0000
0000
0000
0000
0000
0010
0000
0000
0000
0000
0000
0000
0000
0100
0000
0000
0000
0000
0000
0000
0000
1000
0000
0000
0000
0000
0000
0000
0000
0001
0000
0000
0000
0000
0000
0000
0000
0100
0000
0000
0000
0000
0000
0000
0000
1000
0000
0000
0000
0000
0000
0000
0000
0001
0000
0000
0000
0000
0000
0000
0000
0100
0000
0000
0000
0000
0000
0000
0000
1000
0000
0000
0000
0000
0000
0000
0000
0001
0000
0000
0000
0000
0000
0000
0000
0010
0000
0000
0000
0000
0000
0000
0000
0100
0000
0000
0000
0000
0000
0000
0000
0001
0000
0000
0000
0000
0000
0000
0000
0000
0000
0000
0000
0000
0000
0000
0000
0000
0000
0000
0000
0000
0000
0000
0000
0010
0000
0000
0000
0000
0000
0000
0000
0000
0000
0000
0000
0000
0000
0000
0000
0000
0000
0000
0000
0000
0000
0000
0000
0001
0000
0000
0000
0000
0000
1000
0000
0000
0000
0000
0000
0100
0000
0000
0000
0000
0000
0010
0000
0000
0000
0000
0000
,
0001
0010
0100
1000
0100
0010
0001
0010
0100
1000
0100
0010
0001
1000
0010
0100
0001
0100
0010
1000
0001
0100
0010
0100
0001
0010
0100
1000
0001
0010
1000
0100
,
0011
0000
0000
1000
0001
1000
0001
1000
0001
1000
0001
1000
0101
0000
0011
0000
0101
0000
0110
0000
0011
0000
0101
0000
,
0110
0000
0000
0010
1000
0010
1000
0010
1000
0010
1000
0010
0100
0001
0010
0100
0010
0100
1000
0001
0010
0100
0010
0001
,
1100
0000
0000
1000
0100
1000
0100
1000
0100
1000
0100
1000
0110
0000
0101
0000
0110
0000
0011
0000
1010
0000
0110
0000
,
0011
0000
0000
0000
0000
0000
0000
0000
0000
0000
0000
0000
0000
0000
0000
0000
0000
0000
0000
0000
0000
0000
0000
0000
0100
0000
0000
0000
0000
0000
0000
0000
0010
0000
0000
0000
0000
0000
0000
0000
0001
0000
0000
0000
0000
0000
0000
0000
1100
0000
0000
0000
0000
0000
0000
0000
0000
0000
0000
0000
0000
0000
0000
0000
0000
0000
0000
0000
0000
0000
0000
0000
0010
0000
0000
0000
0000
0000
0000
0000
0100
0000
0000
0000
0000
0000
0000
0000
1000
0000
0000
0000
0000
0000
0000
0000
0010
0000
0000
0000
0000
0000
0000
0000
0100
0000
0000
0000
0000
0000
0000
0000
1000
0000
0000
0000
0000
0000
0000
0000
0011
0000
0000
0000
0000
0000
0000
0000
0000
0000
0000
0000
0000
0000
0000
0000
0000
0000
0000
0000
0000
0000
0000
0000
0011
0000
0000
0000
0000
0000
0000
0000
0000
0000
0000
0000
0000
0000
0000
0000
0000
0000
0000
0000
0000
0000
0000
0000
0010
0000
0000
0000
0000
0000
1000
0000
0000
0000
0000
0000
0100
0000
0000
0000
0000
0000
0010
0000
0000
0000
0000
0000
,
0001
0100
1000
0010
0100
0010
0001
0100
1000
0010
0100
0010
1000
0100
0010
0100
0001
1000
0100
0001
1000
0100
0001
1000
0010
0100
1000
0010
0100
1000
0010
0100
,
0001
0010
0100
1000
0001
0010
0100
1000
0001
0010
1000
0100
0001
0010
1000
0100
0001
0010
0001
0010
0100
1000
0100
1000
0100
1000
0100
1000
0010
1000
0100
0001
,
0110
0000
0000
0000
1000
0000
0000
0000
1000
0000
0000
0000
1000
0100
0010
0001
0110
0000
0000
0000
0100
0000
0000
0000
0100
0000
0000
0000
1000
0100
0010
0001
,
1010
0000
0000
0000
1000
0100
0010
0001
0110
0000
0000
0000
0010
1000
0100
0010
0001
1000
0100
0001
0010
1000
0100
0001
0010
0100
0010
1000
0001
0010
0100
1000
,
0011
0000
0000
0000
0000
0000
0100
0000
0010
0000
0100
0000
0010
0000
0100
0000
0010
0000
0100
0000
0010
0000
0100
0000
0011
0000
1000
0000
0100
0000
0010
0000
1000
0101
0010
0000
1000
0000
0001
0000
0100
0000
0011
0000
0000
0000
0000
0000
,
0110
0000
0000
0000
0000
0000
1000
0000
0010
0000
1000
0000
0010
0000
1000
0000
0010
0000
1000
0000
0010
0000
1000
0000
0110
0000
0001
0000
1000
0000
0100
0000
0001
1010
0100
0000
0001
0000
0010
0000
1000
0000
0110
0000
0000
0000
0000
0000
,
1100
0000
0000
0000
0000
0000
0100
0000
1000
0000
0100
0000
1000
0000
0100
0000
1000
0000
0100
0000
1000
0000
0100
0000
1010
0000
0000
0000
0000
0000
0000
0000
0000
0110
0000
0000
0000
0000
0000
0000
0000
0000
0101
0000
0000
0000
0000
0000
,
0011
0000
0000
1000
0010
0001
1100
0000
0000
0001
0100
1000
0001
0100
1000
0011
1000
0100
0011
0100
0001
0010
0100
1000
,
0011
0000
0000
0000
0000
0000
0000
0000
0000
0000
0000
0000
0000
0000
0000
0000
0000
0000
0000
0000
0000
0000
0000
0000
1000
0000
0000
0000
0000
0000
0000
0000
0010
0000
0000
0000
0000
0000
0000
0000
1000
0000
0000
0000
0000
0000
0000
0000
0010
0000
0000
0000
0000
0000
0000
0000
1000
0000
0000
0000
0000
0000
0000
0000
0010
0000
0000
0000
0000
0000
0000
0000
1000
0000
0000
0000
0000
0000
0000
0000
0010
0000
0000
0000
0000
0000
0000
0000
1000
0000
0000
0000
0000
0000
0000
0000
0011
0000
0000
0000
0000
0000
0000
0000
0100
0000
0000
0000
0000
0000
0000
0000
0001
0000
0000
0000
0000
0000
0000
0000
1000
0000
0000
0000
0000
0000
0000
0000
0010
0000
0000
0000
0101
0000
0000
0000
1000
0000
0000
0000
0000
0000
0000
0000
0010
0000
0000
0000
0000
0000
0000
0000
0100
0000
0000
0000
0000
0000
0000
0000
1000
0000
0000
0000
0000
0000
0000
0000
0011
0000
0000
0000
0000
0000
1000
0000
0000
0100
0000
0000
0001
0000
0000
0000
0000
0000
0000
0000
0000
0000
0000
0000
,
0110
0000
0000
0000
0000
0000
0001
0000
0100
0000
0001
0000
0100
0000
0001
0000
0100
0000
0001
0000
0100
0000
0001
0000
0110
0000
1000
0000
0010
0000
0100
0000
0001
1010
0100
0000
0001
0000
0100
0000
1000
0000
0110
0000
1000
0000
0001
0000
,
0010
0100
1000
0100
0010
0100
1000
0100
0001
0100
1000
0100
0001
0100
1000
0100
0010
0100
1000
0100
0001
0100
1000
0100
0010
0100
1000
0100
0001
0100
1000
0100
,
0001
0010
0100
0010
0001
0100
1000
0100
0001
1000
0010
0001
0010
0100
1000
0010
0100
1000
0010
0001
0100
0010
0001
1000
0100
0010
0001
0100
0010
1000
0100
0010
,
1001
0000
0000
1000
0010
1000
0010
1000
0010
1000
0010
1000
0101
0000
0011
0000
0101
0000
0110
0000
0011
0000
0101
0000
,
0110
0000
0000
1000
0010
1000
0010
1000
0010
1000
0010
1000
0001
0010
0100
0010
0100
1000
0001
0010
0100
0010
0100
0001
,
1100
0000
0000
0000
0000
0000
0000
0000
0000
0000
0000
0000
0000
0000
0000
0000
0000
0000
0000
0000
0000
0000
0000
0000
1000
0000
0000
0000
0000
0000
0000
0000
0010
0000
0000
0000
0000
0000
0000
0000
1000
0000
0000
0000
0000
0000
0000
0000
0010
0000
0000
0000
0000
0000
0000
0000
1000
0000
0000
0000
0000
0000
0000
0000
0010
0000
0000
0000
0000
0000
0000
0000
1000
0000
0000
0000
0000
0000
0000
0000
0010
0000
0000
0000
0000
0000
0000
0000
1000
0000
0000
0000
0000
0000
0000
0000
0101
0000
0000
0000
0000
0000
0000
0000
0000
0000
0000
0000
0000
0000
0000
0000
0010
0000
0000
0000
0000
0000
0000
0000
0101
0000
0000
0000
0000
0000
0000
0000
1000
0000
0000
0000
0000
0000
0000
0000
0000
0000
0000
0000
0000
0000
0000
0000
0101
0000
0000
0000
0000
0000
0000
0000
0000
0000
0000
0000
0000
0000
0000
0000
1000
0000
0000
0000
0000
0000
0000
0000
0010
0000
0000
0000
0000
0000
0001
0000
0100
0000
0000
0000
1000
0000
0000
0000
0000
0000
0010
0000
0000
0000
0000
0000
,
0001
0010
0100
1000
0001
0010
0100
1000
0001
0100
0010
1000
0001
0100
0010
1000
0001
0100
0010
0001
1000
0100
0010
0001
1000
0010
0100
0001
0010
0100
1000
0100
,
0001
0010
0001
0010
0001
0010
0001
0010
0100
0010
0100
0010
0100
0010
0100
0010
0100
0001
0100
0001
0100
0001
0100
0001
1000
0010
1000
0010
0001
1000
0010
0100
,
0001
0010
0001
0010
0001
0010
0001
0010
0100
0010
0100
0010
0100
0010
0100
0010
0100
0001
0100
0001
0100
0001
0100
0001
0100
0001
0100
0001
0100
0010
1000
0100
,
0001
0010
0001
0010
0001
0010
0001
0010
0100
0010
0100
0010
0100
0010
0100
0010
0100
0001
0100
0001
0100
0001
0100
0001
1000
0010
1000
0010
1000
0010
1000
0010
,
0001
0100
0001
0100
0001
0100
0001
0100
0010
0100
0010
0100
0010
1000
0010
1000
0100
1000
0100
1000
0100
1000
0100
1000
0100
1000
0100
1000
0100
0010
1000
0100
,
0001
0010
0001
0010
0001
0010
0001
0010
0100
0010
0100
0010
0100
0010
0100
0010
0100
0001
0100
0001
0100
0001
0100
0001
1000
0010
1000
0010
1000
0001
1000
0100
,
0001
0010
0001
0010
0001
0010
0001
0010
0100
0010
0100
0010
0100
0010
0100
0010
0100
0001
0100
0001
0100
0001
0100
0001
0100
0001
0100
0001
0010
1000
0100
0010
,
0001
0010
0001
0010
0001
0010
0001
0010
0100
0010
0100
0010
0100
0010
0100
0010
0100
0001
0100
0001
0100
0001
0100
0001
1000
0010
1000
0010
1000
0010
1000
0010
,
0001
0100
0001
0100
0001
0100
0001
0100
0010
1000
0100
0010
0001
1000
0100
0010
0001
0100
0001
0100
0001
0100
0001
0100
0001
0100
0001
0100
0001
0010
1000
0100
,
0001
0010
0001
0010
0001
0010
0001
0010
0100
0010
0100
0010
0100
0010
0100
0010
0100
0001
0100
0001
0100
0001
0100
0001
1000
0010
1000
0010
0100
0001
1000
0100
,
0001
0010
0001
0010
0001
0010
0001
0010
0001
0100
0001
0100
0010
1000
0010
1000
0100
0001
0100
0001
0100
0001
0100
0001
0100
0001
0100
0001
0100
0010
1000
0100
,
0001
0010
0001
0010
0001
0010
0001
0010
0100
0010
0100
0010
0100
0010
0100
0010
0100
0001
0100
0001
0100
0001
0100
0001
1000
0010
1000
0010
1000
0010
1000
0010
,
0001
0100
0001
0100
0001
0100
0001
0100
0010
0100
0010
0100
0010
1000
0010
1000
0100
1000
0100
1000
0100
1000
0100
1000
0100
1000
0100
1000
0100
0010
1000
0100
,
0001
0010
0001
0010
0001
0010
0001
0010
0100
0010
0100
0010
0100
0010
0100
0010
0100
0001
0100
0001
0100
0001
0100
0001
1000
0010
1000
0010
1000
0001
1000
0100
,
0001
0010
0001
0010
0001
0010
0001
0010
0100
0010
0100
0010
0100
0010
0100
0010
0100
0001
0100
0001
0100
0001
0100
0001
0100
0001
0100
0001
0010
1000
0100
0010
,
0001
0100
1000
0010
0001
0100
1000
0010
0001
0100
0010
1000
0001
0100
0010
1000
0001
0010
1000
0100
0001
0010
1000
0100
0001
0010
0100
1000
0001
0010
0100
1000
,
0001
0100
1000
0010
0001
0100
1000
0010
0001
0100
0010
1000
0001
0100
0010
1000
0001
0010
1000
0100
0001
0010
1000
0100
0001
0010
0100
1000
0001
0010
0100
1000
,
0011
0000
0000
0010
1000
0010
1000
0010
1000
0010
1000
0010
0101
0000
0011
0000
0101
0000
0110
0000
0011
0000
0101
0000
,
0110
0000
0000
0100
0001
0100
0001
0100
0001
0100
0001
0100
0001
0010
1000
0100
0001
0010
0100
0010
1000
0100
0001
0010
,
1100
0000
0000
0000
0000
0000
0100
0000
0001
0000
0100
0000
0001
0000
0100
0000
0001
0000
0100
0000
0001
0000
0100
0000
1010
0000
0000
0000
0000
0000
0000
0000
0000
0110
0000
0000
0000
0000
0000
0000
0000
0000
0101
0000
0000
0000
0000
0000
,
1001
0000
0000
1000
0001
0010
1001
0000
0000
0001
1000
0100
0001
1000
0100
1001
0000
0000
1001
0000
0000
1001
0000
0000
,
1001
0000
0000
0000
0000
0000
0100
0000
0010
0000
0100
0000
0010
0000
0100
0000
0010
0000
0100
0000
0010
0000
0100
0000
0011
0000
0100
0000
1000
0000
0010
0000
1000
0101
0010
0000
1000
0000
0001
0000
0100
0000
0011
0000
1000
0000
0001
0000
,
0110
0000
0000
0000
0000
0000
0001
0000
0010
0000
0001
0000
0010
0000
0001
0000
0010
0000
0001
0000
0010
0000
0001
0000
0110
0000
1000
0000
0001
0000
0100
0000
0001
1010
0100
0000
0001
0000
0100
0000
1000
0000
0110
0000
0001
0000
0010
0000
,
1100
0000
0000
0100
1000
0100
1000
0100
1000
0100
1000
0100
1010
0000
0110
0000
1010
0000
0101
0000
1010
0000
0110
0000
,
0011
1000
0100
0010
0001
0010
0100
1000
0011
1000
0100
0010
0001
0010
0100
1000
0011
1000
0100
0010
0001
0010
0100
1000
0011
1000
0100
0010
0001
0010
0100
1000
,
0011
1000
0100
0010
0001
0010
0100
1000
0011
1000
0100
0010
0001
0010
0100
1000
0011
1000
0100
0010
0001
0010
0100
1000
0011
1000
0100
0010
0001
0010
0100
1000
,
0011
0000
0000
0000
0000
0000
1000
0000
0000
0000
0000
0000
0100
0000
0000
0000
0000
0000
0010
0000
0000
0000
0000
0000
0001
0000
0000
0000
0000
0000
0010
0000
0000
0000
0000
0000
0100
0000
0000
0000
0000
0000
1000
0000
0000
0000
0000
0000
0011
0000
0000
0000
0000
0000
1000
0000
0000
0000
0000
0000
0100
0000
0000
0000
0000
0000
0010
0000
0000
0000
0000
0000
0001
0000
0000
0000
0000
0000
0010
0000
0000
0000
0000
0000
0100
0000
0000
0000
0000
0000
1000
0000
0000
0000
0000
0000
0011
0000
0000
0000
0000
0000
0000
0000
0100
0000
0000
0000
0000
0000
0000
0000
0010
0000
0000
0000
0000
0000
0000
0000
1000
0000
0000
0000
0000
0000
0000
0000
0001
0000
0000
0000
0000
0000
0000
0000
0010
0000
0000
0000
0000
0000
0000
0000
0100
0000
0000
0000
0000
0000
0000
0000
1000
0000
0000
0000
0000
0000
0000
0000
0100
0000
0000
0000
0000
0000
0000
0000
0001
0000
0000
0000
0000
0000
0000
0000
0010
0000
0000
0000
0000
0000
0000
0000
0100
0000
0000
0000
0000
0000
0000
0000
,
1011
0000
0000
0000
,
0111
0000
0000
0000
,
1110
1110
1110
1110
,
1110
1110
1110
1110
;
