#TITLE:Ivaltek;
#SUBTITLE:;
#ARTIST:DJ Sharpnel;
#TITLETRANSLIT:;
#SUBTITLETRANSLIT:;
#ARTISTTRANSLIT:;
#CREDIT:B. Abear;
#BANNER:ivaltek bn.png;
#BACKGROUND:ivaltek bg.png;
#LYRICSPATH:;
#CDTITLE:;
#MUSIC:Ivaltek.ogg;
#OFFSET:-0.045;
#SAMPLESTART:85.399;
#SAMPLELENGTH:18.451;
#SELECTABLE:YES;
#DISPLAYBPM:208.000;
#BPMS:0.000=208.100,168.000=104.050,228.000=52.000,230.000=208.100;
#STOPS:;
#BGCHANGES:;
// cache tags:
#FIRSTBEAT:23.000;
#LASTBEAT:618.000;
#SONGFILENAME:Songs/SHARPNELSTREAMZ v2/Ivaltek/Ivaltek.sm;
#HASMUSIC:1;
#HASBANNER:1;
#MUSICLENGTH:199.627;
// end cache tags

//---------------dance-single - 15+ (Pope)----------------
#NOTES:
     dance-single:
     15+ (Pope):
     Challenge:
     15:
     1.000,1.000,0.125,0.411,1.000,1531.000,25.000,82.000,44.000,0.000:
    0000
    0000
    0000
    0000
    ,
    0000
    0000
    0000
    0000
    ,
    0000
    0000
    0000
    0000
    ,
    0000
    0000
    0000
    0000
    ,
    0000
    0000
    0000
    0000
    ,
    0000
    0000
    0000
    0000
    0000
    0000
    0000
    0000
    0000
    00M0
    0M00
    00M0
    ,
    0M00
    0M00
    0M00
    0M00
    0000
    0000
    00M0
    0000
    0000
    0M00
    0000
    0000
    ,
    00M0
    0000
    0M00
    00M0
    0000
    0000
    0000
    0000
    0000
    0000
    0000
    0000
    ,
    1001
    0000
    0001
    0000
    0010
    0000
    0100
    0000
    1000
    0001
    1000
    0000
    0010
    0000
    0100
    0000
    ,
    0001
    0000
    1000
    0000
    0001
    0000
    1000
    0000
    0100
    1000
    0100
    0000
    0010
    0000
    0010
    0000
    ,
    0010
    0000
    0001
    0000
    0100
    0000
    0010
    0000
    1000
    0001
    1000
    0000
    0010
    0000
    0100
    0000
    ,
    0010
    0100
    0001
    0000
    1000
    0000
    0000
    0000
    0001
    0100
    0001
    0000
    1000
    0000
    1000
    0000
    ,
    0001
    0000
    0010
    0000
    0100
    0000
    1000
    0000
    0001
    0100
    0001
    0000
    1000
    0000
    0100
    0000
    ,
    0010
    0000
    0001
    0000
    1000
    0000
    0001
    0000
    0100
    0010
    0100
    0000
    0001
    0000
    0001
    0000
    ,
    0001
    0000
    0010
    0000
    0100
    0000
    1000
    0000
    0001
    0010
    0001
    0000
    1000
    0000
    0010
    0000
    ,
    1000
    0000
    1000
    0000
    0001
    0000
    0001
    0000
    0010
    0100
    1000
    0010
    0100
    0001
    1000
    0100
    ,
    0010
    0000
    0001
    0000
    0010
    0000
    0100
    0000
    1000
    0001
    1000
    0000
    0010
    0000
    0100
    0000
    ,
    0001
    0000
    1000
    0000
    0001
    0000
    1000
    0000
    0100
    1000
    0100
    0000
    0010
    0000
    0010
    0000
    ,
    0010
    0000
    0001
    0000
    0100
    0000
    0010
    0000
    1000
    0001
    1000
    0000
    0010
    0000
    0100
    0000
    ,
    0010
    0100
    0001
    0000
    1000
    0000
    0000
    0000
    0001
    0100
    0001
    0000
    1000
    0000
    1000
    0000
    ,
    0001
    0000
    0010
    0000
    0100
    0000
    1000
    0000
    0001
    0100
    0001
    0000
    1000
    0000
    0100
    0000
    ,
    0010
    0000
    0001
    0000
    1000
    0000
    0001
    0000
    0100
    0010
    0100
    0000
    0001
    0000
    0001
    0000
    ,
    0001
    0000
    0010
    0000
    0100
    0000
    1000
    0000
    0001
    0010
    0001
    0000
    1000
    0000
    0010
    0000
    ,
    2000
    0000
    0000
    0000
    0000
    0000
    0000
    0000
    0000
    0000
    0000
    0000
    0000
    0000
    0000
    0000
    3002
    0000
    0000
    0000
    0000
    0000
    0000
    0000
    0000
    0000
    0000
    0000
    0000
    0000
    0003
    0000
    2002
    0000
    0000
    0000
    0000
    0000
    0000
    0000
    0000
    0000
    0000
    0000
    0000
    0000
    0000
    3003
    2002
    0000
    0000
    0000
    0000
    0000
    0000
    0000
    0000
    0000
    0000
    0000
    0000
    0000
    0000
    3003
    ,
    1001
    0000
    1000
    0000
    0100
    0000
    0010
    0000
    0001
    1000
    0001
    0000
    0100
    0000
    0010
    0000
    ,
    1000
    0000
    0001
    0000
    1000
    0000
    0001
    0000
    0010
    0001
    0010
    0000
    0100
    0000
    0100
    0000
    ,
    0100
    0000
    1000
    0000
    0010
    0000
    0100
    0000
    0001
    1000
    0001
    0000
    0100
    0000
    0010
    0000
    ,
    0100
    0010
    1000
    0000
    0001
    0000
    0000
    0000
    1000
    0010
    1000
    0000
    0001
    0000
    0001
    0000
    ,
    1000
    0000
    0100
    0000
    0010
    0000
    0001
    0000
    1000
    0010
    1000
    0000
    0001
    0000
    0010
    0000
    ,
    0100
    0000
    1000
    0000
    0001
    0000
    1000
    0000
    0010
    0100
    0010
    0000
    1000
    0000
    1000
    0000
    ,
    1000
    0000
    0100
    0000
    0010
    0000
    0001
    0000
    1000
    0100
    1000
    0000
    0001
    0000
    0100
    0000
    ,
    0001
    0000
    0001
    0000
    1000
    0000
    1000
    0000
    0100
    0010
    0001
    0100
    0010
    1000
    0001
    0010
    ,
    0100
    0000
    1000
    0000
    0100
    0000
    0010
    0000
    0001
    1000
    0001
    0000
    0100
    0000
    0010
    0000
    ,
    1000
    0000
    0001
    0000
    1000
    0000
    0001
    0000
    0010
    0001
    0010
    0000
    0100
    0000
    0100
    0000
    ,
    0100
    0000
    1000
    0000
    0010
    0000
    0100
    0000
    0001
    1000
    0001
    0000
    0100
    0000
    0010
    0000
    ,
    0100
    0010
    1000
    0000
    0001
    0000
    0000
    0000
    1000
    0100
    1000
    0000
    0001
    0000
    0001
    0000
    ,
    0010
    0010
    0100
    0100
    1000
    1000
    0001
    0001
    ,
    0100
    0100
    0010
    0010
    1000
    1000
    0001
    0001
    ,
    2000
    0000
    0000
    3000
    M200
    0000
    0000
    0300
    0M20
    0000
    0000
    0030
    00M2
    0000
    0000
    0003
    ,
    200M
    0000
    0000
    0000
    0000
    0000
    0000
    0000
    0000
    0000
    0000
    0000
    0000
    0000
    0000
    0000
    3002
    0000
    0000
    0000
    0000
    0000
    0000
    0000
    0000
    0000
    0000
    0000
    0000
    0000
    0000
    0003
    2002
    0000
    0000
    0000
    0000
    0000
    0000
    0000
    0000
    0000
    0000
    0000
    0000
    0000
    0000
    3003
    1001
    0000
    0000
    0000
    0000
    0000
    0000
    0000
    1000
    0000
    0000
    0000
    0000
    0000
    0000
    0000
    ,
    0100
    0000
    00M0
    0000
    ,
    00M0
    0000
    0000
    0000
    0000
    0000
    0000
    0000
    0000
    0000
    0000
    00MM
    0000
    0000
    0000
    0000
    0000
    0000
    0000
    0000
    0000
    0000
    0000
    0000
    ,
    2100
    0000
    0000
    0000
    0001
    0000
    3100
    0010
    ,
    0002
    0000
    0000
    0003
    1000
    0000
    0010
    0000
    0210
    0000
    0000
    0000
    0301
    1000
    0100
    0000
    ,
    0020
    0000
    0031
    0010
    0100
    0000
    1000
    0010
    ,
    0200
    0000
    0000
    0001
    0310
    0000
    1000
    0001
    ,
    0020
    0000
    0000
    0100
    0032
    0000
    0000
    0100
    ,
    2003
    0000
    0000
    0000
    0000
    0000
    0010
    0000
    3002
    0000
    0000
    0023
    0000
    0000
    0230
    0000
    ,
    2300
    0000
    0000
    0001
    3200
    0000
    0000
    0010
    ,
    2300
    0000
    3020
    0000
    0230
    0000
    0302
    0000
    2003
    0000
    0000
    3001
    1000
    0000
    0001
    0000
    ,
    1002
    0000
    0000
    0000
    1000
    0000
    0013
    0100
    ,
    2000
    0000
    0000
    3000
    0001
    0000
    0100
    0000
    0120
    0000
    0000
    0000
    1030
    0001
    0010
    0000
    ,
    0200
    0000
    1300
    0100
    0010
    0000
    0001
    0100
    ,
    0020
    0000
    0000
    1000
    0130
    0000
    0001
    1000
    ,
    0200
    0000
    0000
    0010
    2300
    0000
    0000
    0010
    ,
    3002
    0000
    0000
    0000
    0000
    0000
    0100
    0000
    2003
    0000
    0000
    3200
    0000
    0000
    0320
    0000
    ,
    0032
    0000
    0000
    0000
    0000
    0000
    1000
    0000
    0103
    0000
    0000
    0010
    0100
    0000
    0010
    0000
    ,
    1MM1
    0000
    0000
    0000
    0000
    0000
    0000
    0000
    1MM0
    0001
    1000
    0010
    0100
    0001
    1000
    0001
    ,
    0010
    0100
    1000
    0001
    0100
    0001
    1000
    0010
    0100
    0010
    1000
    0001
    0010
    0001
    1000
    0100
    ,
    0010
    0001
    1000
    0010
    0100
    0001
    1000
    0001
    1000
    0100
    0010
    0001
    1000
    0010
    1000
    0001
    ,
    0010
    0100
    1000
    0001
    0100
    0010
    0100
    0001
    1000
    0000
    1000
    0000
    0004
    0000
    0000
    0000
    ,
    1003
    0001
    1000
    0000
    0001
    0000
    0001
    0000
    0010
    0100
    1000
    0001
    0100
    0001
    0100
    0010
    ,
    1000
    0001
    0010
    0100
    1000
    0001
    0010
    0001
    1000
    0100
    0010
    0001
    1000
    0010
    0100
    0001
    ,
    1000
    0100
    1000
    0001
    0010
    0100
    1000
    0001
    0100
    0001
    0100
    0010
    1000
    0001
    1000
    0100
    ,
    0010
    0100
    1000
    0001
    0010
    0100
    1000
    0001
    0100
    0010
    0100
    0010
    0400
    0000
    0000
    0000
    ,
    0301
    1000
    0001
    0000
    1000
    0000
    1000
    0000
    0001
    0100
    0010
    1000
    0001
    0010
    0001
    1000
    ,
    0100
    0010
    0001
    1000
    0010
    0100
    0010
    0100
    0001
    0010
    0100
    1000
    0001
    1000
    0100
    0010
    ,
    0001
    1000
    0010
    0100
    0001
    1000
    0100
    0010
    0001
    0000
    1000
    0000
    0001
    0100
    0001
    0000
    ,
    1000
    0100
    1000
    0000
    0001
    0010
    0001
    0000
    1000
    0010
    0100
    0001
    1000
    0100
    0010
    0100
    ,
    1000
    0001
    1000
    0000
    0001
    0000
    0001
    0000
    0100
    0010
    1000
    0001
    0100
    0010
    0100
    0001
    ,
    0010
    0100
    1000
    0001
    0010
    0001
    0100
    0010
    1000
    0001
    0100
    0010
    0100
    0001
    1000
    0100
    ,
    0010
    0001
    0010
    0100
    1000
    0001
    0010
    0001
    1000
    0000
    1000
    0000
    0040
    0000
    0000
    0000
    ,
    0430
    0000
    0301
    0001
    4000
    0000
    3400
    0000
    ,
    0310
    0001
    1000
    0000
    0001
    0000
    0001
    0000
    1000
    0100
    0010
    0001
    1000
    0010
    1000
    0001
    ,
    0010
    0100
    1000
    0001
    0100
    0001
    1000
    0100
    0010
    0001
    0100
    0010
    1000
    0010
    0100
    0001
    ,
    1000
    0100
    1000
    0001
    0010
    0100
    1000
    0001
    0100
    0001
    0010
    0100
    1000
    0010
    0100
    0010
    ,
    0100
    0001
    1000
    0100
    1000
    0001
    0010
    0100
    1000
    0000
    1000
    0000
    0001
    0100
    0001
    0100
    ,
    0010
    1000
    0001
    0000
    1000
    0000
    1000
    0000
    0001
    0010
    0001
    1000
    0010
    0100
    0001
    0100
    ,
    0010
    1000
    0001
    0010
    0100
    1000
    0001
    0100
    0010
    1000
    0010
    1000
    0001
    0010
    0100
    1000
    ,
    0001
    1000
    0100
    0010
    0001
    1000
    0001
    1000
    0010
    0100
    0001
    0010
    0100
    1000
    0001
    0010
    ,
    0001
    0100
    0010
    1000
    0001
    1000
    0100
    0010
    0001
    0000
    0001
    0000
    4000
    0000
    0000
    0000
    ,
    3001
    0010
    0100
    1000
    0001
    0000
    0001
    0000
    1000
    0010
    0100
    0001
    1000
    0100
    1000
    0001
    ,
    0010
    0100
    1000
    0001
    0100
    0010
    0100
    0001
    1000
    0100
    1000
    0100
    0010
    0001
    1000
    0010
    ,
    1000
    0001
    0010
    0100
    1000
    0010
    0100
    0001
    0100
    0010
    1000
    0100
    1000
    0001
    0100
    0001
    ,
    1000
    0100
    0010
    0001
    1000
    0010
    0100
    0010
    1000
    0001
    0010
    0100
    1000
    0001
    0100
    0010
    ,
    1000
    0001
    1000
    0000
    0001
    0000
    0001
    0000
    1000
    0010
    0100
    0001
    1000
    0100
    1000
    0001
    ,
    0010
    0100
    1000
    0001
    0100
    0001
    1000
    0001
    0010
    0100
    1000
    0001
    0100
    0010
    0100
    0001
    ,
    1000
    0100
    0010
    0001
    1000
    0100
    1000
    0001
    0010
    0100
    1000
    0100
    0010
    0001
    1000
    0010
    ,
    1000
    0001
    0010
    0100
    1000
    0001
    0100
    0010
    100M
    0000
    0M00
    0000
    00M0
    0000
    000M
    0000
    ,
    0M00
    0000
    00M0
    0000
    000M
    0000
    0M00
    0000
    0MM1
    1000
    0001
    0100
    0010
    1000
    0001
    1000
    ,
    0100
    0010
    0001
    1000
    0010
    1000
    0001
    0100
    0010
    0100
    0001
    1000
    0100
    1000
    0001
    0010
    ,
    0100
    1000
    0001
    0100
    0010
    1000
    0001
    1000
    0001
    0010
    0100
    1000
    0001
    0100
    0001
    1000
    ,
    0100
    0010
    0001
    1000
    0010
    0100
    0010
    1000
    0001
    0000
    0001
    0000
    4000
    0000
    0000
    0000
    ,
    3001
    1000
    0001
    0000
    1000
    0000
    1000
    0000
    0100
    0010
    0001
    1000
    0010
    1000
    0010
    0100
    ,
    0001
    1000
    0100
    0010
    0001
    1000
    0100
    1000
    0001
    0010
    0100
    1000
    0001
    0100
    0010
    1000
    ,
    0001
    0010
    0001
    1000
    0100
    0010
    0001
    1000
    0010
    1000
    0010
    0100
    0001
    1000
    0001
    0010
    ,
    0100
    0010
    0001
    1000
    0100
    0010
    0001
    1000
    0010
    0100
    0010
    0100
    0040
    0000
    0000
    0000
    ,
    1030
    0001
    1000
    0000
    0001
    0000
    0001
    0000
    1000
    0010
    0100
    0001
    1000
    0100
    1000
    0001
    ,
    0010
    0100
    1000
    0001
    0100
    0010
    0100
    0010
    1000
    0100
    0010
    0001
    1000
    0001
    0010
    0100
    ,
    1000
    0001
    0100
    0010
    1000
    0001
    0010
    0100
    1000
    0000
    0001
    0000
    1000
    0010
    1000
    0000
    ,
    0001
    0010
    0001
    0000
    1000
    0100
    1000
    0000
    0001
    0100
    0010
    1000
    0001
    0010
    0100
    0010
    ,
    0001
    1000
    0001
    0000
    1000
    0000
    1000
    0000
    0010
    0100
    0001
    1000
    0010
    0100
    0010
    1000
    ,
    0100
    0010
    0001
    1000
    0100
    1000
    0010
    0100
    0001
    1000
    0010
    0100
    0010
    1000
    0001
    0010
    ,
    0100
    1000
    0100
    0010
    0001
    1000
    0100
    1000
    0001
    0000
    0001
    0000
    0400
    0000
    0000
    0000
    ,
    0340
    0000
    1030
    1000
    0004
    0000
    0043
    0000
    ,
    0130
    1000
    0001
    0000
    1000
    0000
    1000
    0000
    0001
    0010
    0100
    1000
    0001
    0100
    0001
    1000
    ,
    0100
    0010
    0001
    1000
    0010
    1000
    0001
    0010
    0100
    1000
    0010
    0100
    0001
    0100
    0010
    1000
    ,
    0001
    0010
    0001
    1000
    0100
    0010
    0001
    1000
    0010
    1000
    0100
    0010
    0001
    0100
    0010
    0100
    ,
    0010
    1000
    0001
    0010
    0001
    1000
    0100
    0010
    0001
    0000
    0001
    0000
    1000
    0010
    1000
    0010
    ,
    0100
    0001
    1000
    0000
    0001
    0000
    0001
    0000
    1000
    0100
    1000
    0001
    0100
    0010
    1000
    0010
    ,
    0100
    0001
    1000
    0100
    0010
    0001
    1000
    0010
    0100
    0001
    0100
    0001
    1000
    0100
    0010
    0001
    ,
    1000
    0001
    0010
    0100
    1000
    0001
    1000
    0001
    0100
    0010
    1000
    0100
    0010
    0001
    1000
    0100
    ,
    1000
    0010
    0100
    0001
    1000
    0001
    0010
    0100
    1000
    0000
    1000
    0000
    0004
    0000
    0000
    0000
    ,
    1003
    0100
    0010
    0001
    1000
    0000
    1000
    0000
    0001
    0100
    0010
    1000
    0001
    0010
    0001
    1000
    ,
    0100
    0010
    0001
    1000
    0010
    0100
    0010
    1000
    0001
    0010
    0001
    0010
    0100
    1000
    0001
    0100
    ,
    0001
    1000
    0100
    0010
    0001
    0100
    0010
    1000
    0010
    0100
    0001
    0010
    0001
    1000
    0010
    1000
    ,
    0001
    0010
    0100
    1000
    0001
    0100
    0010
    0100
    0001
    1000
    0100
    0010
    0001
    1000
    0010
    0100
    ,
    0001
    1000
    0001
    0000
    1000
    0000
    1000
    0000
    0002
    0000
    0100
    0000
    1003
    0000
    0002
    0000
    ,
    0100
    1003
    0002
    1003
    0002
    0010
    1003
    0002
    ,
    0010
    1003
    0002
    1003
    2000
    0100
    3001
    2000
    ,
    0100
    3001
    2000
    3001
    2000
    0010
    3001
    2000
    ,
    0010
    3001
    2000
    3001
    0000
    0000
    0000
    0MM0
    ,
    0MM0
    0000
    0MM0
    0000
    0MM0
    0000
    0MM0
    0000
    1001
    0000
    0001
    0000
    1000
    0100
    1000
    0000
    ,
    0001
    0000
    0100
    0000
    0010
    0000
    0100
    0000
    0001
    1000
    0001
    0000
    0010
    0000
    0100
    0000
    ,
    1000
    0001
    1000
    0000
    0010
    0000
    0100
    0000
    0001
    0100
    0001
    0000
    0010
    0000
    0100
    0000
    ,
    1000
    0100
    1000
    0000
    0001
    0000
    0100
    0000
    0010
    1000
    0010
    0000
    0100
    0000
    0001
    0000
    ,
    1000
    0100
    0010
    0000
    0001
    0000
    0001
    0000
    1000
    0100
    1000
    0000
    0010
    0000
    0100
    0000
    ,
    0001
    0100
    0001
    0000
    1000
    0000
    0001
    0000
    0010
    0100
    0010
    0000
    0001
    0000
    1000
    0000
    ,
    0010
    1000
    0010
    0000
    0100
    0000
    0001
    0000
    1000
    0100
    1000
    0000
    0001
    0000
    0010
    0000
    ,
    0100
    0010
    0100
    0000
    1000
    0000
    0001
    0000
    0100
    0010
    0100
    0000
    0001
    0000
    1000
    0000
    ,
    0001
    0010
    0100
    0000
    1000
    0000
    1000
    0000
    1001
    0000
    0001
    0000
    1000
    0100
    1000
    0000
    ,
    0001
    0000
    0100
    0000
    0010
    0000
    0100
    0000
    0001
    1000
    0001
    0000
    0010
    0000
    0100
    0000
    ,
    1000
    0001
    1000
    0000
    0010
    0000
    0100
    0000
    0001
    0100
    0001
    0000
    0010
    0000
    0100
    0000
    ,
    1000
    0100
    1000
    0000
    0001
    0000
    0100
    0000
    0010
    1000
    0010
    0000
    0100
    0000
    0001
    0000
    ,
    1000
    0100
    0010
    0000
    0001
    0000
    0001
    0000
    1000
    0100
    1000
    0000
    0010
    0000
    0100
    0000
    ,
    0001
    0100
    0001
    0000
    1000
    0000
    0001
    0000
    0010
    0100
    0010
    0000
    0001
    0000
    1000
    0000
    ,
    0010
    1000
    0010
    0000
    0100
    0000
    0001
    0000
    1000
    0100
    1000
    0000
    0001
    0000
    0010
    0000
    ,
    0100
    0010
    0100
    0000
    1000
    0000
    0001
    0000
    0100
    0010
    0100
    0000
    0001
    0000
    1000
    0000
    ,
    0001
    0010
    0100
    0000
    1000
    0000
    1000
    0000
    1001
    0000
    0002
    0000
    0003
    0000
    0200
    0000
    ,
    0300
    0020
    0030
    2000
    3000
    0002
    0003
    0020
    ,
    0030
    0200
    0300
    2000
    3000
    0002
    0003
    0200
    ,
    0300
    0020
    0000
    2030
    3000
    0001
    0002
    0000
    ,
    1003
    0100
    1000
    0000
    0001
    0000
    0001
    0000
    0000
    0000
    0200
    0000
    0300
    0000
    0020
    0000
    ,
    0030
    2000
    3000
    0002
    0003
    0020
    0030
    0200
    ,
    0300
    2000
    3000
    0002
    0003
    0020
    0030
    0002
    ,
    0003
    2000
    3000
    0020
    0030
    0100
    0002
    0003
    ,
    1000
    0010
    1000
    0000
    0001
    0000
    0001
    0000
    1000
    0100
    0010
    0001
    1000
    0010
    1000
    0001
    ,
    0010
    0100
    1000
    0010
    0100
    0010
    0100
    0001
    1000
    0100
    1000
    0001
    0010
    0100
    1000
    0001
    ,
    0100
    0010
    0100
    0010
    1000
    0001
    1000
    0100
    0010
    0001
    0010
    0100
    1000
    0001
    0100
    0001
    ,
    1000
    0100
    0010
    0001
    1000
    0010
    1000
    0001
    0010
    0100
    1000
    0010
    0100
    0001
    1000
    0001
    ,
    0100
    0010
    0100
    0000
    0010
    0000
    0010
    0000
    1000
    0100
    1000
    0010
    0100
    0001
    1000
    0100
    ,
    0010
    0001
    1000
    0010
    1000
    0010
    0100
    0001
    0010
    0100
    1000
    0001
    1000
    0100
    1000
    0010
    ,
    0100
    0001
    0100
    0010
    1000
    0010
    0100
    0001
    1000
    0100
    1000
    0001
    0010
    0100
    1000
    0001
    ,
    0010
    0001
    1000
    0100
    0010
    0100
    1000
    0001
    0100
    0010
    1000
    0010
    0100
    0001
    0010
    0100
    ,
    1000
    0001
    1000
    0000
    0001
    0000
    0001
    0000
    1001
    0000
    0000
    0000
    0000
    0000
    0000
    0000
;

//---------------dance-single - 11 (EZA)----------------
#NOTES:
     dance-single:
     11 (EZA):
     Hard:
     11:
     0.973,1.000,0.050,0.636,0.456,1213.000,10.000,127.000,16.000,6.000:
    0000
    0000
    0000
    0000
    ,
    0000
    0000
    0000
    0000
    ,
    0000
    0000
    0000
    0000
    ,
    0000
    0000
    0000
    0000
    ,
    0000
    0000
    0000
    0000
    ,
    0000
    0000
    0000
    0000
    ,
    0000
    0000
    0000
    0000
    ,
    0000
    0000
    0000
    0000
    ,
    1000
    0000
    0010
    0000
    0100
    0000
    0001
    0000
    0010
    0001
    0010
    0000
    0100
    0000
    0010
    0000
    ,
    0001
    0000
    0100
    0000
    0010
    0000
    1000
    0000
    0010
    0100
    0010
    0000
    1000
    0000
    0001
    0000
    ,
    0010
    0000
    0100
    0000
    1000
    0000
    0001
    0000
    1000
    0010
    1000
    0000
    0100
    0000
    1000
    0000
    ,
    0010
    0000
    0100
    0000
    0001
    0000
    1000
    0000
    0100
    0010
    0100
    0000
    0010
    0000
    0001
    0000
    ,
    1000
    0000
    0100
    0000
    1000
    0000
    0001
    0000
    0100
    0010
    0100
    0000
    0001
    0000
    1000
    0000
    ,
    0010
    0000
    0100
    0000
    0001
    0000
    1000
    0000
    0100
    0010
    0100
    0000
    1000
    0000
    0010
    0000
    ,
    0100
    0000
    0001
    0000
    0010
    0000
    0100
    0000
    1000
    0010
    1000
    0000
    0010
    0000
    0100
    0000
    ,
    0001
    0000
    0010
    0000
    0100
    0000
    1000
    0000
    0001
    0100
    0001
    0100
    0001
    1000
    0001
    1000
    ,
    0MM1
    0000
    0010
    0000
    0100
    0000
    1000
    0000
    0010
    0100
    0001
    0000
    0010
    0000
    0100
    0000
    ,
    0010
    0000
    0001
    0000
    0100
    0000
    0010
    0000
    1000
    0100
    0010
    0000
    0100
    0000
    1000
    0000
    ,
    0010
    0000
    0100
    0000
    0001
    0000
    0010
    0000
    0100
    1000
    0001
    0000
    1000
    0000
    0010
    0000
    ,
    0100
    0000
    0010
    0000
    1000
    0000
    0100
    0000
    1000
    0010
    0100
    0000
    0010
    0000
    0100
    0000
    ,
    0001
    0000
    0010
    0000
    0100
    0000
    0010
    0000
    0001
    1000
    0010
    0000
    0100
    0000
    0001
    0000
    ,
    0010
    0000
    0001
    0000
    0100
    0000
    0010
    0000
    1000
    0100
    0010
    0000
    0100
    0000
    1000
    0000
    ,
    0001
    0000
    0100
    0000
    0010
    0000
    0100
    0000
    0001
    0010
    0100
    0000
    0010
    0000
    0001
    0000
    ,
    0100
    0110
    1110
    1111
    ,
    0001
    0000
    0010
    0000
    0100
    0000
    1000
    0000
    0010
    0100
    0010
    0000
    1000
    0000
    0010
    0000
    ,
    0100
    0000
    0001
    0000
    0010
    0000
    0001
    0000
    1000
    0100
    1000
    0000
    0001
    0000
    0010
    0000
    ,
    0001
    0000
    0100
    0000
    0010
    0000
    1000
    0000
    0001
    0100
    0001
    0000
    0010
    0000
    0100
    0000
    ,
    1000
    0000
    0010
    0000
    0100
    0000
    0010
    0000
    1000
    0100
    1000
    0000
    0100
    0000
    0010
    0000
    ,
    0001
    0000
    1000
    0000
    0100
    0000
    1000
    0000
    0001
    0100
    0001
    0000
    1000
    0000
    0001
    0000
    ,
    0010
    0000
    0001
    0000
    1000
    0000
    0100
    0000
    0010
    0001
    0010
    0000
    0100
    0000
    1000
    0000
    ,
    0010
    0000
    0100
    0000
    0001
    0000
    0100
    0000
    0010
    1000
    0010
    0000
    1000
    0000
    0100
    0000
    ,
    0010
    0000
    0001
    0000
    0100
    0000
    0010
    0000
    1000
    0100
    1000
    0100
    1000
    0001
    1000
    0001
    ,
    1MM0
    0000
    0010
    0000
    0100
    0000
    0001
    0000
    0010
    0100
    1000
    0000
    0010
    0000
    0100
    0000
    ,
    0010
    0000
    1000
    0000
    0100
    0000
    0010
    0000
    0001
    0100
    0010
    0000
    0100
    0000
    0001
    0000
    ,
    0010
    0000
    0100
    0000
    0010
    0000
    0001
    0000
    1000
    0010
    0100
    0000
    0010
    0000
    0100
    0000
    ,
    0001
    0000
    0010
    0000
    0100
    0000
    1000
    0000
    0010
    1000
    0100
    0000
    1000
    0000
    1000
    0000
    ,
    0001
    0001
    0100
    0100
    0010
    0010
    1000
    1000
    ,
    0001
    0001
    0010
    0010
    0100
    0100
    1000
    1000
    ,
    0010
    0100
    0000
    0000
    0001
    0010
    0000
    0000
    0100
    1000
    0000
    0000
    0100
    0010
    0000
    0000
    ,
    0010
    0110
    0111
    1111
    ,
    0000
    0000
    0000
    0000
    ,
    0000
    0000
    0000
    0000
    ,
    2000
    0000
    0000
    0000
    0000
    0000
    0000
    0000
    0000
    0000
    0000
    0000
    3020
    0000
    0000
    0230
    ,
    0000
    0302
    0000
    0000
    0000
    0000
    0003
    000M
    ,
    0020
    0000
    0000
    0000
    0000
    0000
    0000
    0000
    0000
    0000
    0000
    0000
    0230
    0000
    0000
    2300
    ,
    0000
    3020
    0000
    0000
    0000
    0000
    0030
    00M0
    ,
    0200
    0000
    0000
    0000
    0000
    0000
    0000
    0000
    0000
    0000
    0000
    0000
    0302
    0000
    0000
    0023
    ,
    0000
    0000
    0230
    0000
    0000
    0000
    0000
    0000
    0320
    0000
    0000
    0032
    0000
    0000
    0203
    0000
    ,
    0320
    0000
    0000
    2030
    3200
    0000
    0000
    0000
    ,
    0000
    0000
    0000
    0000
    0000
    0000
    0300
    0M00
    ,
    2000
    0000
    0000
    0000
    0000
    0000
    3020
    0230
    ,
    0300
    0020
    0000
    0000
    0000
    0000
    0030
    00M0
    ,
    2000
    0000
    0000
    0000
    0000
    0000
    0000
    0000
    3000
    0000
    0002
    0000
    0003
    0020
    0000
    0230
    ,
    0000
    2300
    0000
    0000
    0000
    0000
    0000
    0000
    0000
    0000
    0000
    0000
    3000
    0000
    M000
    0000
    ,
    0020
    0000
    0000
    0000
    0000
    0000
    0230
    0302
    ,
    0023
    0000
    0000
    0000
    0030
    0000
    00M0
    0000
    0200
    0000
    0000
    0320
    0000
    0032
    0000
    0000
    ,
    4003
    0000
    0000
    0000
    ,
    3020
    0000
    0000
    0000
    1M3M
    0100
    1000
    0001
    ,
    0100
    0010
    0100
    0001
    0010
    0100
    1000
    0001
    ,
    0100
    0001
    0010
    0010
    0100
    0010
    0001
    1000
    ,
    0010
    0000
    0100
    0000
    0001
    0000
    1000
    0000
    0010
    0000
    0010
    0000
    0100
    0001
    0100
    0000
    ,
    0010
    1000
    0010
    0000
    0100
    0001
    0100
    0000
    0001
    0000
    0010
    0000
    0100
    0000
    1000
    0000
    ,
    0100
    1000
    0001
    0100
    0010
    0100
    0001
    0010
    ,
    0001
    1000
    0100
    0100
    0010
    0100
    1000
    0010
    ,
    0100
    0000
    0001
    0000
    0010
    0000
    0100
    0000
    1000
    0001
    1000
    0010
    0200
    0000
    0000
    0000
    ,
    0302
    0000
    1003
    1000
    0100
    0010
    0001
    0100
    ,
    0010
    0100
    0001
    0010
    0100
    1000
    0010
    1000
    ,
    0100
    0000
    1000
    0000
    0010
    0000
    0010
    0000
    0100
    0000
    0001
    0000
    0010
    0001
    0010
    0000
    ,
    0100
    1000
    0100
    0000
    0010
    0001
    0010
    0000
    0100
    0000
    1000
    0000
    0010
    0000
    0100
    0000
    ,
    0001
    1000
    0001
    0000
    0100
    0000
    0010
    0000
    1000
    0000
    0100
    0000
    1000
    0000
    0010
    0000
    ,
    0100
    0010
    0100
    0001
    0010
    0100
    1000
    0010
    ,
    0100
    0000
    0001
    0000
    0010
    0000
    0100
    0000
    0010
    0000
    0010
    0000
    0001
    0100
    0001
    0000
    ,
    1000
    0010
    1000
    0000
    0001
    0000
    1000
    0000
    0001
    0010
    0001
    0000
    1000
    0100
    1000
    0000
    ,
    0001
    0010
    0001
    0000
    1000
    0100
    1000
    0000
    0010
    0000
    0100
    0000
    0010
    0000
    1000
    0000
    ,
    0100
    1000
    0001
    0100
    0001
    0010
    0100
    0010
    ,
    0001
    0100
    0010
    0010
    0100
    0001
    0010
    0100
    ,
    1000
    0000
    0010
    0000
    0100
    0000
    0010
    0000
    1000
    0000
    1000
    0000
    0001
    0100
    0001
    0100
    ,
    0001
    1000
    0001
    0000
    0010
    0000
    0100
    0000
    1000
    0000
    0100
    0000
    1000
    0000
    0001
    0000
    ,
    0100
    0010
    0100
    0001
    0010
    0100
    1000
    0001
    ,
    0100
    0010
    0100
    0100
    0001
    0010
    0100
    0010
    ,
    0001
    0000
    0100
    0000
    0010
    0000
    1000
    0000
    0100
    0000
    0100
    0000
    0010
    0001
    1000
    0010
    ,
    0100
    0000
    0100
    0001
    0010
    0100
    1000
    0000
    0010
    0000
    0100
    0000
    0001
    0000
    0010
    0000
    ,
    0001
    1000
    0010
    1000
    0100
    1000
    0010
    0100
    ,
    0001
    0010
    0100
    0100
    1000
    0010
    0100
    0010
    ,
    1000
    0001
    0010
    0001
    1000
    0010
    1000
    0100
    ,
    1000
    0001
    1000
    0000
    0010
    0000
    0100
    0000
    0001
    0000
    0010
    0000
    0001
    0000
    1000
    0000
    ,
    0100
    1000
    0010
    0100
    0001
    0010
    0001
    1000
    ,
    0010
    0100
    0010
    0010
    0100
    0001
    0010
    0100
    ,
    1000
    0010
    0100
    0010
    1000
    0000
    1100
    0000
    ,
    1110
    0000
    1111
    0000
    0001
    0010
    0001
    1000
    ,
    0010
    0100
    0010
    1000
    0100
    0010
    0001
    1000
    ,
    0010
    1000
    0100
    0100
    0010
    0100
    1000
    0001
    ,
    0100
    0000
    0010
    0000
    1000
    0000
    0001
    0000
    0100
    0000
    0100
    0000
    0010
    1000
    0010
    0000
    ,
    0100
    0001
    0100
    0000
    0010
    1000
    0010
    0000
    1000
    0000
    0100
    0000
    0010
    0000
    0001
    0000
    ,
    0010
    0001
    1000
    0010
    0100
    0010
    1000
    0100
    ,
    1000
    0001
    0010
    0010
    0100
    0010
    0001
    0100
    ,
    0010
    0000
    1000
    0000
    0100
    0000
    0010
    0000
    0001
    1000
    0001
    0100
    0020
    0000
    0000
    0000
    ,
    2030
    0000
    3001
    0001
    0010
    0100
    1000
    0010
    ,
    0100
    0010
    1000
    0100
    0010
    0001
    0100
    0001
    ,
    0010
    0000
    0001
    0000
    0100
    0000
    0100
    0000
    0010
    0000
    1000
    0000
    0100
    1000
    0100
    0000
    ,
    0010
    0001
    0010
    0000
    0100
    1000
    0100
    0000
    0010
    0000
    0001
    0000
    0100
    0000
    0010
    0000
    ,
    1000
    0001
    1000
    0000
    0010
    0000
    0100
    0000
    0001
    0000
    0010
    0000
    0001
    0000
    0100
    0000
    ,
    0010
    0100
    0010
    1000
    0100
    0010
    0001
    0100
    ,
    0010
    0000
    1000
    0000
    0100
    0000
    0010
    0000
    0100
    0000
    0100
    0000
    1000
    0010
    1000
    0000
    ,
    0001
    0100
    0001
    0000
    1000
    0000
    0001
    0000
    1000
    0100
    1000
    0000
    0001
    0010
    0001
    0000
    ,
    1000
    0100
    1000
    0000
    0001
    0010
    0001
    0000
    0100
    0000
    0010
    0000
    0100
    0000
    0001
    0000
    ,
    0010
    0001
    1000
    0010
    1000
    0100
    0010
    0100
    ,
    1000
    0010
    0100
    0100
    0010
    1000
    0100
    0010
    ,
    0001
    0000
    0100
    0000
    0010
    0000
    0100
    0000
    0001
    0000
    0001
    0000
    1000
    0010
    1000
    0010
    ,
    1000
    0001
    1000
    0000
    0100
    0000
    0010
    0000
    0001
    0000
    0010
    0000
    0001
    0000
    1000
    0000
    ,
    0010
    0100
    0010
    1000
    0100
    0010
    0001
    1000
    ,
    0010
    0100
    0010
    0010
    1000
    0100
    0010
    0100
    ,
    1000
    0000
    0010
    0000
    0100
    0000
    0001
    0000
    0010
    0000
    0010
    0000
    0100
    1000
    0001
    0100
    ,
    0010
    0000
    0010
    1000
    0100
    0010
    0001
    0000
    0100
    0000
    0010
    0000
    1000
    0000
    0100
    0000
    ,
    1000
    0001
    0100
    0001
    0010
    0001
    0100
    0010
    ,
    1000
    0100
    0010
    0010
    0001
    0100
    0010
    0100
    ,
    0001
    1000
    0100
    1000
    0001
    0100
    0001
    0010
    ,
    0001
    1000
    0001
    0000
    0100
    0000
    0010
    0000
    1000
    0000
    0100
    0000
    1000
    0000
    0001
    0000
    ,
    0010
    0001
    0100
    0010
    1000
    0100
    1000
    0001
    ,
    0100
    0010
    0100
    0100
    0010
    1000
    0100
    0010
    ,
    0001
    0000
    0100
    0000
    0010
    0000
    0100
    0000
    0001
    0000
    0010
    0000
    0100
    0000
    1000
    0001
    ,
    0100
    0000
    0010
    1000
    0001
    0000
    0010
    0000
    MMMM
    0000
    0000
    0000
    0000
    0000
    0000
    0000
    ,
    0000
    0000
    0000
    0000
    0000
    0000
    0000
    0000
    1000
    0001
    1000
    0000
    0010
    0100
    0010
    0000
    ,
    1000
    0100
    1000
    0000
    0002
    0000
    0203
    0000
    0310
    1000
    0010
    0000
    1000
    0100
    1000
    0000
    ,
    0100
    0010
    0100
    0000
    0020
    0000
    0032
    0000
    0103
    0010
    0100
    0000
    0001
    0010
    0001
    0000
    ,
    1000
    0010
    1000
    0000
    0200
    0000
    0320
    0000
    0031
    0100
    0001
    0000
    2000
    0000
    3002
    0000
    ,
    0103
    0010
    0200
    0000
    0302
    0000
    0023
    0000
    0031
    1000
    0001
    0000
    0100
    0010
    0100
    0000
    ,
    0001
    0010
    0001
    0000
    2000
    0000
    3020
    0000
    0130
    0001
    0100
    0000
    0001
    0010
    0001
    0000
    ,
    0010
    0100
    0010
    0000
    0200
    0000
    2300
    0000
    3010
    0100
    0010
    0000
    1000
    0100
    1000
    0000
    ,
    0001
    0100
    0001
    0000
    0020
    0000
    0230
    0000
    1300
    0010
    1000
    0000
    0002
    0000
    2003
    0000
    ,
    3010
    0100
    0020
    0000
    2030
    0000
    3200
    0000
    1300
    0001
    1000
    0000
    0010
    0100
    0010
    0000
    ,
    1000
    0100
    1000
    0000
    0002
    0000
    0203
    0000
    0310
    1000
    0010
    0000
    1000
    0100
    1000
    0000
    ,
    0100
    0010
    0100
    0000
    0020
    0000
    0032
    0000
    0103
    0010
    0100
    0000
    0001
    0010
    0001
    0000
    ,
    1000
    0010
    1000
    0000
    0200
    0000
    0320
    0000
    0031
    0100
    0001
    0000
    2000
    0000
    3002
    0000
    ,
    0103
    0010
    0200
    0000
    0302
    0000
    0023
    0000
    0031
    1000
    0001
    0000
    0100
    0010
    0100
    0000
    ,
    0001
    0010
    0001
    0000
    2000
    0000
    3020
    0000
    0130
    0001
    0100
    0000
    0001
    0010
    0001
    0000
    ,
    0010
    0100
    0010
    0000
    0200
    0000
    2300
    0000
    3010
    0100
    0010
    0000
    1000
    0100
    1000
    0000
    ,
    0001
    0100
    0001
    0000
    0020
    0000
    0230
    0000
    1300
    0010
    1000
    0000
    0002
    0000
    2003
    0000
    ,
    3010
    0100
    0020
    0000
    2030
    0000
    3200
    0000
    1300
    0001
    1000
    0000
    0010
    0100
    0010
    0000
    ,
    1000
    0100
    1000
    0000
    0002
    0000
    0203
    0000
    0310
    1000
    0010
    0000
    1000
    0100
    1000
    0000
    ,
    0100
    0010
    0100
    0000
    0020
    0000
    0032
    0000
    0103
    0010
    0100
    0000
    0001
    0010
    0001
    0000
    ,
    1000
    0010
    1000
    0000
    0200
    0000
    0320
    0000
    0031
    0100
    0001
    0000
    2000
    0000
    3002
    0000
    ,
    0103
    0010
    0200
    0000
    0302
    0000
    0023
    0000
    0031
    1000
    0001
    0000
    0100
    0010
    0100
    0000
    ,
    0001
    0010
    0001
    0000
    2000
    0000
    3020
    0000
    0130
    0001
    0100
    0000
    0001
    0010
    0001
    0000
    ,
    0010
    0100
    0010
    0000
    0200
    0000
    2300
    0000
    3010
    0100
    0010
    0000
    1000
    0100
    1000
    0000
    ,
    0001
    0100
    0001
    0000
    0020
    0000
    0230
    0000
    1300
    0010
    1000
    0000
    0002
    0000
    2003
    0000
    ,
    3010
    0100
    0020
    0000
    2030
    0000
    3200
    0000
    1300
    0001
    1000
    0000
    0010
    0100
    0010
    0000
    ,
    1000
    0100
    1000
    0000
    0002
    0000
    0203
    0000
    0310
    1000
    0010
    0000
    1000
    0100
    1000
    0000
    ,
    0100
    0010
    0100
    0000
    0020
    0000
    0032
    0000
    0103
    0010
    0100
    0000
    0001
    0010
    0001
    0000
    ,
    1000
    0010
    1000
    0000
    0200
    0000
    0320
    0000
    0031
    0100
    0001
    0000
    2000
    0000
    3002
    0000
    ,
    0103
    0010
    0200
    0000
    0302
    0000
    0023
    0000
    0031
    1000
    0001
    0000
    0100
    0010
    0100
    0000
    ,
    0001
    0010
    0001
    0000
    2000
    0000
    3020
    0000
    0130
    0001
    0100
    0000
    0001
    0010
    0001
    0000
    ,
    0010
    0100
    0010
    0000
    0200
    0000
    2300
    0000
    3010
    0100
    0010
    0000
    1000
    0100
    1000
    0000
    ,
    0001
    0100
    0001
    0000
    0020
    0000
    0230
    0000
    1300
    0010
    1000
    0000
    0002
    0000
    2003
    0000
    ,
    3010
    0100
    0020
    0000
    2030
    0000
    3200
    0000
    1300
    0000
    0000
    0000
    0000
    0000
    0000
    0000
;
