#TITLE:LOVELESS WORLD;
#SUBTITLE:;
#ARTIST:u's;
#TITLETRANSLIT:;
#SUBTITLETRANSLIT:;
#ARTISTTRANSLIT:;
#CREDIT:;
#BANNER:LOVELESS WORLD-bn.png;
#BACKGROUND:LOVELESS WORLD-bg.png;
#LYRICSPATH:;
#CDTITLE:;
#MUSIC:LOVELESS WORLD.ogg;
#OFFSET:-3.298;
#SAMPLESTART:82.777;
#SAMPLELENGTH:12.000;
#SELECTABLE:YES;
#BPMS:0.000=157.000;
#STOPS:;
#BGCHANGES:;
// cache tags:
#FIRSTBEAT:0.000;
#LASTBEAT:325.000;
#SONGFILENAME:Songs/Index Tournament 1/LOVELESS WORLD/LOVELESS WORLD.sm;
#HASMUSIC:1;
#HASBANNER:1;
#MUSICLENGTH:129.405;
// end cache tags

//---------------dance-single - Kurosan----------------
#NOTES:
     dance-single:
     Kurosan:
     Edit:
     12:
     1.000,1.000,0.549,0.417,1.000,810.000,71.000,54.000,0.000,0.000:
0001
0000
0000
0010
0000
0000
0100
0000
1000
0000
0000
0000
0000
0000
0001
0000
,
0100
0000
0000
0010
0000
0000
1000
0000
0001
0000
0000
0000
1000
0000
0000
0000
,
1200
0000
0000
0000
0310
0000
0000
0000
0012
0000
0000
0003
1000
0000
0000
0000
,
0001
0000
0000
0100
0000
0000
0001
1000
0100
0000
0000
0000
0000
0000
0000
0000
,
0010
0000
0000
0001
0000
0000
1000
0000
0010
0000
0000
0000
0100
0000
0000
0000
,
0002
0000
0000
1003
0100
0000
0010
0000
,
0001
0000
0000
1000
0000
0000
0010
0000
0001
0000
0000
0010
0000
0000
0100
0000
,
0001
0000
0000
1000
0000
0000
0100
0010
0001
0000
1000
0100
1000
0001
0100
0001
,
0020
0000
0100
0000
0100
0000
0130
1000
,
0002
0000
0100
0000
0100
0000
0103
0010
,
2010
3100
0021
0130
,
1001
0000
0000
1000
0000
0000
0001
0100
0010
0000
1000
0010
1000
0001
0010
0001
,
0200
0310
2010
3001
,
0022
0033
0220
0330
2200
3300
2002
3003
,
0001
0000
1000
0010
1000
0000
0001
0010
0001
0000
1000
0010
1000
0000
0001
0100
,
0001
0000
1001
0110
,
1002
0000
0000
0000
0000
0000
0000
0000
0000
0000
0000
0000
0000
0000
0000
0000
0000
0000
0000
0000
0000
0000
0000
0003
0011
0000
0000
0000
0110
0000
0000
0000
,
2100
0000
0000
0000
0000
0000
0000
0000
0000
0000
0000
0000
0000
0000
0000
0000
0000
0000
0000
0000
0000
0000
0000
3000
1100
0000
0000
0000
0110
0000
0000
0000
,
0012
0000
0000
0000
0000
0000
0000
0000
0000
0000
0000
0000
0000
0000
0000
0000
0000
0000
0000
0000
0000
0000
0000
0003
0011
0000
0000
0000
0110
0000
0000
0000
,
1100
0000
0000
1001
0000
0000
0101
0000
0000
0000
0110
0000
1010
0000
1001
0000
,
1100
0000
0100
0010
0100
0010
0001
1000
0100
0010
0100
0010
0002
0000
2003
0000
,
3002
0000
0013
0100
0010
0100
1000
0001
0010
0100
0010
0100
2000
0000
3002
0000
,
0023
0000
0130
1000
0100
1000
0001
0010
0100
1000
0100
1000
0002
0000
2003
0000
,
3010
0000
0000
0010
0000
0000
1000
0000
0001
0010
0100
1000
0100
0010
0001
1000
,
0010
0100
0010
1000
0010
0100
0010
1000
0001
0010
0100
0010
0001
0010
0100
0010
,
0001
1000
0001
0100
0001
1000
0001
0100
0010
1000
0010
0100
0001
1000
0001
0100
,
0001
0010
0100
1000
0100
0010
0001
1000
0001
0010
0100
1000
0100
0010
0001
1000
,
0010
0100
0010
0100
0001
1000
0001
0010
0001
0100
0010
1000
0001
0010
0100
1000
,
0001
0000
0000
0100
0000
0000
0201
0000
0000
0000
0310
0000
1010
0000
1000
0001
,
0010
0000
0100
0000
0010
0000
0001
1000
0100
0000
1000
0000
0001
0000
0000
0000
,
1000
0000
0010
0000
0100
0000
0001
0000
0010
0000
0100
0000
1000
0000
0100
0000
0010
0001
1000
0000
0000
0000
0000
0000
,
1010
0000
0000
0010
0000
0000
0100
0000
0102
0000
0000
0000
0000
0000
0000
0000
,
1003
0100
1000
0100
1000
0100
0010
0000
0100
1000
0100
1000
0020
0000
0230
0000
,
0301
0000
1000
0010
1000
0010
0100
0000
0010
1000
0010
1000
0200
0000
0320
0000
,
0031
0000
0100
0010
0100
0010
1000
0000
0010
0100
0010
0100
0001
0000
1000
0000
,
0100
0000
0010
0000
0100
1000
0001
0000
0100
0000
0010
1000
0001
0100
0001
0100
,
0010
0000
0100
0001
0100
0001
0010
0000
0001
0100
0001
0100
0020
0000
2030
0000
,
3001
0000
0010
0001
0010
0001
0100
0000
0001
0010
0001
0010
0200
0000
2300
0000
,
3001
0000
0100
0010
0100
0010
1000
0000
0010
0100
0010
0100
0002
0000
0023
0000
,
0130
0000
1000
0000
0001
0100
0010
0000
1000
0000
0001
0010
0100
1000
0001
1000
,
0100
0000
0010
0000
0001
1000
0010
0000
0100
0000
0001
0010
0000
0010
0100
0000
,
1000
0000
0001
0000
0100
0010
1000
0000
0010
0000
0100
0001
0000
0001
1000
0000
,
0010
0000
0100
0000
0001
1000
0100
0000
0010
0000
0001
0010
0000
0010
0100
0000
,
1000
0000
0001
0000
0100
0010
1000
0000
0001
0000
1000
0000
0100
0010
0100
0000
,
2000
0000
0000
0000
3001
0100
0001
0000
1000
0000
0100
0010
0000
0010
0001
0000
,
1000
0000
0010
0000
0100
0001
0100
0000
0010
0000
1000
0001
0000
0001
0010
0000
,
0100
0000
1000
0000
0001
0010
0001
0000
1000
0000
0010
0100
0000
0100
0001
0000
,
1000
0000
0100
0000
0010
0001
0010
0000
0100
0000
2000
0000
3002
0000
0203
0000
,
0310
0000
0000
1010
0000
0000
2001
0000
0000
0000
3200
0000
0000
0000
0310
0000
,
0002
2003
3020
0230
,
0301
0000
1000
0000
0100
0010
0100
0000
1000
0000
0001
1000
0100
1000
0001
0100
,
0020
0000
0000
0000
0000
0000
0130
0001
1000
0000
0000
0000
1001
0000
0000
0000
,
0001
0100
0001
0100
0001
0100
0010
1000
0001
0100
0001
0100
0010
1000
0001
1000
,
0100
0010
0001
0010
0001
0010
0100
1000
0001
0010
0001
0010
0100
1000
0001
0100
,
0010
1000
0010
1000
0001
0010
0001
0010
0100
1000
0100
1000
0001
0100
0001
0100
,
0010
1000
0001
0100
0001
0010
0100
1000
0001
1000
0100
1000
0010
0100
0001
0100
,
0010
1000
0010
0100
0010
1000
0010
0100
0001
1000
0001
0100
0001
1000
0001
0100
,
0001
0010
0001
0010
0100
1000
0100
1000
0001
0100
0001
0100
0010
1000
0010
1000
,
0001
0100
0001
0100
0001
0100
0010
1000
0001
0100
0001
0100
0010
1000
0001
0010
,
0100
0000
0000
1100
0000
0000
1001
0000
0101
0000
0000
0110
0000
0000
1010
0000
,
1000
0010
1000
0010
1000
0010
0100
0001
1000
0010
1000
0010
0100
0001
1000
0001
,
0010
0100
1000
0100
1000
0100
0010
0001
1000
0100
1000
0100
0010
0001
1000
0010
,
0100
0001
0100
0001
1000
0100
1000
0100
0010
0001
0010
0001
1000
0010
1000
0010
,
0100
0001
1000
0010
1000
0100
0010
0001
1000
0001
0010
0001
0100
0010
1000
0010
,
0100
0001
0100
0010
0100
0001
0100
0010
1000
0001
1000
0010
1000
0001
1000
0010
,
1000
0100
1000
0100
0010
0001
0010
0001
1000
0010
1000
0010
0100
0001
0100
0001
,
1000
0010
0100
0010
1000
0001
0010
0100
0010
0001
1000
0100
1000
0010
0100
0001
,
1000
0000
1001
0110
,
2002
0000
0000
0000
,
0000
0000
0000
3003
0000
0000
1001
0000
,
1000
0010
0100
0001
0100
0001
1000
0010
0100
0001
0100
0001
1000
0100
0010
0000
,
0001
0010
0100
1000
0100
1000
0001
0010
0100
1000
0100
1000
0001
0100
0010
0000
,
1000
0001
0010
0100
0010
0100
1000
0001
0010
0100
0010
0100
1000
0001
0100
0000
,
0110
0000
0000
1010
0000
0000
1001
0000
0000
0000
1100
0000
0110
0000
0011
0000
,
0001
0010
0100
1000
0100
1000
0001
0010
0100
1000
0100
1000
0001
0100
0010
1000
,
0001
0100
0010
1000
0010
1000
0001
0100
0010
1000
0010
1000
0001
0010
0100
1000
,
0001
0010
0100
0010
0100
1000
0001
0010
0100
0010
0100
1000
0001
0100
0010
0000
,
0110
0000
0000
1010
0000
0000
1001
0000
0000
0000
0011
0000
0110
0000
1100
0000
,
1001
0000
0000
1010
0000
0000
0110
0000
0000
0000
0101
0000
1001
0000
1100
0000
,
0110
0000
0000
0011
0000
0000
1001
0000
0000
0000
1010
0000
0110
0000
0101
0000
,
1002
1000
1000
1003
,
1001
1001
0000
0000
0000
0000
0000
0000
;

//---------------dance-single - Kytsune----------------
#NOTES:
     dance-single:
     Kytsune:
     Challenge:
     12:
     1.000,1.000,0.525,0.240,1.000,836.000,68.000,31.000,0.000,0.000:
0000
0000
0000
0000
,
0000
0000
0000
0000
,
0000
0000
0000
0000
,
0000
0000
0000
0000
,
1000
0000
0000
0100
0000
0000
0010
0000
0001
0000
0000
0000
0100
0000
0000
0000
,
2000
0000
0000
3000
0000
0000
0100
0001
1000
0000
0000
0000
0001
0000
0000
0000
,
0010
0000
0000
1000
0000
0000
0010
0000
0001
0000
0000
0100
0000
0000
0001
0000
,
1000
0000
0000
0100
0000
0000
0010
0001
0100
0000
0010
1000
0001
1000
0100
0010
,
0002
0000
0000
0100
0000
0000
0100
0000
0103
0000
0000
0000
0100
0000
0001
0000
,
2000
0000
0000
0100
0000
0000
0100
0000
3100
0000
0000
0000
0010
0000
0000
0000
,
0210
1300
1002
0103
,
2010
0000
0000
0010
0000
0000
3010
1000
0010
0000
0100
0001
1000
0100
1000
0001
,
0010
0000
0000
0100
0000
0000
0010
0000
0001
0000
0000
0000
0100
0000
0000
0000
,
0020
0000
0000
0000
0000
0000
0130
0001
0100
0000
0010
1000
0001
1000
0100
0010
,
0100
0000
1000
0100
1000
0100
1000
0100
1000
0100
1000
0100
1000
0100
1000
0100
,
0010
0000
0011
0101
,
1010
0000
1000
0010
0100
0010
1000
0010
0100
0010
1000
0010
0100
0000
0110
0000
,
0101
0000
0001
0010
0100
0010
0001
0010
0100
0010
0001
0010
0100
0000
0110
0000
,
1100
0000
1000
0001
0100
0001
1000
0001
0100
0001
1000
0001
0100
0000
0101
0000
,
0110
0000
0000
1010
0000
0000
1100
0000
0000
0000
0011
0000
1001
0000
1010
0000
,
0101
0000
0100
0001
1000
0001
0100
0001
1000
0001
0100
0001
1000
0000
1100
0000
,
0110
0000
0010
0001
0010
0100
0010
0001
0010
0100
0010
0001
0010
0000
0110
0000
,
0011
0000
0001
1000
0010
1000
0001
1000
0010
1000
0001
1000
0010
0000
0110
0000
,
0101
0000
0000
0101
0000
0000
0101
0000
0001
0100
0010
1000
0100
0010
0001
0100
,
0010
1000
0001
0100
0010
1000
0100
1000
0001
0010
0100
0010
0001
0100
0010
1000
,
0100
1000
0001
0010
0100
1000
0010
0100
0001
1000
0100
0010
0100
1000
0001
0100
,
0001
1000
0010
0100
0001
1000
0100
0010
0001
0010
0100
1000
0010
0100
0001
1000
,
0010
0100
0010
1000
0001
0010
0100
0010
0001
1000
0100
1000
0001
0100
0001
1000
,
0010
0000
0000
0110
0000
0000
0201
0000
0000
0000
0301
0000
1000
0000
0100
0000
,
0010
0000
0001
0000
1000
0000
0000
0001
0100
0000
0010
1000
0100
0010
0001
1000
,
0001
0000
0010
0000
0100
0000
1000
0000
0100
0000
0010
0000
0001
0000
0100
0000
0010
0000
2000
0000
0000
3000
0000
0000
,
1010
0000
0000
0101
0000
0000
0011
0000
2002
0000
0000
0000
0000
0000
0003
0000
,
3010
0000
0100
0001
0100
0001
1000
0000
0100
0010
0100
0010
0001
0000
1000
0000
,
0010
0000
1000
0001
1000
0001
0010
0000
0100
1000
0100
1000
0010
0000
0100
0000
,
0001
0000
1000
0010
1000
0010
0100
0000
0001
0010
0001
0010
0100
0000
1000
0000
,
0001
0000
0010
0000
1000
0000
0010
0000
0001
0000
0100
0010
1000
0001
0010
0100
,
1000
0000
0001
0100
0001
0100
0010
0000
1000
0001
1000
0001
0010
0000
0100
0000
,
1000
0000
0001
0100
0001
0100
0010
0000
0100
0010
0100
0010
1000
0000
0001
0000
,
1000
0000
0100
0010
0100
0010
0001
0000
1000
0001
1000
0001
0100
0000
0010
0000
,
1000
0000
0000
0001
0000
0000
0010
0000
0200
0000
1300
0001
1000
0001
1000
0001
,
0100
0000
0010
0000
0100
0001
1000
0000
0010
0000
1000
0001
0000
0001
0010
0000
,
0100
0000
1000
0000
0010
1000
0001
0000
0100
0000
0010
1000
0000
1000
0001
0000
,
0010
0000
0100
0000
1000
0100
0010
0000
0001
0000
1000
0010
0000
0010
0100
0000
,
0010
0000
1000
0000
0001
1000
0100
0000
0010
0001
0010
0000
0100
0000
1000
0000
,
0010
0000
0100
0000
0010
1000
0100
0000
1000
0000
0001
1000
0000
1000
0010
0000
,
0100
0000
0010
0000
0100
0001
1000
0000
0001
0000
1000
0100
0000
0100
0010
0000
,
0001
0000
0100
0000
0010
1000
0001
0000
0010
0000
0100
1000
0000
1000
0001
0000
,
1000
0000
0100
0000
1000
0010
0100
0000
0001
0000
0010
0000
0100
0000
0000
0000
,
1100
0000
0000
1001
0000
0000
0021
0000
0000
0000
0031
0000
1000
0000
0001
0000
,
0200
0000
0000
0000
0000
0000
0300
0000
0010
1000
0010
0100
0001
1000
0100
0010
,
0001
0000
0000
0100
0000
0000
0020
0000
0000
0000
0130
0010
1000
0001
0010
0100
,
2000
0000
0000
0000
0000
0000
3100
0010
0001
0000
0000
0000
1001
0000
0000
0000
,
0001
0010
0001
0100
0010
1000
0100
1000
0010
0100
0001
1000
0100
0010
0100
1000
,
0001
1000
0010
0100
0001
0010
0001
1000
0010
0100
0001
1000
0100
0010
0001
1000
,
0100
1000
0010
0100
0001
1000
0100
1000
0001
0100
0001
1000
0010
0100
0001
0010
,
0100
1000
0100
0010
0100
1000
0001
0100
0010
0100
0001
0010
0100
1000
0001
1000
,
0010
0100
0001
1000
0001
0010
0100
0010
0001
0100
0010
1000
0001
1000
0100
1000
,
0010
0100
0001
0010
0100
1000
0001
0100
0010
0100
0001
1000
0001
0010
0100
0010
,
0001
1000
0010
0100
0010
1000
0001
0010
0100
1000
0001
0100
0001
1000
0100
0010
,
0001
0000
0000
0011
0000
0000
1001
0000
1010
0000
0000
0101
0000
0000
1001
0000
,
1000
0100
0010
0001
0100
0001
1000
0100
1000
0010
0100
0001
1000
0010
1000
0001
,
0010
0100
0010
0001
0100
0001
1000
0010
0100
0001
0010
0100
1000
0100
0010
0001
,
1000
0010
1000
0001
0010
0001
0100
0010
1000
0100
1000
0010
0100
0001
0010
0001
,
1000
0100
0010
0001
1000
0010
0100
0001
1000
0001
0010
0100
0010
0001
0100
0010
,
1000
0001
0010
0001
0100
0001
1000
0100
1000
0010
0100
0001
1000
0100
1000
0001
,
0010
0100
1000
0010
0100
0001
0100
0010
1000
0001
0010
0100
1000
0010
0100
0001
,
0010
0000
0000
0100
0000
0000
1000
0000
0010
0000
0000
0100
0000
0000
0001
0000
,
1001
0000
0011
1100
,
2001
3002
0023
0032
0203
0320
2030
3002
,
0023
0000
0230
0000
2300
0000
3200
0000
0310
0001
0100
0010
1000
0000
0000
0000
,
1001
0000
0010
1000
0010
1000
0001
0010
0100
1000
0100
0000
0110
0000
0000
0000
,
1001
0000
1000
0100
1000
0100
0010
0001
0100
0001
0100
0000
1010
0000
0001
0000
,
1001
0000
0001
1000
0001
1000
0100
0010
0001
0100
0001
0000
0101
0000
1000
0000
,
1010
0000
0000
1001
0000
0000
0101
0000
0000
0000
0011
0000
0110
0000
1100
0000
,
1001
0000
1000
0100
0010
0100
1000
0100
0010
0100
1000
0000
1010
0000
0000
0000
,
0011
0000
0001
0100
0010
0100
0001
0100
0010
0100
0001
0000
0101
0000
0010
0000
,
0110
0000
0010
1000
0001
1000
0010
1000
0001
1000
0010
0000
0110
0000
0001
0000
,
1001
0000
0000
1100
0000
0000
0011
0000
0001
1000
0001
0000
0101
0000
1000
0000
,
0010
0100
0000
0001
1000
0000
0001
0010
0001
0010
0100
1000
0100
0010
0001
0000
,
1000
0100
0000
0010
0100
0000
0010
0001
1000
0001
0100
0010
1000
0001
0100
0010
,
2000
0000
0000
0000
0100
0000
0000
0000
0100
0000
0000
0000
3100
1000
0010
0100
,
0001
2200
3300
0000
0000
0000
0000
0000
;
