#TITLE:G4M3-0V3R;
#SUBTITLE:;
#ARTIST:Kobaryo;
#TITLETRANSLIT:;
#SUBTITLETRANSLIT:;
#ARTISTTRANSLIT:;
#CREDIT:;
#BANNER:game over bn.png;
#BACKGROUND:game over bg.png;
#LYRICSPATH:;
#CDTITLE:;
#MUSIC:G4M3-0V3R.ogg;
#OFFSET:0.400;
#SAMPLESTART:113.072;
#SAMPLELENGTH:12.000;
#SELECTABLE:YES;
#BPMS:0.000=222.013;
#STOPS:;
#BGCHANGES:;
// cache tags:
#FIRSTBEAT:60.000;
#LASTBEAT:549.000;
#SONGFILENAME:Songs/SPEEEDCOOOORE 4/G4M3-0V3R - [Garrett]/G4M3-0V3R.sm;
#HASMUSIC:1;
#HASBANNER:1;
#MUSICLENGTH:151.353;
// end cache tags

//---------------dance-single - G. Moese----------------
#NOTES:
     dance-single:
     G. Moese:
     Challenge:
     16:
     1.000,1.000,0.178,1.000,1.000,1228.000,27.000,178.000,21.000,0.000:
0000
0000
0000
0000
,
0000
0000
0000
0000
,
0000
0000
0000
0000
,
0000
0000
0000
0000
,
0000
0000
0000
0000
,
0000
0000
0000
0000
,
0000
0000
0000
0000
,
0000
0000
0000
0000
,
0000
0000
0000
0000
,
0000
0000
0000
0000
,
0000
0000
0000
0000
,
0000
0000
0000
0000
,
0000
0000
0000
0000
,
0000
0000
0000
0000
,
0000
0000
0000
0000
,
1001
0000
0001
0100
0001
0100
0010
0000
1000
0001
0010
0100
1000
0000
0001
1000
,
0010
0100
0002
0000
0203
0000
0320
0000
2030
0000
3002
0000
0023
0000
0130
0000
,
1100
0000
1000
0001
0100
0010
0100
0000
0010
1000
0001
0010
0100
0000
1000
0001
,
0100
0001
2000
0000
3200
0000
0320
0000
0032
0000
2003
0000
3020
0000
0130
0000
,
0101
0000
0001
0100
0010
1000
0001
0000
1000
0100
0010
0001
1000
0000
0001
0100
,
0010
0100
0002
0000
2003
0000
3200
0000
2300
0000
3002
0000
0203
0000
0301
0000
,
1001
0000
1000
0100
1000
0001
0100
0000
0010
1000
0001
0100
0001
0000
0100
0001
,
0010
0100
2000
0000
3002
0000
0203
0000
0320
0000
2030
0000
3002
0000
1003
0000
,
1010
0000
0010
0100
0001
1000
0001
0000
1000
0100
1000
0001
0100
0000
0010
0100
,
0001
1000
0002
0000
0023
0000
0230
0000
2300
0000
3002
0000
0203
0000
0301
0000
,
0101
0000
0100
0001
0010
0100
1000
0000
0100
1000
0010
0100
0001
0000
1000
0001
,
1000
0010
0200
0000
0320
0000
2030
0000
3002
0000
0013
0000
0200
0000
1300
0000
,
1100
0000
0100
1000
0100
1000
0001
0000
0100
0001
1000
0010
1000
0000
0100
1000
,
0001
1000
0002
0000
0203
0000
0320
0000
2030
0000
3002
0000
0023
0000
0031
0000
,
1000
0001
1000
0001
0100
0000
0010
1000
0001
0000
1000
0001
4000
0000
0000
0000
,
300M
0000
000M
000M
,
0002
0003
0010
0000
0100
0000
2000
3000
0010
0000
0100
0000
0002
0003
1000
0000
,
0010
2000
3200
0320
0032
0203
0320
1030
,
0002
0003
0100
0000
0010
0000
2000
3000
0100
0000
0010
0000
0002
0003
0100
0000
,
0010
0000
2000
0000
3002
0000
0203
0000
0320
0000
0230
0000
0301
1000
0001
1000
,
0002
0003
0100
0000
0010
0000
2000
3000
0001
0000
0010
0000
0200
0300
1000
0000
,
0001
2000
3020
0230
0302
2003
3200
2300
,
3020
0030
0100
0000
0001
0000
2000
3000
0100
0000
0010
0000
0002
0003
0100
0000
,
0001
0100
0010
1000
0001
0010
0100
0010
0004
0003
1000
0010
0400
0300
0000
0000
,
0002
0003
0100
0000
0010
0000
2000
3000
0100
0000
0010
0000
0002
0003
0100
0000
,
0010
2000
3200
2300
3002
0203
0302
2003
,
3200
0300
0010
0000
0001
0000
0200
0300
0010
0000
1000
0000
0002
0003
0010
0000
,
0100
0000
2000
0000
3200
0000
2300
0000
3002
0000
0203
0000
0301
1000
0010
0100
,
0002
0003
0100
0000
0010
0000
0200
0300
0001
0000
1000
0000
0200
0300
1000
0000
,
0001
0200
0320
2030
3002
2003
3020
0130
,
0001
1000
0004
0000
0003
0000
1000
0100
1000
0000
0001
0100
0004
0000
4003
0000
,
3001
0000
0000
0000
0000
0000
0000
0000
0M00
0M00
0M00
0000
00M0
00M0
00M0
0000
,
0001
0001
0100
0010
0100
0010
1000
0001
,
0100
0100
0010
1000
0001
0010
0100
1000
,
0001
0001
0010
0100
1000
0100
0010
0100
,
1000
0000
1000
0000
0010
0000
0100
0000
0001
0010
0100
1000
0010
0100
0010
1000
,
0001
0001
0100
0010
1000
0100
1000
0001
,
0100
0100
0010
1000
0001
0010
0100
0010
,
0001
0001
0100
0010
0100
0001
1000
0100
,
1000
0001
1000
0000
0010
0000
1000
0001
1000
0000
0001
0100
0010
0100
0001
0010
,
0100
0100
1000
0001
0100
0010
0100
0001
,
1000
1000
0001
0100
0010
0100
0001
1000
,
0001
0001
0010
0100
0010
0001
1000
0010
,
1000
0000
1000
0000
0001
0000
0010
0000
0001
0100
0010
1000
0100
0010
0100
1000
,
0001
0001
0100
0010
0100
0001
1000
0010
,
0100
0100
0001
0010
0100
1000
0001
0100
,
0001
0100
0001
1000
0010
0000
1000
0100
1000
0000
0001
0100
0004
0000
0000
0000
,
1003
0000
0000
0000
4000
3000
0004
0003
,
0100
0010
0100
0000
0001
0000
1000
0100
1000
0000
0010
0000
1000
0001
1000
0000
,
0001
0000
0100
0000
0001
0000
0000
0000
1000
0000
0000
0000
0001
0000
1000
0000
0001
0000
0000
0000
0100
0000
0000
0000
0004
0003
1000
0000
0010
0000
0100
0000
,
0004
0003
1000
0000
0001
0000
0000
0000
0010
0000
0000
0000
0100
0000
1000
0000
0100
0000
0000
0000
1000
0000
0000
0000
0001
0000
0100
0000
0001
0000
0000
0000
,
1000
0100
1000
0000
0001
0000
0100
0010
0100
0000
0010
0000
1000
0010
1000
0001
,
0400
0300
0010
1000
0001
0100
0004
0003
1000
0100
1000
0001
0400
0300
0040
0030
,
4000
3000
0001
0010
0100
1000
0004
0003
1000
0100
0010
0100
4000
3000
0004
0003
,
0400
0300
0010
1000
0001
1000
0040
0030
0100
0001
1000
0001
4000
3000
0004
0003
,
1000
000M
00MM
0MMM
,
1000
0000
0100
0010
0100
0000
1000
0000
0001
0100
0001
0000
1000
0000
0001
1000
,
0001
0200
0320
0230
0302
0023
0230
2300
,
3001
0000
1000
0100
1000
0000
0001
0000
0100
0001
0100
0000
0010
0000
0100
0010
,
0100
0000
0020
0000
2030
0000
3002
0000
0023
0000
0230
0000
1300
0001
1000
0010
,
0100
0000
0010
1000
0001
0000
1000
0000
0100
1000
0100
0000
1000
0000
0001
0100
,
0001
2000
3200
0320
0230
2300
3002
0203
,
0310
0000
1000
0001
1000
0000
0010
0000
0100
0010
0100
0000
0001
0000
1000
0100
,
1000
0000
0001
1000
0000
0000
0000
0000
,
1000
0100
0010
0001
1000
0100
0010
0001
1000
0010
0100
0001
1000
0100
0010
0100
,
1000
0001
0100
0010
1000
0100
1000
0010
0100
0001
0100
0010
1000
0100
0010
0001
,
1000
0001
0010
0100
1000
0001
0010
0001
1000
0010
0100
0001
1000
0001
0010
0100
,
1000
0001
0010
0001
0100
0010
1000
0100
1000
0001
0010
0100
1000
0010
0100
0001
,
1000
0100
0010
0001
1000
0100
0010
0001
1000
0010
0100
0001
1000
0100
0010
0100
,
1000
0001
0100
0010
1000
0100
1000
0010
0100
0001
0100
0010
1000
0100
0010
0001
,
1000
0001
0010
0100
1000
0001
0010
0001
1000
0010
0100
0001
1000
0001
0010
0100
,
1000
0001
0010
0001
0100
0010
1000
0100
1000
0001
0010
0100
1000
0010
0100
0001
,
1000
0000
0001
1000
0010
0100
0001
0000
0100
0010
1000
0001
0010
0000
0100
0000
,
1000
0001
0100
0010
0100
0001
1000
0001
,
1000
0000
0010
0000
0100
0000
0001
1000
0010
1000
0100
0010
0001
0000
1000
0000
,
0100
0010
0100
1000
0001
0100
0010
0100
,
0001
0000
0010
0000
0100
0000
1000
0001
0010
0100
1000
0010
0100
0000
0001
0000
,
1000
0010
0100
0001
1000
0100
0010
0001
,
0100
0000
0010
0000
1000
0000
0001
0010
0001
0100
0010
1000
0001
0000
0100
0000
,
0010
1000
0001
0010
0100
1000
0001
1000
,
2002
3003
0000
0000
0000
0000
0000
0000
0001
0000
0000
0000
0000
0000
0000
0000
0202
0303
0000
0000
0000
0000
0000
0000
0100
0000
0000
0000
0000
0000
0000
0000
,
0220
0330
0000
0000
0000
0000
0000
0000
0010
0000
0000
0000
0000
0000
0000
0000
2020
3030
0000
0000
0000
0000
0000
0000
1000
0000
0000
0000
0000
0000
0000
0000
,
2002
3003
0000
0000
0000
0000
0000
0000
0001
0000
0000
0000
0000
0000
0000
0000
0022
0033
0000
0000
0000
0000
0000
0000
0010
0000
0000
0000
0000
0000
0000
0000
,
0220
0330
0000
0000
0000
0000
0000
0000
0100
0000
0000
0000
0000
0000
0000
0000
2200
3300
0000
0000
0000
0000
0000
0000
1000
0000
0000
0000
0000
0000
0000
0000
,
2002
3003
0000
0000
0000
0000
0000
0000
0001
0000
0000
0000
0000
0000
0000
0000
0010
0000
0000
0000
0000
0000
0000
0000
0100
0000
0000
0000
0000
0000
0000
0000
,
1000
0001
0100
0010
,
1000
0010
0100
0001
1000
0100
0010
0001
,
1000
0100
0010
0001
1000
0010
0100
0010
1000
0001
0010
0100
1000
0001
0100
0010
,
4000
0000
0000
0000
,
30M1
0000
00M0
00M0
,
1000
0010
0100
0001
1000
0010
1000
0001
0010
0100
1000
0001
0010
0100
0010
0001
,
1000
0010
0100
0010
1000
0100
0010
0001
0100
0010
1000
0001
0010
0100
1000
0001
,
0100
0010
1000
0001
0100
0010
1000
0001
1000
0100
0010
0001
1000
0100
0010
0100
,
1000
0001
0100
0010
1000
0001
0010
0100
1000
0001
0100
0010
1000
0100
0010
0001
,
1000
0010
1000
0001
0100
0001
1000
0010
1000
0001
0010
0100
0010
0001
1000
0100
,
1000
0010
0100
0001
1000
0100
0010
0001
1000
0001
0100
0010
1000
0001
0010
0100
,
1000
0001
0100
0010
1000
0001
0100
0010
1000
0001
0010
0100
1000
0001
0010
0001
,
1000
0010
0100
0010
1000
0001
0010
0100
1000
0010
0100
0010
1000
0001
0010
0001
,
0100
0010
1000
0001
0010
0100
1000
0010
0100
0010
1000
0001
0010
0100
1000
0010
,
0100
0010
1000
0001
0010
0100
1000
0001
0100
0010
0100
0001
1000
0010
1000
0001
,
0010
0100
1000
0001
0010
0100
0010
0001
0100
0010
1000
0001
0010
0100
0010
0001
,
0100
0010
1000
0001
0010
0100
0010
0001
1000
0100
0010
0001
1000
0100
1000
0001
,
0100
0010
1000
0001
0100
0010
0100
0001
1000
0100
0010
0001
1000
0100
0010
0100
,
1000
0001
0100
0010
0100
0001
1000
0001
1000
0001
0010
0100
1000
0001
1000
0001
,
0100
0010
1000
0001
0100
0001
1000
0010
1000
0001
0010
0001
1000
0001
0100
0001
,
1000
0000
0000
0000
4000
3000
0004
0003
,
1001
0000
1000
0001
1000
0010
0100
0000
0001
1000
0100
0010
0001
0000
1000
0001
,
0100
0010
2000
0000
3020
0000
0230
0000
0302
0000
2003
0000
3200
0000
0310
0000
,
0011
0000
0001
1000
0010
0100
0001
0000
0100
0001
1000
0100
0010
0000
0001
1000
,
0010
1000
0002
0000
0023
0000
0230
0000
2300
0000
3002
0000
0203
0000
0310
0000
,
1010
0000
1000
0010
0100
0001
1000
0000
0001
0010
0100
1000
0001
0000
1000
0010
,
0100
0010
2000
0000
3002
0000
0023
0000
0032
0000
2003
0000
3020
0000
1030
0000
,
1001
0000
0001
0010
0001
1000
0010
0000
0100
0001
1000
0010
1000
0000
0010
1000
,
0100
0010
0002
0000
2003
0000
3020
0000
0230
0000
0302
0000
2003
0000
3001
0000
,
0101
0000
0100
0010
1000
0001
1000
0000
0001
0010
0001
1000
0010
0000
0100
0010
,
1000
0001
2000
0000
3200
0000
0320
0000
0032
0000
2003
0000
3020
0000
1030
0000
,
1010
0000
0010
1000
0100
0010
0001
0000
0010
0001
0100
0010
1000
0000
0001
1000
,
0001
0100
0020
0000
0230
0000
0302
0000
2003
0000
3100
0000
0020
0000
0031
0000
,
1001
0000
1000
0001
0010
0001
0100
0000
0010
1000
0100
0010
0001
0000
0010
0001
,
1000
0001
2000
0000
3020
0000
0230
0000
0302
0000
2003
0000
3200
0000
1300
0000
,
0001
1000
0001
1000
0010
0000
0100
0001
1000
0000
0001
1000
0004
0000
0000
0000
,
00M3
0000
00M0
00M0
,
2002
3003
0000
0000
;
