#TITLE:Cyber Force;
#SUBTITLE:-DJ Yoshitaka Remix-;
#ARTIST:Sota  Fujimori;
#TITLETRANSLIT:;
#SUBTITLETRANSLIT:;
#ARTISTTRANSLIT:;
#CREDIT:;
#BANNER:Cyber Force -DJ Yoshitaka Remix--bn.png;
#BACKGROUND:Cyber Force -DJ Yoshitaka Remix--bg.jpg;
#LYRICSPATH:;
#CDTITLE:Type MARS.png;
#MUSIC:Cyber Force -DJ Yoshitaka Remix-.mp3;
#OFFSET:-0.940;
#SAMPLESTART:97.940;
#SAMPLELENGTH:13.140;
#SELECTABLE:YES;
#BPMS:0.000=73.000,16.000=146.000,148.000=73.000,182.000=146.000;
#STOPS:;
#BGCHANGES:;
// cache tags:
#FIRSTBEAT:0.000;
#LASTBEAT:265.750;
#SONGFILENAME:Songs/Definitive Keyboard Megapack/Cyber Force -DJ Yoshitaka Remix- (Type MARS)/Cyber Force -DJ Yoshitaka Remix-.sm;
#HASMUSIC:1;
#HASBANNER:1;
#MUSICLENGTH:133.467;
// end cache tags

//---------------dance-single - ----------------
#NOTES:
     dance-single:
     :
     Hard:
     10:
     0.830,1.000,0.734,0.142,0.820,658.000,98.000,19.000,0.000,0.000:
0002
0000
0003
0000
0200
0000
0320
2030
0000
0000
0000
3002
0000
0000
0003
0010
,
0100
0000
2000
0000
0000
0000
3001
0000
0200
0000
0000
0000
0310
0000
2000
0000
0000
0000
0000
0000
3002
0000
0000
0000
0103
0000
0010
1000
0100
0010
0001
0000
,
0200
0000
0300
0000
0002
0000
1003
0020
0000
0000
0030
0200
0000
0000
0301
1000
,
0010
0200
0000
0301
0100
1000
0010
0200
0001
0000
0001
0300
0010
1000
0100
0010
,
1001
0000
0100
0000
0000
0010
0000
0000
0100
0000
0000
0001
0000
0000
1000
0000
,
0010
0000
0000
0000
0100
0000
0000
0000
0000
0000
0001
0000
0000
0000
0000
0000
0100
0000
0000
0000
0000
0000
0010
0000
1000
0000
0000
0000
0001
0010
0100
1000
,
0001
0000
0010
0000
0000
0100
0000
0000
1000
0000
0000
0100
0000
0000
0010
0000
,
1000
0000
0001
0000
0000
0100
0000
0000
0110
0000
0001
0100
1001
0000
1000
0100
,
0001
0000
0010
0000
0000
0001
0000
0000
0100
0000
0000
0010
0000
0000
1000
0000
,
0100
0000
0000
0000
0010
0000
0000
0000
0000
0000
0100
0000
0000
0000
0000
0000
0001
0000
0000
0000
0000
0000
1000
0000
0001
0000
0000
0000
1000
0100
0010
0001
,
1000
0000
0000
0010
0000
0000
0100
0000
0000
0001
0000
0000
0100
0000
0010
0000
,
1000
0000
0000
0100
0000
0000
0010
0000
0000
0001
0000
0000
0100
0000
0010
0000
,
1001
0000
0001
0000
0000
0100
0000
0000
0010
0000
0000
1000
0000
0000
0001
0000
,
0100
0000
0000
0000
0010
0000
0000
0000
0000
0000
1000
0000
0000
0000
0000
0000
0100
0000
0000
0000
0000
0000
0001
0000
1000
0000
0000
0000
0001
0010
0100
1000
,
0001
0000
0010
0000
0000
0100
0000
0000
0010
0000
0000
1000
0000
0000
0001
0000
,
1000
0000
0000
0000
0010
0000
0000
0000
0000
0000
0010
0000
0000
0000
0000
0000
0100
0000
0000
0000
0001
0010
0100
1000
0001
0000
0000
0000
1000
0100
0010
0001
,
1000
0000
0010
0000
0000
0100
0000
0000
0001
0000
0000
1000
0000
0000
0100
0000
,
1000
0000
0010
0000
0000
0100
0000
0000
0001
0000
0000
1000
0001
0000
0010
0001
,
1000
0000
0000
0010
0000
0000
0100
0000
0000
0001
0000
0000
0100
0000
0010
0000
,
1100
0000
0000
0101
0000
0000
0110
0000
0000
1001
0000
0000
0101
0000
1100
0000
,
1001
0000
0010
0000
0100
0000
0100
0000
0001
0100
1000
0000
0010
0000
0101
0000
,
1001
0000
0010
0000
0100
0000
0001
0100
1000
0000
0010
0000
0100
0000
0001
0010
,
0100
0000
1000
0000
0001
0000
0100
0010
1000
0000
0100
0000
1000
0000
0001
0100
,
0010
1000
0001
1100
0010
0100
0011
1000
,
0001
0100
0010
1000
0101
0001
1001
1000
,
1100
0000
0010
0000
0100
0000
0001
0100
0010
0000
1000
0000
0010
0000
0100
0001
,
1000
0000
0010
0000
0100
0000
0001
0100
1000
0000
0010
0000
0100
0000
0001
0100
,
1010
0100
0001
1010
0100
0010
0101
0010
,
1000
0000
0100
0000
0001
0000
0010
0000
0100
0000
1000
0000
0010
0001
0100
1000
,
0110
0000
0001
0000
0100
0000
0010
1000
0001
0000
0100
0000
0010
0100
0010
1000
,
0100
0000
0001
0000
0100
0000
0010
0001
0100
0000
0010
0000
1000
0001
0100
0010
,
1000
0001
0100
0110
1000
0001
1100
0010
,
0001
0000
0100
0000
0010
0000
1000
0000
0100
0000
0010
0001
1000
0000
0010
1000
,
0001
0000
0100
0000
0010
0000
1000
0100
0001
0000
0010
0000
0100
0000
0001
0100
,
1000
0000
0010
0000
0100
0000
0010
0100
0010
0000
1000
0000
0001
0000
0100
0010
,
1000
0001
0100
0110
1000
0001
1100
0010
,
0101
0100
1100
1000
1001
0001
0110
0100
,
1001
0000
0000
0001
0000
0000
0100
0000
0110
0000
0000
0010
0000
0000
0100
0000
1100
0000
0000
1000
0000
0000
0001
0000
1001
0000
0000
0100
0000
0000
0010
0000
,
0110
0000
0000
1000
0000
0000
0001
0000
1001
0000
0000
0100
0000
0000
0001
0000
0101
0000
0000
0010
0000
0000
1000
0000
1100
0000
0000
0100
0000
0000
0010
0000
,
0110
0000
0000
0100
0000
0000
0001
0000
0101
0000
0000
1000
0000
0000
0010
0000
0110
0000
0000
0100
0000
0000
0001
0000
0101
0000
0000
1000
0000
0000
0010
0000
,
0110
0000
0000
0001
0000
0000
1000
0000
0101
0000
0000
0001
0000
0000
1000
0000
1100
0000
0000
0010
0000
0000
0100
0000
1001
0000
0000
0100
0000
0000
0010
0000
,
1001
0010
0100
0010
1001
0100
0010
0100
1001
0010
0100
0010
1001
0100
0010
0100
,
0110
0001
0010
1000
0110
0001
0010
1000
0110
0001
0010
1000
0110
0001
0010
1000
,
0101
0001
1100
0010
0110
1000
0101
0010
1100
0010
1001
0100
0011
0100
1001
0100
,
0011
1000
0011
1000
0011
1000
0011
1000
0110
0110
0110
0110
0110
0110
0110
0110
,
2000
0000
3200
0000
0320
0000
0032
0003
1001
0000
0000
0101
0000
0000
1001
0000
,
0000
0110
0000
0000
1001
0000
1001
0000
0110
0000
0001
0000
0100
0010
1000
0000
,
0001
0000
0100
0010
0001
0000
0110
0000
1000
0000
0001
0000
0100
0010
1100
0000
,
0001
0000
0100
0010
0001
0000
0100
0000
1001
0000
0100
0000
0010
1000
0001
0000
,
0110
0000
0001
0100
1000
0000
0101
0000
0010
0000
1000
0000
0001
0100
0010
0000
,
1000
0000
0001
0100
0010
1000
0100
0000
1001
0000
0010
0000
0001
0100
1000
0000
,
0110
0000
0001
0010
0100
0000
0001
0000
0100
0000
1000
0000
0010
0100
0001
0000
,
1000
0000
0010
0100
0001
0000
0100
0000
1001
0000
0010
0000
0100
0001
1000
0000
,
0110
0000
0001
0000
0010
1000
0001
0000
0100
0000
0001
0100
0010
0000
1000
0000
,
0010
0100
0001
0000
1000
0010
0001
0000
1001
0000
0100
0000
0010
1000
0001
0000
,
0110
0000
0100
0001
0100
0000
0010
0000
1000
0000
0001
0000
0100
0010
0001
0000
,
0100
0000
0010
1000
0001
0000
0100
0000
1001
0000
0010
0000
0100
0001
1000
0000
,
0110
0000
0001
0100
1000
0000
0010
0000
0100
0000
0001
0000
0100
0010
1000
0000
,
0100
0000
0001
0100
1000
0100
0010
0000
1001
0000
0100
0000
0010
1000
0001
0000
,
1001
0000
0100
0010
0100
0000
1000
0000
0001
0000
0100
0000
0010
0001
0100
0000
,
0010
0000
1000
0100
0001
0000
0010
0000
1001
0000
0010
0001
0100
0000
0010
0000
,
1000
0000
0100
0001
0100
0000
0010
0000
1000
0000
0001
0100
0010
0000
1000
0010
,
0100
0000
0001
0010
0100
0001
0010
0100
1001
0010
0001
0100
0010
0000
1000
0000
,
0001
0100
0010
1000
0100
0010
0001
0100
0010
1000
0000
0100
1000
0000
0010
0100
,
0000
0001
0100
0010
1000
0100
0010
0001
0100
0010
1000
0000
0100
0001
0000
0100
,
0000
0010
0100
0001
0100
1000
0010
0000
0100
0001
1000
0000
0010
0001
0000
0100
,
0010
0000
1000
0100
0010
0001
0100
0010
0000
0000
0000
0000
0000
0000
0000
0000
;

//---------------dance-single - ----------------
#NOTES:
     dance-single:
     :
     Challenge:
     12:
     1.000,1.000,1.000,0.495,1.000,879.000,274.000,66.000,0.000,7.000:
2001
0010
0100
0001
3010
0100
0001
0010
2100
0001
3010
0100
1001
0010
2100
0001
0010
0100
0001
0010
3100
0001
2010
0100
0001
0010
0100
0001
3010
0100
0001
0010
,
1002
0100
0013
1000
0102
0010
1000
0100
0013
1000
0101
0010
1002
0100
0013
1000
0101
0010
1002
0100
0010
1000
0103
0010
1001
0000
0010
0100
1000
0001
0100
0000
,
1020
0100
0001
1000
0130
0001
1000
0100
0021
1000
0130
0001
1010
0100
0021
1000
0100
0001
1000
0100
0031
1000
0120
0001
1000
0100
0001
1000
0130
0001
1000
0010
,
0201
0010
1000
0001
0310
1000
0101
0010
1200
0001
0310
1000
0101
0010
1200
0001
0010
1000
0001
0010
1000
0001
0010
1000
0001
0010
1000
0001
0010
1000
0301
0010
,
1000
0100
1001
0000
0010
0101
0000
0010
1001
0000
0100
1001
0000
0010
0101
0000
,
0010
0000
1000
0000
0101
0000
0000
0000
0010
0000
0101
0000
0000
0000
1000
0000
0110
0000
0000
0000
0001
0000
1010
0000
0101
0000
0000
0000
1001
0100
0010
0001
,
1100
0010
1100
0000
0001
0110
0000
1000
0101
0000
0010
1100
0000
0010
1001
0000
,
0100
0000
0001
0000
1010
0000
0000
0000
0100
0000
1001
0000
0000
0000
0010
0000
0101
0000
0000
0000
1000
0100
0011
0100
1000
0000
0000
0000
1001
0010
0100
1000
,
0011
0100
1001
0000
0010
0101
0000
0010
1001
0000
0100
1001
0000
0010
0101
0000
,
0010
0000
1000
0000
0101
0000
0000
0000
0010
0000
1100
0000
0000
0000
0100
0000
1001
0000
0000
0000
0010
0000
0101
0000
1000
0000
0000
0000
1001
0010
0100
1000
,
0011
0000
1000
0101
1000
0000
0110
0000
0001
1000
0101
0000
0010
1000
0110
0000
,
1001
0000
0010
0001
1100
0000
0110
0000
1000
0100
0011
0000
0100
1000
0110
0000
,
1001
0000
0101
0000
0010
1100
0000
0100
1001
0000
0010
0101
0000
0001
1010
0000
,
0100
0000
0001
0000
1010
0000
0000
0000
0100
0000
1001
0000
0000
0000
0001
0000
0110
0000
0000
0000
1000
0000
0101
0000
1010
0000
0000
0000
1001
0010
0100
1000
,
0011
0100
0011
0000
1000
0101
0000
0001
1100
0000
0010
0110
0000
0100
0110
0000
,
1000
0001
1100
0000
0010
0101
0000
0010
1001
0000
0100
0011
0100
0000
1001
0000
,
0010
0001
1010
0000
0100
1001
0000
0010
0101
0000
0010
1001
0000
0100
1001
0000
,
0010
0001
0110
0000
0100
1010
0000
0100
1001
0000
0010
0101
0000
0010
1100
0001
,
0110
0000
1000
0101
1000
0000
0110
0000
0001
1100
0001
0010
0101
0000
1100
0000
,
0011
0000
0100
1010
0001
0000
1001
0000
0010
1100
0010
0100
0011
0100
0011
0100
,
1001
0000
0010
0100
1001
0000
1001
0000
0010
0001
0100
0000
1000
0001
0100
0010
,
1001
0000
0010
0001
0100
0000
0010
0000
1000
0000
0120
0030
2100
3000
0102
0000
,
1003
0000
0010
0001
1000
0000
0020
0001
0130
0000
0100
0000
1020
0000
0031
0000
,
2001
0000
3010
0100
0001
0000
0120
0000
1030
0000
0100
0001
2100
0000
3010
0000
,
0100
0000
0001
0100
0010
0000
1000
0001
1020
0100
1000
0100
0032
1000
0100
0010
,
2003
0000
0001
0100
3010
0000
0001
0000
0100
0000
0010
1000
0002
0010
0203
1000
,
0320
0000
0001
0100
1000
0000
2030
0000
0001
0100
0010
0000
3002
0010
0100
1000
,
0203
0000
0001
1000
0310
0000
0002
0000
0010
1000
0010
0000
0203
0010
0001
0000
,
0010
0000
1000
0001
0010
0000
0010
0001
1300
0000
0010
1000
0100
0010
0001
0100
,
1001
0000
0010
0001
0100
0000
0010
1000
0100
0000
0012
0000
2103
0010
3200
0001
,
0310
0000
0001
0100
1000
0000
0020
0100
1030
0000
0100
0000
1002
0100
0013
0100
,
2000
0000
0010
0100
0001
0000
3020
0000
0100
1000
0100
0000
0032
0100
1000
0010
,
0100
0000
0010
0000
0100
0003
0010
1000
0002
0100
0010
0100
2003
0010
0100
0010
,
3001
0000
0100
0010
0001
0000
0100
0000
0010
0001
1000
0010
0002
0000
0203
0000
,
0320
1000
0100
1000
0031
0000
0200
0010
0001
0010
1300
0000
0012
0100
1000
0100
,
0013
0000
1000
0100
0010
0000
0200
0010
0001
0010
1300
0001
2000
0000
0010
0001
,
0100
0000
0001
0010
0001
0000
0100
0010
3100
0000
0001
0100
1000
0010
0100
0001
,
1100
0000
0000
0010
0000
0000
0100
0000
0011
0000
0000
1000
0000
0000
0100
0000
1100
0000
0000
0010
0000
0000
0100
0000
0101
0000
0000
0010
0000
0000
0001
0000
,
1100
0000
0000
1000
0000
0000
0001
0000
0101
0000
0000
0010
0000
0000
0100
0000
1001
0000
0000
0001
0000
0000
0100
0000
1001
0000
0000
0010
0000
0000
0100
0000
,
0011
0000
0000
0100
0000
0000
0010
0000
1100
0000
0000
1000
0000
0000
0001
0000
1100
0000
0000
0010
0000
0000
0100
0000
1001
0000
0000
0010
0000
0000
0001
0000
,
1001
0000
0000
0100
0000
0000
0010
0000
1100
0000
0000
0010
0000
0000
0001
0000
0101
0000
0000
0010
0000
0000
0001
0000
1100
0000
0000
0010
0000
0000
0100
0000
,
0011
1000
0101
0010
1100
0010
0110
0001
1001
0100
0110
0001
1100
0010
0101
0010
,
1100
0001
0101
1000
0110
0001
1100
0010
0101
0010
1100
0001
1001
0100
0011
0100
,
1010
0100
0011
0100
1010
0100
0011
0100
1100
0010
0101
0010
1100
0010
0101
0010
,
1100
0101
1100
0101
1100
0101
1100
0101
1010
1010
1010
1010
0101
1010
0011
1100
,
0022
0033
2200
3300
2002
3003
0220
0330
2002
0000
0003
0200
0010
0010
0302
0000
,
0003
0020
0100
0031
0002
0000
0023
0030
3001
0100
1001
0000
0010
0101
0000
0100
,
1001
0000
0010
0101
0000
0010
1100
0000
0001
0100
1001
0000
0010
0101
0000
0010
,
1001
0000
0100
1001
0000
0010
0110
0000
1000
0001
1100
0000
0010
0101
0000
0010
,
1001
0000
0100
1010
0000
0100
1001
0000
0010
0100
0011
0000
0100
1001
0000
0010
,
1100
0000
0010
1001
0000
0100
0011
0000
0100
0010
1100
0000
0001
1100
0000
0010
,
1001
0000
0100
0011
0000
0100
1001
0000
0010
0001
1100
0000
0010
0101
0000
0100
,
1001
0000
0010
1001
0000
0100
1001
0000
0110
0000
0001
1100
0000
0010
0101
0000
,
0010
1001
0000
0100
1010
0100
1001
0000
0110
0000
0001
1100
0000
0010
0101
0000
,
0001
1100
0000
0010
1001
0100
1001
0000
0110
0001
1100
0000
0010
0101
0000
0100
,
1001
0000
0010
0101
0000
0010
1001
0000
0100
0010
1100
0000
0010
0101
0000
0010
,
1001
0000
0100
1001
0000
0010
0101
0000
0010
1000
0101
0000
0010
1100
0000
0010
,
1001
0000
0100
1001
0000
0010
0101
0000
0010
1000
0101
0000
0010
1100
0000
0010
,
1001
0000
0010
0101
0000
0010
0110
0000
1000
0001
1100
0000
0010
0110
0000
0001
,
1001
0000
0100
0110
0000
0001
1001
0000
0010
0100
0011
0000
1000
0110
0000
0001
,
1100
0000
0010
1001
0000
0010
0101
0010
1001
0000
0100
0011
0000
1000
0110
0000
,
1000
0101
0000
0010
1001
0010
1001
0100
1001
0000
0010
0101
0000
0010
1100
0000
,
0001
0110
0000
1000
0101
0010
1100
0000
1001
0010
0100
0000
0010
0001
0100
0010
,
0000
1000
0100
0010
0001
0100
0010
1000
0100
0010
0001
0000
0100
0010
0000
0100
,
1000
0000
0010
0100
0001
0100
1000
0010
0100
0001
0000
0100
0000
0010
0100
1000
,
0010
0001
0100
0000
0010
1000
0100
0010
0001
0100
0010
0000
1000
0100
0000
0010
,
0001
0100
0010
1000
0100
0010
0001
0100
0000
0000
0000
0000
0000
0000
0000
0000
;
