#TITLE:I'm A Maid;
#SUBTITLE:(C-Type Remix);
#ARTIST:Sharpnel Sound;
#TITLETRANSLIT:;
#SUBTITLETRANSLIT:;
#ARTISTTRANSLIT:;
#CREDIT:;
#BANNER:ImAMaid-bn.png;
#BACKGROUND:ImAMaid-bg.png;
#LYRICSPATH:;
#CDTITLE:cdtitle.jpg;
#MUSIC:I'm A Maid (C-Type Remix).mp3;
#OFFSET:-9.560;
#SAMPLESTART:47.860;
#SAMPLELENGTH:12.000;
#SELECTABLE:YES;
#BPMS:0.000=125.000,32.000=250.000,192.000=125.000,240.000=250.000,280.000=124.999;
#STOPS:;
#BGCHANGES:;
// cache tags:
#FIRSTBEAT:0.000;
#LASTBEAT:296.000;
#SONGFILENAME:Songs/Fresh Flock of Fantastic Files F4/(DanTheMan) I'm A Maid (C-Type Remix)/I'm A Maid (C-Type Remix).sm;
#HASMUSIC:1;
#HASBANNER:1;
#MUSICLENGTH:103.784;
// end cache tags

//---------------dance-single - ----------------
#NOTES:
     dance-single:
     :
     Challenge:
     14:
     1.000,1.000,1.000,0.019,0.448,608.000,419.000,2.000,0.000,0.000:
1000
0010
0100
0001
1010
0000
0100
0000
0010
0000
0001
0000
1010
0000
0100
0000
,
0001
0010
0001
0010
0101
0000
0010
0000
0100
0000
0010
0000
1001
0000
0100
0000
,
0010
1000
0010
0100
1001
0000
0010
0000
0001
0000
0010
0000
1100
0000
0010
0000
,
0100
0010
0001
0100
0011
0000
0100
0000
0010
0000
1000
0000
0110
0000
0001
0000
,
1010
0100
1000
0010
0101
0000
0010
0000
0001
0000
0010
0000
0101
0000
0010
0000
,
1100
0010
0001
0010
0101
0000
0010
0000
0100
0000
1000
0000
0110
0000
0001
0000
,
1010
0100
0010
0001
0110
0000
0001
0000
0101
0010
0100
1000
0110
0000
0001
0000
,
0101
1000
0100
1000
0100
0000
0100
0010
0001
0010
0100
0010
1001
0000
0000
0100
,
1010
0101
1010
0110
,
1001
0011
0110
1001
,
1010
0101
0110
0101
,
1001
0000
0000
0000
1100
0000
0000
0000
0110
0000
0000
0000
1000
0001
1000
0001
,
1010
0101
0110
1001
,
0011
0110
1001
0110
,
1100
0110
0011
0110
,
1001
1001
1001
1001
1001
0000
0110
0000
,
1001
0000
0011
0011
0000
0110
1100
0110
,
0011
0000
0000
0110
0000
0000
1100
0000
0011
0000
0000
0110
0000
0000
1001
0000
,
0110
0000
1100
1100
0000
0110
0011
1001
,
0011
0000
0000
0110
0000
0000
1100
0000
0011
0000
0000
0110
1001
0000
1001
0000
,
1010
0000
0110
0110
0000
0110
0011
0110
,
1100
0000
0000
0110
0000
0000
0011
0000
0110
0000
0000
1001
0000
0000
1100
0000
,
0011
0000
0101
0101
0000
0110
0101
1010
,
0110
0000
0010
1001
0100
0000
0011
0000
1001
0000
0000
0110
0000
0001
1010
0001
,
0110
0000
1100
1100
0000
0110
0011
0110
,
1100
0000
0000
0110
0000
0000
0011
0000
0110
0000
0000
1001
0000
0000
0011
0000
,
0110
0000
0110
0110
0000
0011
0110
1001
,
1010
0000
0000
0110
0000
0000
1001
0000
0110
0000
0100
1001
0100
0000
0110
0000
,
1001
0000
0101
0101
0000
1010
0110
0011
,
0110
0000
0000
1001
0000
0000
0011
0000
0110
0000
0000
1010
0000
0000
0110
0000
,
1001
0000
0110
0110
0000
1010
0110
0011
,
1001
0000
0100
1010
0100
0000
0110
0000
0011
0000
0000
1010
0000
0000
1010
0000
,
0101
1010
0110
0011
0110
1010
0101
0110
,
1001
0011
0110
1001
0101
1010
0110
0101
,
1010
0110
1001
1100
0110
1001
0011
0110
,
1001
0000
0010
0000
1100
0000
0010
0000
1001
0000
0100
0010
1100
0000
0001
0000
,
1010
0101
0110
1001
0011
0110
1001
0110
,
1010
0101
0110
0011
1010
0101
0110
1100
,
0110
1001
0011
0101
0110
1001
0110
0011
,
1001
0010
0100
0000
0110
0000
0001
0000
1010
0000
0100
0000
0101
0000
0010
0000
,
0101
1010
0101
0110
1001
0110
0011
0110
,
1001
0110
0011
0110
1010
0101
0110
1001
,
0110
1010
0101
1010
0110
0011
0110
1001
,
1010
0000
0100
0000
0101
0000
0010
0000
1100
0000
0010
1000
0101
0000
0010
0000
,
1001
0101
1010
0101
0110
0011
0110
1001
,
1010
0110
0101
0110
1001
0011
0110
1001
,
1010
0110
0101
0011
1001
0110
1010
0101
,
1010
0000
0101
0000
1010
0000
0101
0000
0010
0000
1010
0100
1001
0000
0101
0010
,
1001
0000
1000
0000
1000
0000
0110
0000
0010
0000
0010
0000
0101
0010
0101
0010
,
1100
0000
0100
0000
0100
0000
0011
0000
0010
0000
1001
0000
1001
0010
1001
0100
,
1010
0000
0010
0000
0010
0000
0101
0000
0001
0000
0001
0000
1010
0100
1010
0001
,
0110
0000
0010
0000
0010
0000
0101
0000
0100
0000
0100
0000
0011
0100
0011
1000
,
0110
0000
1010
0000
0110
0000
0011
0000
1001
0000
0101
0000
1010
0100
1010
0001
,
0110
0000
0011
0000
1010
0000
1100
0000
1001
0000
1010
0000
0110
0001
1010
0101
,
1010
0000
1001
0000
1010
0000
0110
0000
1100
0000
0101
0000
0110
0001
0110
1000
,
0101
0000
1001
0000
0101
0000
0110
0000
1100
0000
0110
0000
0101
0010
0101
0010
,
1100
0000
0110
0000
0101
0000
0011
0000
1001
0000
0101
0000
0110
0001
0110
1000
,
0101
0000
1100
0000
0110
0000
0011
0000
0110
0000
1010
0000
1001
0100
1010
0101
,
1010
0000
0011
0000
1010
0000
1100
0000
1001
0000
1010
0000
0011
0100
0011
1000
,
0110
0000
0101
0000
1010
0000
1010
0000
1010
0000
1000
0100
0000
0010
0001
0100
,
1010
0100
1010
0001
0110
0001
1010
0100
,
1010
0100
0011
0100
1010
0100
1010
0100
,
1010
0100
0011
0100
1010
0110
0011
0110
,
1001
0100
1010
0101
1010
0100
1001
0010
,
1010
0110
0011
0110
1001
0011
0110
1010
,
1010
0001
0110
1000
0110
0001
0110
1000
,
0110
0110
0110
0110
0110
0110
1001
0100
,
1010
0100
1010
0001
0110
1001
0011
0110
,
1001
0010
0101
0010
1010
0100
1010
0100
,
0011
0000
0010
0000
1010
0000
0100
0000
1010
0000
1010
0100
1010
0000
0101
0010
,
0101
0000
1010
0001
0110
0000
1001
0110
0001
0100
1010
0100
0010
0100
0001
0010
,
1001
0000
0011
1100
0010
0000
0101
1010
0001
0000
1000
0010
0100
0000
0001
1000
,
0110
0000
0101
1000
0110
0000
1001
0110
1000
0010
0101
0010
0100
0010
1000
0100
,
1001
0000
0000
0000
0000
0000
1100
0000
0000
0011
0000
0000
0100
0000
0000
0000
0000
0000
0000
0000
0000
0000
0200
0000
0000
0000
0000
0000
0020
0000
0000
0000
0300
0000
0000
0000
0000
0000
0000
0000
0000
0000
0000
0000
0000
0000
0000
0000
,
0030
0000
0000
0000
;

//---------------dance-single - ----------------
#NOTES:
     dance-single:
     :
     Hard:
     12:
     1.000,1.000,1.000,0.019,0.448,606.000,353.000,2.000,0.000,0.000:
1000
0010
0100
0001
1010
0000
0100
0000
0010
0000
0001
0000
1010
0000
0100
0000
,
0001
0010
0001
0010
0101
0000
0010
0000
0100
0000
0010
0000
1001
0000
0100
0000
,
0010
1000
0010
0100
1001
0000
0010
0000
0001
0000
0010
0000
1100
0000
0010
0000
,
0100
0010
0001
0100
0011
0000
0100
0000
0010
0000
1000
0000
0110
0000
0001
0000
,
1010
0100
1000
0010
0101
0000
0010
0000
0001
0000
0010
0000
0101
0000
0010
0000
,
1100
0010
0001
0010
0101
0000
0010
0000
0100
0000
1000
0000
0110
0000
0001
0000
,
1010
0100
0010
0001
0110
0000
0001
0000
0101
0010
0100
1000
0110
0000
0001
0000
,
0101
1000
0100
1000
0100
0000
0100
0010
0001
0010
0100
0010
1001
0000
0000
0100
,
1010
0101
1010
0110
,
1001
0011
0110
1001
,
1010
0101
0110
0101
,
1001
0000
0000
0000
1100
0000
0000
0000
0110
0000
0000
0000
1000
0001
1000
0001
,
1010
0101
0110
1001
,
0011
0110
1001
0110
,
1100
0110
0011
0110
,
1001
1001
1001
1001
1001
0000
0110
0000
,
1001
0000
0011
0011
0000
0110
1100
0110
,
0011
0000
0000
0110
0000
0000
1100
0000
0011
0000
0000
0110
0000
0000
1001
0000
,
0110
0000
1100
1100
0000
0110
0011
1001
,
0011
0000
0000
0110
0000
0000
1100
0000
0011
0000
0000
0100
1001
0000
1001
0000
,
1010
0000
0110
0110
0000
0110
0011
0110
,
1100
0000
0000
0110
0000
0000
0011
0000
0110
0000
0000
1001
0000
0000
1100
0000
,
0011
0000
0101
0101
0000
0110
0101
1010
,
0110
0000
1000
0001
1000
0000
0011
0000
1001
0000
0000
0110
0000
0001
1000
0001
,
0110
0000
1100
1100
0000
0110
0011
0110
,
1100
0000
0000
0110
0000
0000
0011
0000
0110
0000
0000
1001
0000
0000
0011
0000
,
0110
0000
0110
0110
0000
0011
0110
1001
,
1010
0000
0000
0110
0000
0000
1001
0000
0110
0000
0100
0010
0100
0000
0110
0000
,
1001
0000
0101
0101
0000
1010
0110
0011
,
0110
0000
0000
1001
0000
0000
0011
0000
0110
0000
0000
1010
0000
0000
0110
0000
,
1001
0000
0110
0110
0000
1010
0110
0011
,
1001
0000
0001
1000
0001
0000
0110
0000
0011
0000
0000
1010
0000
0000
1010
0000
,
0101
0010
1100
0010
0101
0010
0101
1000
,
0101
0010
1001
0010
1100
0001
1010
0100
,
1010
0100
1001
0010
0101
1000
0110
0001
,
1010
0000
0000
0000
1100
0000
0000
0000
1001
0000
0100
0010
0100
0000
0010
0000
,
1001
0100
0011
1000
0110
0001
1010
0100
,
1010
0001
0110
0001
1010
0100
0110
1000
,
0110
0001
0011
0100
1001
0010
1100
0010
,
1001
0000
1000
0001
1000
0000
0100
0000
0110
0000
0010
0000
0101
0000
0010
0000
,
0101
0010
0101
1000
0101
0010
0101
0010
,
1001
0100
0011
0100
1010
0001
0110
1000
,
0110
1000
0101
0010
0110
0001
0110
1000
,
0011
0000
0100
0000
1001
0000
0010
0000
1100
0000
0010
1000
0100
0000
0010
0000
,
1001
0100
1010
0001
0110
1000
0110
0001
,
1010
0100
1001
0010
1001
0010
0110
1000
,
1010
0100
0101
0010
1001
0100
1010
0001
,
1010
0000
0100
0000
1010
0000
1000
0000
0010
0000
1000
0100
1000
0000
0001
0010
,
0001
0000
1000
0000
1000
0000
0110
0000
0010
0000
0010
0000
0101
0010
0101
0010
,
1100
0000
0100
0000
0100
0000
0011
0000
0010
0000
1001
0000
1001
0010
1001
0100
,
1010
0000
0010
0000
0010
0000
0101
0000
0001
0000
0001
0000
1010
0100
1010
0001
,
0110
0000
0010
0000
0010
0000
0101
0000
0100
0000
0100
0000
0011
0100
0011
1000
,
0110
0000
1010
0000
0110
0000
0011
0000
1001
0000
0101
0000
1010
0100
1010
0001
,
0110
0000
0011
0000
1010
0000
1100
0000
1001
0000
1010
0000
0110
0001
1010
0101
,
1010
0000
1001
0000
1010
0000
0110
0000
1100
0000
0101
0000
0110
0001
0110
1000
,
0101
0000
1001
0000
0101
0000
0110
0000
1100
0000
0110
0000
0101
0010
0101
0010
,
1100
0000
0110
0000
0101
0000
0011
0000
1001
0000
0101
0000
0110
0001
0110
1000
,
0101
0000
1100
0000
0110
0000
0011
0000
0110
0000
1010
0000
1001
0100
1010
0101
,
1010
0000
0011
0000
1010
0000
1100
0000
1001
0000
1010
0000
0011
0100
0011
1000
,
0110
0000
0101
0000
1010
0000
1010
0000
1010
0000
1000
0100
0000
0010
0001
0100
,
1010
0100
1010
0001
0110
0001
1010
0100
,
1010
0100
0011
0100
1010
0100
1010
0100
,
1010
0100
0011
0100
1010
0110
0011
0110
,
1001
0100
1010
0101
1010
0100
1001
0010
,
1010
0110
0011
0110
1001
0011
0110
1010
,
1010
0001
0110
1000
0110
0001
0110
1000
,
0110
0110
0110
0110
0110
0110
1001
0100
,
1010
0100
1010
0001
0110
1001
0011
0110
,
1001
0010
0101
0010
1010
0100
1010
0100
,
0011
0000
0010
0000
1010
0000
0100
0000
1010
0000
1000
0100
1000
0000
0001
0010
,
0001
0000
1010
0001
0110
0000
1001
0110
0001
0100
1010
0100
0010
0100
0001
0010
,
1001
0000
0011
1100
0010
0000
0101
1010
0001
0000
1000
0010
0100
0000
0001
1000
,
0110
0000
0101
1000
0110
0000
1001
0110
1000
0010
0101
0010
0100
0010
1000
0100
,
1001
0000
0000
0000
0000
0000
1100
0000
0000
0011
0000
0000
0100
0000
0000
0000
0000
0000
0000
0000
0000
0000
0200
0000
0000
0000
0000
0000
0020
0000
0000
0000
0300
0000
0000
0000
0000
0000
0000
0000
0000
0000
0000
0000
0000
0000
0000
0000
,
0030
0000
0000
0000
;
