#TITLE:Block Party;
#SUBTITLE:;
#ARTIST:Daddy Yankee;
#TITLETRANSLIT:;
#SUBTITLETRANSLIT:;
#ARTISTTRANSLIT:;
#CREDIT:;
#BANNER:block party-banner.JPG;
#BACKGROUND:OneMoreLovelyBG.PNG;
#LYRICSPATH:;
#CDTITLE:!eggmanTitle.png;
#MUSIC:Daddy Yankee Ft Yaga & Mackie Ranks - Block Party (Www.FlowHot.NeT).ogg;
#OFFSET:-2.000;
#SAMPLESTART:170.899;
#SAMPLELENGTH:23.000;
#SELECTABLE:YES;
#BPMS:0.000=125.000,384.000=62.500,392.000=125.000;
#STOPS:;
#BGCHANGES:;
// cache tags:
#FIRSTBEAT:28.000;
#LASTBEAT:456.250;
#SONGFILENAME:Songs/Reggaeton and more/Block Party/Block Party.sm;
#HASMUSIC:1;
#HASBANNER:1;
#MUSICLENGTH:226.925;
// end cache tags

//---------------dance-single - ----------------
#NOTES:
     dance-single:
     :
     Challenge:
     12:
     0.716,0.980,0.670,0.150,0.771,951.000,152.000,34.000,362.000,12.000:

0000
0000
0000
0000
,
0000
0000
0000
0000
,
0000
0000
0000
0000
,
0000
0000
0000
0000
,
0000
0000
0000
0000
,
0000
0000
0000
0000
,
0000
0000
0000
0000
,
1000
0000
0000
0000
0100
0000
0000
0000
0010
0000
0000
0000
0001
0000
0000
0000
1000
0000
0001
1000
0001
0000
0100
0000
0010
1000
0010
0000
1000
0000
0001
0000
,
1001
0000
0000
0000
1001
0000
1000
0100
0010
0000
0001
0100
0010
0000
0000
1001
,
0000
0000
0000
0000
1010
0000
1000
0100
0010
0000
0001
0000
0100
0000
0000
1010
,
0000
0000
0000
0000
1000
0100
0010
0001
0010
0000
0100
0000
1000
0000
1001
0000
,
0000
0000
0000
0000
0011
0000
0100
0001
0010
0000
0110
0000
1001
0000
0000
1001
,
0000
0000
0000
0000
1000
0100
0010
0100
1000
0000
0001
0100
0010
0000
0000
1010
,
0000
0000
0000
1000
0100
0000
0010
0001
0100
0000
0010
1000
0100
0000
0000
1001
,
0000
0000
0000
0000
0001
0010
0100
1000
0100
0000
0010
0000
0001
0000
1001
0000
,
0000
0000
0000
0000
1000
0000
0100
0000
0010
0100
1000
0100
0010
0000
0110
0000
,
1001
1000
0100
0010
0100
1000
0010
0100
0010
0100
0010
1000
0100
0010
0001
0010
,
0100
0010
0001
0010
0100
1000
0100
0010
0100
1000
0100
1000
0010
0100
0001
0010
,
0001
0000
1000
0100
0010
0000
0001
0100
0000
0000
0010
0100
0001
0000
0001
0100
,
0000
0000
1000
0010
0100
0000
0100
1000
0000
0000
1000
0100
0001
0000
0001
0010
,
0100
1000
0100
1000
0010
0100
0010
0100
0001
0010
0100
1000
0100
0010
0001
0100
,
0010
1000
0100
1000
0010
0100
0001
0010
0100
1000
0100
0010
1001
0000
0000
0000
,
1100
0000
0100
0010
0100
0000
1000
0001
0000
0000
0001
1000
0001
0000
0100
0010
,
0110
1000
1001
0001
0101
0000
0000
1011
,
0000
0000
1000
0100
1000
0000
0001
0100
0001
0000
1000
0010
1000
0000
0001
0010
,
0001
0000
1000
0100
0010
0000
0010
0100
1000
0000
0001
0100
0010
0000
0010
0100
,
0001
0000
1000
0010
0100
0000
0100
0010
1000
0000
0001
0010
0100
0000
0100
0010
,
0001
0000
1000
0010
0100
0000
0001
0010
0100
0000
1000
0001
0000
0000
0000
0000
,
1001
0000
1000
0100
0010
0100
1000
0001
0010
0100
0010
0001
1000
0100
0010
0001
,
1000
0100
0010
0001
1000
0010
0100
0001
1000
0010
0100
0001
1000
0100
0001
0100
,
1000
0010
0100
0001
0010
0100
1000
0010
1000
0100
1000
0001
1000
0001
0100
0001
,
0010
0000
0000
0001
0000
0000
1000
0000
0000
0100
0000
0000
0010
0000
0000
0100
0000
0000
1000
0000
0000
0010
0000
0000
0100
0000
0000
0000
0000
0000
0010
0000
0000
0000
0000
0000
0000
0000
1000
0000
0000
0000
0000
0000
0000
0000
0000
0000
,
1010
0000
1000
0000
0100
0000
0010
0000
0001
0000
1000
0000
1001
0000
0000
MMMM
,
0000
0000
1000
0000
0010
0000
0100
0000
0001
0000
0100
0000
0010
0000
0000
1010
,
0000
0000
1000
0000
0100
0000
0010
0000
0001
0000
0010
0000
1100
0000
0000
MMMM
,
0000
0000
1100
0000
0010
0000
0101
0000
0010
0000
1100
0000
1001
0000
0000
0101
,
0000
1000
0100
1000
0010
0100
0001
0010
,
0100
0000
1000
0000
0100
0010
0100
0000
0010
0000
0001
0000
0100
0000
0000
1010
,
0000
0000
0001
0000
0010
0000
0100
0000
1000
0000
0001
0000
1001
0000
0000
MMMM
,
0000
0000
1000
0000
0010
0000
0100
0000
0001
0000
0100
0000
0010
0000
0000
1010
,
2M0M
0000
0000
0MMM
0000
0000
02MM
0000
0000
30MM
0000
0000
M02M
0000
0300
M002
0000
0000
MM00
0000
0000
MM30
0000
0000
,
M2M0
20M3
03MM
3MM2
MM20
MM00
MM00
MM33
,
2MMM
0MMM
0M2M
3M0M
MM32
M2M0
M0M3
M3M2
,
MM20
MM00
MM00
MM00
MM00
MM33
2MM0
00MM
,
02MM
30MM
M0M2
M3M0
2M03
3M2M
MM0M
MM00
,
0M32
2MM0
00M3
32MM
M02M
M00M
M00M
M33M
,
22MM
00MM
00MM
000M
001M
000M
00MM
00M0
00M1
00M0
00M1
00M0
00MM
00MM
330M
0000
,
0110
0000
1001
0000
0000
0000
1001
0000
1000
0100
0010
0001
1001
0000
1001
0000
,
1000
0100
0010
0001
1000
0100
0010
0001
1000
0100
0010
0001
1000
0100
0010
0001
,
1000
0010
0100
0001
1000
0010
0100
0001
1000
0010
0100
0001
1000
0010
0100
0001
,
1000
0100
0010
0100
1000
0001
0010
0100
0010
0001
1000
0010
0100
0010
0001
0010
,
1000
0100
0010
0001
0010
0100
1000
0001
0010
0100
1000
0100
0010
0001
1000
0001
,
1000
0100
0010
0100
1000
0100
0010
0100
1000
0100
0010
0100
0010
0001
0010
0100
,
0010
0001
0010
0100
0010
0001
0010
0100
1000
0100
0010
0001
0100
0010
1000
0010
,
0100
0001
0010
0100
0010
0001
0010
0100
0010
1000
0010
0100
0010
0001
0010
0001
,
0010
0000
0100
0000
1000
0000
0100
0000
0010
0000
0001
0000
0100
0000
0010
0000
0000
0000
0010
0000
0000
0000
1000
0000
0100
1000
0100
0000
0010
0000
0001
0000
,
0100
0000
1100
0000
0000
0110
0000
0000
0011
0000
0000
0000
1100
0000
1100
0000
,
1001
1000
0100
0010
0002
0000
1003
0000
,
1100
0000
1001
0000
0101
0000
1000
0100
0010
0000
0000
0000
1001
0000
0110
0000
,
1001
0000
1000
0000
0010
0000
0100
0000
0001
0000
0000
0000
1001
0000
0000
MMMM
,
0000
0000
2000
0000
0000
0002
0000
0000
0010
0000
3003
0000
2000
0000
0200
0000
,
0001
0000
3300
2000
0000
0000
0200
0000
0000
0001
0000
0000
0001
0000
0000
0000
0000
0000
0010
0000
0000
3300
0000
0000
,
1000
0000
0000
0000
0100
0000
0000
0000
0010
0000
0000
0000
0001
0000
0000
0000
0010
0000
0000
0000
0100
0000
1000
0000
0100
1000
0100
0000
1000
0000
0100
0000
,
0010
0000
0001
0010
0001
0000
0010
0000
0100
0000
0000
0000
1001
0000
0000
0000
1000
0000
0100
0000
0010
0000
0001
0000
1000
0100
1000
0100
0010
0001
0010
0001
,
1000
0000
0000
1010
0000
0000
0010
0000
0000
0110
0000
0000
0100
0000
0001
0010
,
0100
0000
1000
0100
0010
0000
0001
0100
0010
0000
0000
1001
0000
0000
1000
0000
,
1100
0000
0000
0110
0000
0000
0001
0010
0011
0000
0000
1000
0000
1000
0010
0100
,
0101
0000
0100
0001
0100
0000
0001
0100
0010
0000
0000
1010
0000
0000
0101
0000
,
1001
0000
1000
0000
0100
0001
0100
1000
,
1001
0001
0101
0100
0110
0000
1010
0000
,
0000
0000
0000
0000
0000
0000
1000
0000
0000
0100
0000
0000
0010
0000
0001
0000
0010
0000
0100
0000
0000
0000
0000
0000
1000
0000
0000
0000
0000
0000
0000
0000
0000
1001
0000
0000
0000
0000
0000
1000
0000
0000
0001
0000
0000
1000
0000
0000
,
0100
0000
0010
0000
0100
0000
1000
0000
0001
0000
0010
0000
0100
0000
0010
0000
0001
0000
0100
0000
0010
0000
0100
0000
0001
0100
0001
0000
0010
0000
0001
0000
,
0100
1000
1000
1000
1000
0100
0100
0100
,
0100
0000
0010
0000
0010
0000
0001
0000
0001
0000
0000
0000
1001
0000
0000
MMMM
,
0000
0000
1000
0100
0010
0100
1000
0000
1100
0000
0000
1001
0000
1000
0100
0010
,
0100
1000
0001
0010
0100
0010
0001
0100
0010
0000
0000
0000
1010
0000
0000
0000
,
1000
0001
1000
0001
1000
0000
0001
0000
0100
0000
0000
1010
0000
0000
1000
0100
,
0010
0000
0100
0000
1000
0000
0010
0000
0100
0000
0001
0000
0010
0000
0000
0000
1001
0000
0000
0000
0000
0000
1001
0000
0000
0000
0000
0000
1000
0100
0000
0000
,
1001
0000
0000
0000
0000
0000
0101
0000
0000
0000
0000
0000
0010
1000
0000
0000
1001
0000
0000
0000
0000
0000
1010
0000
0000
0000
0000
0000
1000
0000
0100
0000
,
0010
0001
0010
0100
1000
0000
1001
0000
0001
0010
0100
0010
0001
0000
1000
0000
,
1001
0000
0001
0000
0010
0000
0100
0000
1000
0000
0001
0000
1001
0000
0000
MMMM
,
0000
0000
0001
0000
0100
0000
0010
0000
1000
0000
0010
0000
0100
0000
0000
0101
,
0000
0000
0001
0000
0010
0000
0100
0000
1000
0000
0100
0000
0011
0000
0000
MMMM
,
0000
0000
0011
0000
0100
0000
1010
0000
0100
0000
0011
0000
1001
0000
0000
1010
,
0000
0001
0010
0001
0100
0010
1000
0100
,
0010
0000
0001
0000
0010
0100
0010
0000
0100
0000
1000
0000
0010
0000
0000
0101
,
0000
0000
1000
0000
0100
0000
0010
0000
0001
0000
1000
0000
1001
0000
0000
MMMM
,
0000
0000
0001
0000
0100
0000
0010
0000
1000
0000
0010
0000
0100
0000
0000
0101
,
0000
0000
0000
0000
1000
0000
0100
0010
0001
0000
0010
0100
1000
0000
0000
1001
,
0000
0000
0000
0000
1001
0000
1000
0100
0010
0000
0001
0000
0010
0000
0000
1100
,
0000
0000
0000
0000
1000
0100
0010
0010
0001
0000
1000
0000
1001
0000
0101
0000
,
1001
0000
0000
0000
1000
0100
0010
0100
1000
0000
0010
0000
0100
0000
0000
0101
,
0000
0000
0000
0000
1000
0100
1000
0100
1000
0000
0001
0100
0010
0000
0000
1010
,
0000
0000
0000
0000
1000
0000
1000
0010
0100
0000
0001
0010
0100
0000
0000
1001
,
0000
0000
0000
0000
1000
1000
0001
0001
0010
0000
0100
0000
1000
0001
1000
0000
,
1001
0000
0000
0000
1000
0100
0010
0100
1000
0001
1000
0001
1000
0000
0100
0000
,
1001
0000
1001
0000
0000
1100
0000
0000
0110
0000
0000
0011
0000
0000
1001
0000
0000
0101
0000
0000
0110
0000
0000
1010
0000
0000
1001
0000
0000
1001
0000
0000
,
1001
0000
0000
0000
20MM
00MM
02MM
000M
000M
000M
001M
0000
00M0
00M0
00M1
00M0
33M0
0000
0000
0000
1001
0000
1000
0100
0010
0000
0100
0000
1000
0000
0000
1001
,
0000
0000
1100
0000
0000
0110
0000
0000
0011
0000
0000
1001
0000
0000
1010
0000
,
0000
0101
0000
0000
0011
0000
0000
1100
0000
0000
1001
0000
0000
0110
0000
0000
,
1001
0000
1000
0010
0000
0101
0000
1010
,
0000
MMMM
0000
0000
1100
0000
0010
0001
0100
0000
0010
0000
1000
0000
0000
1010
,
0000
0000
1100
0000
0000
0101
0000
0000
1100
0000
0000
0101
0000
0000
1010
0000
,
0000
0011
0000
0000
1010
0000
0000
0011
0000
0000
1001
0000
0000
0110
0000
0000
,
1001
0000
1000
0100
1000
0000
0100
1000
0100
0000
0001
0100
0001
0000
0100
0001
,
0100
0000
1000
0100
0010
0000
0001
0100
0010
1000
0010
0100
0001
0010
0100
1000
,
1001
0000
1000
0000
0100
0000
0010
0000
0001
0000
0000
1001
0000
0000
0000
0000
,
1MMM
M1MM
MM1M
MMM1
,
1MM1
0000
1MMM
M1MM
MM1M
M1MM
1MMM
11MM
,
1MM1
0000
MMMM
0000
MMMM
0000
1MMM
0100
MM1M
0000
M1MM
0000
1MMM
0000
MMMM
0000
,
MMMM
MMMM
MMMM
MMMM
MMMM
MMMM
MMMM
MMMM
,
MMMM
MMMM
MMMM
MMMM
MMMM
MMMM
MMMM
MMMM
,
MMMM
MMMM
MMMM
MMMM
MMMM
MMMM
MMMM
MMMM
,
11MM
MMMM
1MM1
MMMM
MMM1
M1M1
1MMM
1MM1
,
MMMM
MMMM
MMMM
MMMM
MMMM
0000
0000
0000
0000
0000
0000
0000
0000
0000
0000
0000
0000
0000
0000
0000
0000
0000
0000
0000
0000
0000
0000
0000
0000
0000
0000
0000
0000
0000
0000
0000
0000
0000
0000
0000
0000
0000
0000
0000
0000
0000
0000
0000
0000
0000
0000
0000
0000
0000
0000
0000
0000
0000
0000
0000
0000
0000
0000
0000
;
