#TITLE:Emerald Hill Zone;
#SUBTITLE:Sonic the Hedgehog 2;
#ARTIST:Masato Nakamura;
#TITLETRANSLIT:;
#SUBTITLETRANSLIT:;
#ARTISTTRANSLIT:;
#CREDIT:Created by Pyzik;
#BANNER:Emerald Hill.png;
#BACKGROUND:Emerald Hill-bg.png;
#LYRICSPATH:;
#CDTITLE:;
#MUSIC:Sonic_2_Emerald_Hill.mp3;
#OFFSET:1.720;
#SAMPLESTART:41.445;
#SAMPLELENGTH:12.000;
#SELECTABLE:YES;
#BPMS:0.000=139.000;
#STOPS:;
#BGCHANGES:;
// cache tags:
#FIRSTBEAT:4.000;
#LASTBEAT:235.000;
#SONGFILENAME:Songs/toune 3/Sonic_2_Emerald_Hill/Sonic_2_Emerald_Hill.sm;
#HASMUSIC:1;
#HASBANNER:1;
#MUSICLENGTH:99.761;
// end cache tags

//---------------dance-single - ----------------
#NOTES:
     dance-single:
     :
     Hard:
     9:
     0.798,0.942,0.411,1.000,0.461,401.000,41.000,115.000,0.000,42.000:
0000
0000
0000
0000
,
2002
0000
0000
3003
2002
0000
0000
3003
1000
0100
0010
0001
1000
0100
0010
0001
,
2000
0100
0010
0001
0010
0100
0010
0100
3002
0010
0100
1000
0100
0010
0100
1003
,
0110
0000
0001
0000
0010
0000
1000
0000
0100
0000
1000
0000
0010
0001
0000
0000
,
1000
2000
0000
3200
0320
0030
0202
0000
,
1313
0000
0000
0000
0001
0010
0001
0010
0001
0000
0100
0000
0010
1000
0000
0000
,
2100
0100
0010
0010
0100
0100
0001
3001
,
1100
0000
0010
0000
0001
0000
0100
0000
1000
0000
0100
0000
0010
0100
0000
0000
,
0001
0002
0000
0023
0230
0300
2020
0000
,
3131
0000
0000
0000
1000
0100
1000
0100
1000
0000
0010
0000
0100
0001
0000
0000
,
0012
0010
1000
1000
0100
0100
0010
0013
,
1001
0010
0100
1000
0100
0010
0100
1000
,
0100
0020
0000
2000
0000
0000
0000
0000
,
3131
0000
0010
0000
1000
0000
0010
0000
0001
0000
0001
0000
0100
1000
0000
0000
,
0220
0000
0000
0000
0000
0000
0000
0000
1330
0001
0000
1000
0100
0010
0000
0000
,
1001
0100
0010
0001
0010
0100
0010
0001
,
0010
0200
0000
0002
0000
0000
0000
0000
,
1313
0000
0100
0000
0001
0000
0100
0000
1000
0000
1000
0000
0010
0001
0000
0000
,
0020
0000
0000
0100
0000
0100
0000
0100
0000
0200
0000
0000
0302
0000
0000
0000
,
2233
0000
0000
0000
0000
0000
3300
0010
0002
0000
0000
0000
0003
0010
0100
0000
,
0001
0000
0100
0010
2000
0000
0000
0000
3020
0000
0000
0000
0230
0000
0000
0000
,
0302
0000
1003
0100
0010
0001
0010
0100
,
0000
1000
0000
2000
0000
0000
0000
3100
0000
0200
0000
0000
0000
0000
0000
0000
,
0322
0000
0000
0000
0000
0000
0033
0100
2000
0000
0000
0000
3000
0100
0010
0000
,
1000
0000
0010
0100
0002
0000
0000
0000
0023
0000
0000
0000
0230
0000
0000
0000
,
0300
1001
1001
0000
2002
0000
0000
0000
0000
0000
0000
0000
3003
0000
0000
0000
,
1000
0100
0010
0001
1000
0100
0010
0001
1000
0100
0010
0001
1000
0100
0010
0001
,
1000
0000
1000
0000
0010
0000
0010
0000
0100
0000
0100
0000
0010
0010
0000
0000
,
1001
0020
0000
0002
0233
0000
2000
0000
,
3311
0000
0000
0000
0100
0010
0001
0010
0100
0000
0010
0000
0001
0100
0000
0000
,
2000
0200
3002
2300
0023
3002
0230
0023
,
1330
0000
1000
0000
0010
0000
0010
0000
0001
0000
0001
0000
0010
0010
0000
0000
,
1001
2000
0000
0200
3302
0000
0020
0000
,
1133
0000
0000
0000
0010
0100
1000
0100
0010
0000
0100
0000
1000
0010
0000
0000
,
0002
0200
0023
2300
0230
3002
0320
0203
,
0030
1300
1000
0100
0100
0010
0010
0100
,
0200
0002
0000
0020
0000
0000
0000
0000
,
1333
0000
0100
0000
0010
0000
0001
0000
0010
0000
0100
0000
1000
0010
0000
0000
,
0002
0000
0000
0000
0000
0000
0000
0000
0010
0100
0000
0010
0100
1000
0000
0000
,
0003
0001
0001
0100
0100
0010
0010
0100
,
0200
2000
0000
0020
0000
0000
0000
0000
,
3331
0000
0010
0000
0100
0000
1000
0000
0100
0000
0010
0000
0001
0100
0000
0000
,
0110
0000
0000
2200
0000
3322
0000
2233
0000
3322
0000
0033
2020
0000
0000
0000
,
3232
0000
0000
0000
0000
0000
0303
0010
0020
0000
0000
0000
0030
0001
0010
0000
,
1000
0000
0001
0010
0200
0000
0000
0000
0002
0000
0000
0000
0320
0000
0000
0000
,
2003
0000
3130
0001
0100
0100
0001
1000
,
0000
0020
0000
0002
0000
0000
0000
0233
0000
2000
0000
0000
0000
0000
0000
3300
,
2002
0000
0000
0000
0000
0000
3003
0100
0200
0000
0000
0000
0300
0010
0100
0000
,
0001
0000
0010
0100
2000
0000
0000
0000
3200
0000
0000
0000
0320
0000
0000
0000
,
0030
1001
1001
0000
2002
0000
0000
0000
0000
0000
0000
0000
3003
0000
0000
0000
,
0001
0010
0100
1000
0001
0010
0100
1000
0001
0010
0100
1000
0001
0010
0100
1000
,
0110
0000
0001
0000
1000
0000
0001
0000
0100
0000
1000
0000
0001
0010
0000
0000
,
0100
2000
0000
0200
3320
0000
0200
0000
,
1331
0000
0000
0000
0100
1000
0100
1000
0100
0000
0010
0000
0010
0010
0000
0000
,
1200
1000
0001
0001
0010
0010
1000
1000
,
0311
0000
1000
0000
0001
0000
0100
0000
0010
0000
0001
0000
1000
0100
0000
0000
,
0001
0002
0000
2000
3203
0000
0020
0000
,
1331
0000
0000
0000
0100
0001
0100
0001
0100
0000
0010
0000
0010
0010
0000
0000
,
2002
0000
0000
3003
;
