#TITLE:Wolf;
#SUBTITLE:Oh Henry!;
#ARTIST:Iced Earth;
#TITLETRANSLIT:;
#SUBTITLETRANSLIT:;
#ARTISTTRANSLIT:;
#CREDIT:;
#BANNER:../Fallback-Ban.png;
#BACKGROUND:../Fallback-BG.png;
#LYRICSPATH:;
#CDTITLE:../~CDTitle-@@.png;
#MUSIC:Iced Earth - Wolf.ogg;
#OFFSET:1.189;
#SAMPLESTART:53.081;
#SAMPLELENGTH:18.718;
#SELECTABLE:YES;
#DISPLAYBPM:205.150;
#BPMS:0.000=185.550,51.500=168.000,52.000=205.138;
#STOPS:;
#BGCHANGES:;
// cache tags:
#FIRSTBEAT:4.000;
#LASTBEAT:908.250;
#SONGFILENAME:Songs/Oh Henry! Mad Stamina/Wolf (17)/Wolf.sm;
#HASMUSIC:1;
#HASBANNER:1;
#MUSICLENGTH:267.000;
// end cache tags

//---------------dance-single - @@----------------
#NOTES:
     dance-single:
     @@:
     Challenge:
     17:
     1.000,1.000,0.000,0.004,1.000,2905.000,0.000,1.000,0.000,0.000:
0000
0000
0000
0000
,
0001
0000
0010
0100
0010
0000
0001
0000
1000
0000
1000
0000
0001
0000
0100
0000
,
0010
0000
0100
0001
0100
0010
1000
0001
1000
0000
0100
0000
0010
0000
0010
0000
,
0001
0000
1000
0100
1000
0000
0001
0000
0010
0100
1000
0100
0010
0000
0001
0000
,
1000
0000
0010
0100
0010
0000
1000
0000
0001
0000
0100
0000
0010
0000
0100
0000
,
0001
0010
0100
1000
0001
0010
0001
0100
0010
1000
0100
1000
0001
0010
0100
0010
,
0001
1000
0010
0100
0001
1000
0010
1000
0001
0100
0001
1000
0100
0010
0100
1000
,
0001
0000
0010
0001
0010
0000
0100
0000
1000
0000
1000
0000
0001
0000
1000
0000
,
0010
0000
0100
0001
0100
0000
0010
0000
1000
0000
1000
0000
0001
0010
0100
1000
,
0001
0000
1000
0010
1000
0000
0001
0000
0100
0000
0100
0000
0001
0000
1000
0000
,
0100
0000
0010
0001
0010
0000
0100
0000
1000
0000
1000
0000
0001
0000
1000
0000
,
0010
0000
0100
0001
0100
0000
0010
0000
1000
0000
1000
0000
0001
0000
0010
0000
,
0100
1000
0001
1000
0010
0100
0001
1000
0010
0000
1000
0000
0001
0000
0010
0000
,
0100
0000
1000
0001
0010
0000
0001
0000
1000
0001
0010
0000
0100
0000
0010
0000
,
0001
0000
1000
0010
0100
0000
0010
0000
1000
0010
0100
0000
0001
0000
1000
0000
,
0001
0000
0010
0001
1000
0000
0100
0000
0010
0001
1000
0000
0100
0000
1000
0000
,
0001
0000
0100
0010
0100
0000
0001
0000
1000
0001
1000
0000
0010
0000
0010
0000
,
1000
0000
0001
1000
0100
0000
0010
0000
0001
1000
0100
0000
1000
0000
0001
0000
,
1000
0000
0010
0100
0001
0000
0100
0000
0010
0100
0001
0000
1000
0000
0001
0000
,
0010
0000
0100
0010
0001
0000
1000
0000
0100
0010
0001
0000
0010
0000
0100
0000
,
1000
0000
0001
1000
0001
0000
0100
0000
0010
1000
0010
0000
0100
0000
0100
0000
,
0001
0000
1000
0001
1000
0000
0100
0000
0010
0001
1000
0000
0100
0000
1000
0000
,
0001
0000
0100
0001
0100
0000
0010
0000
1000
0001
0100
0000
0001
0000
1000
0000
,
0100
0000
1000
0100
0010
0000
0001
0000
1000
0100
0010
0000
0100
0000
1000
0000
,
0001
0000
1000
0010
0100
0000
0010
0000
1000
0000
1000
0000
0001
0000
0100
0000
,
0001
0000
1000
0001
0010
0000
0100
0000
1000
0001
0010
0000
0100
0000
0010
0000
,
0001
0000
1000
0010
0100
0000
0010
0000
1000
0010
0100
0000
0001
0000
1000
0000
,
0100
0000
0010
0100
0010
0000
0001
0000
1000
0100
0010
0000
0001
0000
1000
0000
,
0001
0000
0100
0001
1000
0000
0001
0000
1000
0000
1000
0000
0010
0000
1000
0000
,
0001
0000
1000
0001
0010
0000
0100
0000
1000
0001
0010
0000
0100
0000
0010
0000
,
0001
0000
0100
0010
1000
0000
0001
0000
0100
0010
1000
0000
0010
0000
0100
0000
,
0001
0000
0010
0001
1000
0000
0100
0000
0010
0001
1000
0000
0001
0000
1000
0000
,
0010
0000
0100
0001
0100
0000
0001
0000
1000
0010
1000
0000
0001
0000
0001
0000
,
0010
0000
0100
1000
0001
0000
1000
0000
0100
1000
0001
0000
0010
0000
0100
0000
,
1000
0000
0001
0100
0010
0000
0100
0000
0001
0100
0010
0000
1000
0000
0001
0000
,
1000
0000
0100
0010
0001
0000
1000
0000
0100
0010
0001
0000
1000
0000
0100
0000
,
1000
0000
0001
1000
0001
0000
0100
0000
0010
1000
0010
0000
0100
0000
0100
0000
,
0001
0000
1000
0100
1000
0000
0001
0000
0010
0001
1000
0000
0100
0000
0010
0000
,
0001
0000
0100
0001
0100
0000
0010
0000
1000
0001
0100
0000
0001
0000
1000
0000
,
0100
0000
1000
0100
0010
0000
0001
0000
1000
0100
0010
0000
0100
0000
1000
0000
,
0001
0000
1000
0010
0100
0000
0001
0000
1000
0000
1000
0000
0001
0000
0100
0000
,
0001
0000
0010
0100
1000
0000
0100
0000
0010
0100
1000
0000
0001
0000
0010
0000
,
0001
0000
1000
0010
0100
0000
0001
0000
1000
0010
0100
0000
0001
0000
1000
0000
,
0100
0000
0010
0001
0010
0000
0100
0000
0010
0001
1000
0000
0001
0000
0010
0000
,
0001
0000
1000
0010
0100
0000
0001
0000
1000
0000
1000
0000
0001
0000
0001
0000
,
1000
0100
0010
0001
1000
0100
1000
0001
0010
0001
1000
0010
0100
0001
1000
0010
,
0100
0010
1000
0001
0010
0100
1000
0100
0010
0001
1000
0100
1000
0001
0100
0001
,
0010
0100
1000
0010
1000
0001
0010
0100
1000
0010
1000
0001
0010
0100
1000
0010
,
1000
0100
0010
0001
0100
0001
1000
0100
0010
0001
0100
0001
1000
0100
0010
0001
,
1000
0010
1000
0001
0010
0100
0010
0001
0010
0100
1000
0001
0010
0001
1000
0010
,
0100
0001
1000
0001
0100
0001
1000
0001
0010
0100
1000
0100
0010
0100
1000
0100
,
0010
0001
0100
0010
1000
0100
0010
0001
0100
0010
1000
0100
0010
0001
0100
0010
,
1000
0010
0100
0001
0010
0100
1000
0010
0100
0001
0010
0100
1000
0010
0100
0001
,
1000
0100
0010
0001
1000
0100
1000
0001
0010
0001
1000
0010
0100
0001
0100
0010
,
1000
0001
1000
0100
1000
0001
0010
0100
1000
0001
0100
0010
1000
0010
0100
0010
,
1000
0001
0100
0001
0010
0100
1000
0001
0100
0001
0010
0100
1000
0001
0100
0001
,
0010
0100
1000
0010
1000
0001
0010
0100
1000
0010
1000
0001
0010
0100
1000
0010
,
1000
0001
0100
0010
1000
0010
0100
0001
1000
0100
0010
0001
0010
0100
1000
0001
,
1000
0010
0100
0010
1000
0010
0100
0010
1000
0001
0010
0001
1000
0001
0010
0001
,
1000
0100
1000
0010
0100
0001
1000
0100
1000
0010
0100
0001
1000
0100
1000
0010
,
0100
0001
0010
0001
1000
0010
0100
0001
0010
0001
1000
0010
0100
0001
0010
0001
,
1000
0000
0001
1000
0100
0000
1000
0000
0001
1000
0100
0000
0010
0000
0100
0000
,
1000
0000
0001
0100
0010
0000
0100
0000
0001
0100
0010
0000
1000
0000
0001
0000
,
1000
0000
0100
1000
0001
0000
0010
0000
0100
1000
0001
0000
0010
0000
0001
0000
,
1000
0000
0010
0100
0010
0000
1000
0000
0001
1000
0001
0000
0100
0000
0100
0000
,
0001
0000
1000
0001
0010
0000
0100
0000
1000
0001
0010
0000
0001
0000
1000
0000
,
0001
0000
0100
0010
1000
0000
0010
0000
0100
0010
1000
0000
0001
0000
1000
0000
,
0100
0000
0010
0100
1000
0000
0001
0000
0010
0100
1000
0000
0100
0000
0010
0000
,
0001
0000
1000
0001
1000
0000
0010
0000
0100
0001
0100
0000
0010
0000
0010
0000
,
1000
0000
0001
1000
0001
0000
0010
0000
0100
1000
0001
0000
0010
0000
0001
0000
,
1000
0000
0010
1000
0010
0000
0100
0000
0001
1000
0010
0000
1000
0000
0001
0000
,
0010
0000
0001
0010
0100
0000
1000
0000
0001
0010
0100
0000
0010
0000
0001
0000
,
1000
0000
0001
0100
0010
0000
0100
0000
0001
0000
0001
0000
1000
0000
0010
0000
,
1000
0000
0001
1000
0100
0000
0010
0000
0001
1000
0100
0000
0010
0000
0100
0000
,
1000
0000
0001
0100
0010
0000
0100
0000
0001
0100
0010
0000
1000
0000
0001
0000
,
0010
0000
0100
0010
0100
0000
1000
0000
0001
0010
0100
0000
1000
0000
0001
0000
,
1000
0000
0010
1000
0001
0000
1000
0000
0010
0000
0010
0000
0100
0000
0001
0000
,
1000
0000
0001
1000
0100
0000
0010
0000
0001
1000
0100
0000
0010
0000
0100
0000
,
1000
0000
0010
0100
0001
0000
1000
0000
0010
0100
0001
0000
0100
0000
0010
0000
,
1000
0000
0100
1000
0001
0000
0010
0000
0100
1000
0001
0000
1000
0000
0001
0000
,
0100
0000
0010
1000
0010
0000
1000
0000
0001
0100
0001
0000
1000
0000
1000
0000
,
0100
0000
0010
0001
1000
0000
0001
0000
0010
0001
1000
0000
0100
0000
0010
0000
,
0001
0000
1000
0010
0100
0000
0010
0000
1000
0010
0100
0000
0001
0000
1000
0000
,
0001
0000
0010
0100
1000
0000
0001
0000
0010
0100
1000
0000
0001
0000
0010
0000
,
0001
0000
1000
0001
1000
0000
0010
0000
0100
0001
0100
0000
0010
0000
0010
0000
,
1000
0000
0001
0010
0001
0000
1000
0000
0100
1000
0001
0000
0010
0000
0100
0000
,
1000
0000
0010
1000
0010
0000
0100
0000
0001
1000
0010
0000
1000
0000
0001
0000
,
0010
0000
0001
0010
0100
0000
1000
0000
0001
0010
0100
0000
0010
0000
0001
0000
,
1000
0000
0001
0100
0010
0000
1000
0000
0001
0000
0001
0000
1000
0000
0010
0000
,
1000
0000
0100
0010
0001
0000
0010
0000
0100
0010
0001
0000
1000
0000
0100
0000
,
1000
0000
0001
0100
0010
0000
1000
0000
0001
0100
0010
0000
1000
0000
0001
0000
,
0010
0000
0100
1000
0100
0000
0010
0000
0100
1000
0001
0000
1000
0000
0100
0000
,
1000
0000
0001
0100
0010
0000
1000
0000
0001
0000
0001
0000
1000
0000
1000
0000
,
0001
0010
0100
1000
0001
0010
0001
1000
0100
1000
0001
0100
0010
1000
0001
0100
,
0010
0100
0001
1000
0100
0010
0001
0010
0100
1000
0001
0010
0001
1000
0010
1000
,
0100
0010
0001
0100
0001
1000
0100
0010
0001
0100
0001
1000
0100
0010
0001
0100
,
0001
0010
0100
1000
0010
1000
0001
0010
0100
1000
0010
1000
0001
0010
0100
1000
,
0001
0100
0001
1000
0100
0010
0100
1000
0100
0010
0001
1000
0100
1000
0001
0100
,
0010
1000
0001
1000
0010
1000
0001
1000
0100
0010
0100
1000
0100
0010
0100
1000
,
0100
0010
0001
0100
0010
1000
0100
0010
0001
0100
0010
1000
0100
0010
0001
0100
,
0010
0100
0001
0010
0100
1000
0010
0100
0001
0010
0100
1000
0010
0100
0001
0010
,
0100
1000
0001
0010
0100
0010
0001
1000
0100
1000
0001
0100
0010
1000
0010
0100
,
0001
1000
0001
0010
0001
1000
0100
0010
0001
1000
0010
0100
0010
1000
0001
0100
,
0001
1000
0010
1000
0100
0010
0001
1000
0010
1000
0100
0010
0001
1000
0010
1000
,
0100
0010
0001
0100
0001
1000
0100
0010
0001
0100
0001
1000
0100
0010
0001
0100
,
0001
1000
0010
0100
0001
0100
0010
1000
0001
0010
0100
1000
0100
0010
0001
1000
,
0001
0100
0010
0100
0001
0100
0010
0100
0001
1000
0100
1000
0001
1000
0100
1000
,
0001
0010
0001
0100
0010
1000
0001
0010
0001
0100
0010
1000
0001
0010
0001
0100
,
0010
1000
0100
1000
0001
0100
0010
1000
0100
1000
0001
0100
0010
1000
0100
1000
,
0001
0010
0100
1000
0001
0100
0010
1000
0001
0010
0100
1000
0001
0010
0001
1000
,
0010
0100
0001
1000
0100
1000
0001
0010
0100
1000
0001
0100
0001
1000
0010
1000
,
0100
0010
0001
1000
0001
0010
0100
1000
0001
0100
0010
1000
0001
0100
0001
1000
,
0100
0010
0001
1000
0010
1000
0001
0100
0010
1000
0001
0010
0001
1000
0100
1000
,
0010
0100
0001
1000
0100
0010
0100
1000
0001
0100
0001
1000
0010
0100
0001
1000
,
0100
1000
0001
0010
0001
1000
0010
1000
0001
0010
0100
0010
0001
1000
0010
1000
,
0100
1000
0001
0010
0100
1000
0001
0100
0001
1000
0100
1000
0001
0010
0100
1000
,
0001
0100
0001
1000
0001
0100
0001
1000
0100
0010
0001
0010
0100
0010
0001
1000
,
0010
0100
0001
1000
0001
0010
0100
1000
0001
0100
0010
1000
0001
0100
0001
1000
,
0100
0010
0001
1000
0010
1000
0001
0100
0010
1000
0001
0010
0001
1000
0100
1000
,
0010
0100
0001
1000
0001
0100
0010
1000
0001
0010
0100
1000
0001
0010
0001
1000
,
0010
0100
0001
1000
0100
1000
0001
0010
0100
1000
0001
0100
0001
1000
0010
1000
,
0100
0010
0001
1000
0010
0100
0010
1000
0001
0010
0001
1000
0100
0010
0001
1000
,
0010
1000
0001
0100
0001
1000
0100
1000
0001
0100
0010
0100
0001
1000
0100
1000
,
0010
1000
0001
0100
0010
1000
0001
0010
0001
1000
0010
1000
0001
0100
0010
1000
,
0001
0010
0001
1000
0001
0010
0001
1000
0010
0100
0001
0100
0010
0100
0001
0100
,
0010
1000
0001
0100
0010
1000
0010
0100
0001
1000
0100
0010
0001
0010
0100
1000
,
0001
0100
0001
1000
0001
0100
0001
1000
0001
0010
0100
0010
0001
0010
0100
0010
,
0001
0100
0010
1000
0010
0100
0001
1000
0100
0010
0001
1000
0100
1000
0001
0010
,
0001
0100
0010
0100
0001
0100
0010
0100
0001
1000
0100
1000
0001
1000
0100
1000
,
0010
0100
0001
0100
0010
1000
0010
0100
0001
1000
0100
1000
0001
0010
0100
1000
,
0010
0100
0010
1000
0010
0100
0010
1000
0001
0010
0100
0010
0001
0010
0100
0010
,
0001
1000
0010
1000
0001
1000
0010
1000
0100
0010
0100
1000
0100
0010
0100
1000
,
0001
0100
0010
0100
0001
0100
0010
0100
0001
1000
0100
1000
0001
1000
0100
1000
,
0010
0000
1000
0001
0100
0000
0001
0000
1000
0001
0100
0000
0010
0000
0100
0000
,
0001
0000
1000
0100
0010
0000
0100
0000
1000
0100
0010
0000
0001
0000
1000
0000
,
0001
0000
0100
0001
1000
0000
0010
0000
0100
0001
1000
0000
0010
0000
1000
0000
,
0001
0000
0010
0100
0010
0000
0001
0000
1000
0001
1000
0000
0100
0000
0100
0000
,
1000
0000
0001
1000
0010
0000
0100
0000
0001
1000
0010
0000
1000
0000
0001
0000
,
1000
0000
0100
0010
0001
0000
0010
0000
0100
0010
0001
0000
1000
0000
0001
0000
,
0100
0000
0010
0100
0001
0000
1000
0000
0010
0100
0001
0000
0100
0000
0010
0000
,
1000
0000
0001
1000
0001
0000
0010
0000
0100
1000
0100
0000
0010
0000
0010
0000
,
0001
0000
1000
0001
1000
0000
0010
0000
0100
0001
1000
0000
0010
0000
1000
0000
,
0001
0000
0010
0001
0010
0000
0100
0000
1000
0001
0010
0000
0100
0000
1000
0000
,
0001
0000
1000
0010
0100
0000
0001
0000
1000
0010
0100
0000
0010
0000
1000
0000
,
0001
0000
1000
0100
0010
0000
0100
0000
1000
0000
1000
0000
0001
0000
0010
0000
,
0001
0000
1000
0001
0100
0000
0010
0000
1000
0001
0100
0000
0010
0000
0100
0000
,
0001
0000
1000
0100
0010
0000
0100
0000
1000
0100
0010
0000
0001
0000
1000
0000
,
0010
0000
0100
0010
0100
0000
0001
0000
1000
0010
0100
0000
0001
0000
1000
0000
,
0001
0000
0010
0001
1000
0000
0001
0000
0010
0000
0010
0000
0100
0000
1000
0000
,
0001
0000
1000
0001
0100
0000
0010
0000
1000
0001
0100
0000
0010
0000
0100
0000
,
0001
0000
0010
0100
1000
0000
0001
0000
0010
0100
1000
0000
0100
0000
0010
0000
,
0001
0000
0100
0001
1000
0000
0010
0000
0100
0001
1000
0000
0001
0000
1000
0000
,
0100
0000
0010
0001
0010
0000
0001
0000
1000
0100
1000
0000
0001
0000
0001
0000
,
0100
0000
0010
1000
0001
0000
1000
0000
0010
1000
0001
0000
0100
0000
0010
0000
,
1000
0000
0001
0010
0100
0000
0010
0000
0001
0010
0100
0000
1000
0000
0001
0000
,
1000
0000
0010
0100
0001
0000
1000
0000
0010
0100
0001
0000
1000
0000
0010
0000
,
1000
0000
0001
1000
0001
0000
0010
0000
0100
1000
0100
0000
0010
0000
0010
0000
,
0001
0000
1000
0010
1000
0000
0001
0000
0100
0001
1000
0000
0010
0000
0100
0000
,
0001
0000
0010
0001
0010
0000
0100
0000
1000
0001
0010
0000
0001
0000
1000
0000
,
0010
0000
1000
0010
0100
0000
0001
0000
1000
0010
0100
0000
0010
0000
1000
0000
,
0001
0000
1000
0100
0010
0000
0001
0000
1000
0000
1000
0000
0001
0000
0010
0000
,
0001
0000
0100
0010
1000
0000
0010
0000
0100
0010
1000
0000
0001
0000
0100
0000
,
0001
0000
1000
0100
0010
0000
0001
0000
1000
0100
0010
0000
0001
0000
1000
0000
,
0010
0000
0100
0001
0100
0000
0010
0000
0100
0001
1000
0000
0001
0000
0100
0000
,
0001
0000
1000
0100
0010
0000
0001
0000
1000
0000
1000
0000
0001
0000
0001
0000
,
1000
0010
0100
0001
1000
0010
1000
0001
0100
0001
1000
0100
0010
0001
1000
0100
,
0010
0100
1000
0001
0100
0010
1000
0001
0100
0001
1000
0100
0010
0001
1000
0001
,
0100
0010
1000
0100
1000
0001
0100
0010
1000
0100
1000
0001
0100
0010
1000
0100
,
1000
0010
0100
0001
0010
0001
1000
0010
0100
0001
0010
0001
1000
0010
0100
0001
,
1000
0100
1000
0001
0100
0010
0100
0001
0100
0010
1000
0001
0100
0001
1000
0100
,
0010
0001
1000
0001
0010
0001
1000
0001
0100
0010
1000
0010
0100
0010
1000
0010
,
0100
0001
0010
0100
1000
0010
0100
0001
0010
0100
1000
0010
0100
0001
0010
0100
,
1000
0100
0010
0001
0100
0010
1000
0100
0010
0001
0100
0010
1000
0100
0010
0001
,
1000
0010
0100
0001
1000
0010
1000
0001
0100
0001
1000
0100
0010
0001
0010
0100
,
1000
0001
1000
0010
1000
0001
0100
0010
1000
0001
0010
0100
1000
0100
0010
0100
,
1000
0001
0100
0001
0010
0100
1000
0001
0100
0001
0010
0100
1000
0001
0100
0001
,
0010
0100
1000
0010
1000
0001
0010
0100
1000
0010
1000
0001
0010
0100
1000
0010
,
1000
0001
0010
0100
1000
0100
0010
0001
1000
0010
0100
0001
0100
0010
1000
0001
,
1000
0100
0010
0100
1000
0100
0010
0100
1000
0001
0100
0001
1000
0001
0100
0001
,
1000
0100
1000
0010
0100
0001
1000
0100
1000
0010
0100
0001
1000
0100
1000
0010
,
0100
0001
0010
0001
1000
0010
0100
0001
0010
0001
1000
0010
0100
0001
0010
0001
,
1000
0100
0010
0100
1000
0001
0010
0001
1000
0010
1000
0001
0100
0010
1000
0001
,
0100
0001
1000
0100
0010
0001
1000
0100
1000
0001
0010
0100
1000
0001
0100
0001
,
0010
0100
1000
0010
1000
0001
0010
0100
1000
0010
1000
0001
0010
0001
1000
0010
,
1000
0100
0010
0001
0100
0001
1000
0100
0010
0001
0100
0001
1000
0100
0010
0001
,
1000
0010
1000
0001
0010
0100
0010
0001
1000
0100
1000
0001
0010
0001
1000
0010
,
0100
0001
1000
0001
0100
0001
1000
0001
0010
0100
1000
0100
0010
0100
1000
0100
,
0010
0001
0100
0010
1000
0100
0010
0001
0100
0010
1000
0100
0010
0001
0100
0010
,
1000
0010
0100
0001
0010
0100
1000
0010
0100
0001
0010
0100
1000
0010
0100
0001
,
1000
0100
0010
0001
1000
0100
1000
0001
0010
0001
1000
0010
0100
0001
0100
0010
,
1000
0001
1000
0100
1000
0001
0010
0100
1000
0001
0100
0010
0100
0001
1000
0010
,
1000
0001
0010
0001
0100
0010
1000
0001
0010
0001
0100
0010
1000
0001
0010
0001
,
0100
0010
1000
0100
1000
0001
0100
0010
1000
0100
1000
0001
0100
0010
1000
0100
,
1000
0001
0100
0010
1000
0010
0100
0001
1000
0100
0010
0001
0010
0100
1000
0001
,
1000
0010
0100
0010
1000
0010
0100
0010
1000
0001
0010
0001
1000
0001
0010
0001
,
1000
0010
1000
0100
0010
0001
1000
0010
1000
0100
0010
0001
1000
0010
1000
0100
,
0010
0001
0100
0001
1000
0100
0010
0001
0100
0001
1000
0100
0010
0001
0100
0001
,
1000
0100
0010
0001
1000
0100
1000
0001
0100
0001
1000
0010
0100
0001
1000
0010
,
1000
0001
0010
0100
0010
0001
1000
0100
1000
0001
0100
0010
1000
0010
0100
0001
,
1000
0100
0010
0001
0100
0001
1000
0100
0010
0001
0100
0001
1000
0100
0010
0001
,
0100
0010
1000
0001
0010
0001
0100
0010
1000
0001
0010
0001
0100
0010
1000
0001
,
0100
0010
0100
0001
1000
0010
0100
0001
1000
0100
0010
0001
0010
0100
1000
0001
,
0100
0010
1000
0010
0100
0001
1000
0010
1000
0001
0010
0100
1000
0001
0010
0001
,
1000
0100
1000
0001
0100
0010
1000
0100
1000
0001
0100
0010
1000
0100
1000
0001
,
0010
0100
1000
0010
1000
0001
0010
0100
1000
0010
1000
0001
0010
0100
1000
0010
,
1000
0001
0100
0001
1000
0010
1000
0001
0010
0001
1000
0100
0010
0001
1000
0100
,
1000
0001
0100
0010
0100
0001
1000
0010
1000
0001
0010
0100
0010
0001
1000
0100
,
1000
0010
0100
0001
1000
0100
1000
0010
0100
0001
1000
0100
1000
0010
0100
0001
,
0010
0100
1000
0001
0100
0001
0010
0100
1000
0001
0100
0001
0010
0100
1000
0001
,
0010
0100
0010
0001
1000
0100
0010
0001
1000
0010
0100
0001
0100
0010
1000
0001
,
0010
0100
1000
0100
0010
0001
1000
0100
1000
0001
0100
0010
1000
0001
0100
0001
,
1000
0010
1000
0001
0010
0100
1000
0010
1000
0001
0010
0100
1000
0010
1000
0001
,
0010
0001
0100
0010
1000
0001
0010
0001
0100
0010
1000
0001
0010
0001
1000
0010
,
0100
0010
1000
0001
1000
0100
0010
0001
1000
0010
0100
0001
1000
0010
1000
0001
,
0010
0100
1000
0001
0100
0001
1000
0010
0100
0001
1000
0100
1000
0001
0010
0001
,
0100
0010
1000
0001
1000
0010
0100
0001
1000
0100
0010
0001
1000
0100
1000
0001
,
0100
0010
1000
0001
0010
0001
1000
0100
0010
0001
1000
0010
1000
0001
0100
0001
,
0010
0100
1000
0001
0100
0010
0100
0001
1000
0100
1000
0001
0010
0100
1000
0001
,
0100
0001
1000
0010
1000
0001
0010
0001
1000
0010
0100
0010
1000
0001
0010
0001
,
0100
0001
1000
0010
0100
0001
1000
0100
1000
0001
0100
0001
1000
0010
0100
0001
,
1000
0100
1000
0001
1000
0100
1000
0001
0100
0010
1000
0010
0100
0010
1000
0010
,
0100
0001
0010
0100
0010
0001
0010
0100
0010
0001
0100
0010
0100
0001
0100
0010
,
1000
0001
0010
0001
1000
0001
0010
0001
1000
0010
1000
0001
1000
0010
1000
0001
,
0010
0200
0000
0000
0000
0000
0000
0000
0000
0000
0000
0000
0000
0000
0000
0000
,
0000
0000
0000
0000
,
0000
0000
0000
0000
,
0000
0000
0000
0000
,
0000
0300
0000
0000
0000
0000
0000
0000
0000
0000
0000
0000
0000
0000
0000
0000
;
