#TITLE:Windmill Plains;
#SUBTITLE:Diddy Kong Racing;
#ARTIST:Dave Wise;
#TITLETRANSLIT:;
#SUBTITLETRANSLIT:;
#ARTISTTRANSLIT:;
#CREDIT:;
#BANNER:Windmill Plains.jpg;
#BACKGROUND:Windmil Plains-bg.jpg;
#LYRICSPATH:;
#CDTITLE:!tank101title.png;
#MUSIC:Windmill Plains.mp3;
#OFFSET:-0.500;
#SAMPLESTART:24.030;
#SAMPLELENGTH:12.000;
#SELECTABLE:YES;
#BPMS:0.000=132.160,164.500=154.400,266.000=120.000;
#STOPS:;
#BGCHANGES:;
// cache tags:
#FIRSTBEAT:8.000;
#LASTBEAT:287.000;
#SONGFILENAME:Songs/VGMP 2/Windmill Plains (Tank 101)/Windmill Plains.sm;
#HASMUSIC:1;
#HASBANNER:1;
#MUSICLENGTH:125.361;
// end cache tags

//---------------dance-single - ----------------
#NOTES:
     dance-single:
     :
     Hard:
     12:
     1.000,1.000,0.343,0.271,1.000,893.000,43.000,34.000,0.000,0.000:


0000
0000
0000
0000
,
0000
0000
0000
0000
,
1001
0000
0001
1000
0000
1000
0001
0100
0100
0000
0001
0100
0000
0100
0001
1000
,
0010
0000
0010
0100
0000
0100
0010
0001
1010
0000
0001
0110
0000
0010
0101
1000
,
0001
0000
0001
0001
0000
0001
0000
0001
0010
0000
0010
0000
0010
0100
1000
0000
,
0100
0000
0000
0000
0000
0000
0010
0000
0000
1000
0000
0000
0000
0000
0000
0100
0000
0000
0001
0000
0000
0100
0000
0000
0010
0000
0000
0000
0000
0000
0001
0000
0000
0010
0000
0000
0000
0000
0000
0100
0000
0000
1000
0000
0100
0000
0010
0000
,
0001
0000
0001
0100
0010
0000
0010
1000
0100
0000
0001
0001
0001
0010
1000
0000
,
0100
0000
0000
0000
0000
0000
2000
0000
0000
0000
0000
0000
0000
0000
0000
0000
0000
0000
3020
0000
0000
0000
0000
0000
0032
0000
0000
0003
0000
0000
0002
0000
0000
0003
0000
0000
0020
0000
0000
0130
0000
0000
1000
0000
0100
0000
0010
0000
,
0001
0000
0001
0100
0010
0000
0010
1000
0100
0000
0001
0001
0001
0010
1000
0000
,
0100
0000
0000
0000
0000
0000
2000
0000
0000
0000
0000
0000
0000
0000
0000
0000
0000
0000
3200
0000
0000
0000
0000
0000
0320
0000
0000
0030
0000
0000
0010
0000
0000
0010
0000
0000
0001
0000
0000
0100
0000
0000
1000
0000
0100
0000
0010
0000
,
0001
0000
0000
0000
0000
0000
0000
0000
0000
0000
0000
0000
0000
0000
0000
0000
0000
0000
0000
0000
0000
0000
0000
0000
0010
0000
0000
0000
0000
0000
0000
0000
0000
0000
0000
0000
0001
0000
0000
0000
0000
0000
0000
0000
0000
0000
0000
0000
0010
0000
0000
0000
0000
0000
0000
0000
0000
0000
0000
0000
0010
0000
0000
0000
0000
0000
0000
0000
0000
0000
0000
0000
1000
0000
0000
0000
0000
0000
0000
0000
0000
0000
0000
0000
0000
0000
0000
0000
0000
0000
0000
0000
0000
0000
0000
0000
0010
0000
0000
0000
0000
0000
1000
0000
0000
0000
0000
0000
0010
0000
0000
0000
0000
0000
1000
0000
0000
0000
0000
0000
0010
0000
0000
0000
0000
0000
1000
0000
0000
0000
0000
0000
0010
0000
0000
0000
0000
0000
1000
0000
0000
0000
0000
0000
0010
0000
0000
0000
0000
0000
1000
0000
0000
0000
0000
0000
0010
0000
0000
0000
0000
0000
0000
0000
0000
0000
0000
0000
1000
0000
0000
0000
0000
0000
0000
0000
0100
0000
0000
0000
0000
0000
0000
0000
0010
0000
0000
0000
0000
0000
0000
0000
,
0001
0000
0000
0000
0010
0000
0001
0000
0100
0000
0010
0000
0001
0000
0000
0000
0001
0100
0001
0100
0001
0100
0001
0100
0001
0100
0001
0000
0000
0000
0000
0000
,
1000
0100
0010
0001
1000
0001
0010
0100
1000
0010
0100
0001
1000
0001
0100
0010
1000
0001
0010
0001
1000
0010
1000
0001
0100
0010
1000
0001
0100
0001
1000
0010
,
0101
0000
0101
0101
0000
0101
0000
0101
0110
0000
0110
0000
0110
1010
1100
0000
,
1010
0000
0000
0000
0000
0000
0000
0000
0000
0000
0000
0000
0100
0000
0000
0000
0000
0000
0010
0000
0000
0000
0000
0000
0001
0000
0000
0000
0000
0000
0000
0000
0000
0000
0000
0000
0000
0000
0000
0000
0000
0000
0000
0000
0000
0000
0000
0000
0010
0000
0000
0000
0000
0000
0000
0000
0000
0000
0000
0000
0001
0000
0000
0000
0000
0000
0000
0000
0000
0000
0000
0000
0010
0000
0000
0000
0000
0000
0000
0000
0000
0000
0000
0000
0001
0000
0000
0000
0000
0000
0000
0000
0000
0000
0000
0000
0010
0000
0000
0000
0000
0000
0000
0000
0000
0000
0000
0000
0000
0000
0000
0000
0000
0000
0000
0000
0000
0000
0000
0000
0010
0000
0000
0000
0000
0000
0000
0000
0000
0000
0000
0000
0010
0000
0000
0000
0000
0000
0000
0000
0000
0000
0000
0000
0010
0000
0000
0000
0000
0000
0000
0000
0000
0000
0000
0000
0100
0000
0000
0000
0000
0000
0000
0000
0000
0000
0000
0000
1000
0000
0000
0000
0000
0000
0000
0000
0100
0000
0000
0000
0000
0000
0000
0000
0010
0000
0000
0000
0000
0000
0000
0000
,
0001
0000
0001
0100
0010
0000
0010
1000
0100
0000
0001
0001
0001
0010
1000
0000
,
0100
0000
0000
0000
0000
0000
0000
0000
0000
0000
0000
0000
0010
0000
0000
0000
0000
0000
0100
0000
0000
0000
0000
0000
0001
0000
0000
0000
0000
0000
0000
0000
0000
0000
0000
0000
0000
0000
0000
0000
0000
0000
0000
0000
0000
0000
0000
0000
0100
0000
0000
0000
0000
0000
0000
0000
0000
0000
0000
0000
0010
0000
0000
0000
0000
0000
0000
0000
0000
0000
0000
0000
0100
0000
0000
0000
0000
0000
0000
0000
0000
0000
0000
0000
0010
0000
0000
0000
0000
0000
0000
0000
0000
0000
0000
0000
0001
0000
0000
0000
0000
0000
0000
0000
0000
0000
0000
0000
0000
0000
0000
0000
0000
0000
0000
0000
0000
0000
0000
0000
1000
0000
0000
0000
0000
0000
0000
0000
0000
0000
0000
0000
0100
0000
0000
0000
0000
0000
0000
0000
0000
0000
0000
0000
0010
0000
0000
0000
0000
0000
0000
0000
0000
0000
0000
0000
0001
0000
0000
0000
0000
0000
0000
0000
0000
0000
0000
0000
1000
0000
0000
0000
0000
0000
0000
0000
0100
0000
0000
0000
0000
0000
0000
0000
0010
0000
0000
0000
0000
0000
0000
0000
,
0002
0000
0000
0000
0000
0000
0000
0000
0000
0000
0000
0000
0000
0000
0000
0000
0000
0000
0000
0000
0000
0000
0000
0000
0013
0000
0000
0000
0000
0000
0000
0000
0000
0000
0000
0000
0001
0000
0000
0000
0000
0000
0000
0000
0000
0000
0000
0000
0010
0000
0000
0000
0000
0000
0000
0000
0000
0000
0000
0000
0100
0000
0000
0000
0000
0000
0000
0000
0000
0000
0000
0000
1000
0000
0000
0000
0000
0000
0000
0000
0000
0000
0000
0000
0000
0000
0000
0000
0000
0000
0000
0000
0000
0000
0000
0000
1000
0000
0000
0000
0000
0000
0010
0000
0000
0000
0000
0000
1000
0000
0000
0000
0000
0000
0010
0000
0000
0000
0000
0000
1000
0000
0000
0000
0000
0000
0010
0000
0000
0000
0000
0000
1000
0000
0000
0000
0000
0000
0010
0000
0000
0000
0000
0000
1000
0000
0000
0000
0000
0000
0010
0000
0000
0000
0000
0000
1000
0000
0000
0000
0000
0000
0000
0000
0000
0000
0000
0000
0010
0000
0000
0000
0000
0000
0000
0000
1000
0000
0000
0000
0000
0000
0000
0000
0010
0000
0000
0000
0000
0000
0000
0000
,
0100
0000
0000
0000
0100
0000
0001
0000
1000
0000
0100
0000
0010
0000
0000
0000
0001
0100
0001
0100
0001
0100
0001
0100
0001
0100
0001
0000
0000
0000
0000
0000
,
0100
0000
0000
0000
0010
0000
0100
0000
0000
0000
0100
0000
0010
0000
0100
0000
1000
0000
0000
0000
0001
0000
1000
0000
0000
0000
1000
0000
0001
0000
1000
0100
,
1000
0100
0010
0000
0100
0010
0001
0000
0100
0100
0010
0010
0001
0000
0100
0100
,
0001
1000
0001
0000
0001
0000
0000
0000
0010
0100
0010
0000
0010
0000
0000
0000
0100
1000
0010
0000
0001
0000
0000
0000
0100
1000
0001
0000
0010
0000
1000
0100
,
0010
0100
0001
0000
0100
0010
0001
0000
1000
1000
0010
0010
0001
0000
0100
0100
,
0010
0010
0010
0001
1000
0100
0010
0000
0002
0000
0000
0000
0000
0000
0000
0000
,
1003
0000
0100
1000
0000
1000
0010
1000
1000
0000
0001
1000
0000
1000
0010
1000
,
1000
0000
0000
0000
0100
0000
1000
0000
0000
0000
1000
0000
0010
0000
1000
0000
1000
0000
0000
0000
0001
0000
1000
0000
0000
0000
1000
0000
0010
0000
1000
0100
,
0010
0001
0010
0100
0010
0001
0010
0100
,
0010
0000
0010
0001
0010
0100
1000
0000
0100
0000
0001
0010
0000
0010
0001
0100
,
0001
1000
0010
0100
0010
0001
0010
1000
,
0100
0000
0000
0000
0100
0000
0001
0000
0010
0000
0100
0000
1000
0000
0000
0000
0200
0000
0000
0000
0000
0000
0000
0000
0300
0000
0000
0000
0000
0000
0100
0010
,
0001
0100
0010
1000
0100
0001
0010
0100
,
1000
0000
1000
0001
0100
0010
1000
0000
0100
0000
0010
1000
0000
1000
0010
0100
,
0001
1000
0010
0100
0010
0001
0010
0100
,
0010
0000
0010
0001
1000
0100
1000
0000
0020
0000
0000
0000
0000
0000
0000
0000
,
0032
0000
0010
1000
0000
1000
0010
1000
1000
0000
0010
1000
0000
1000
0010
1000
,
1003
0000
0010
1000
0000
1000
0010
1000
1000
0000
0010
1000
0000
1000
0010
1000
,
1000
0000
0100
0010
0001
0010
0100
1000
0001
0000
0100
0010
0001
0010
0100
1000
,
0100
0000
0010
0100
0001
0010
0100
1000
0110
0000
0000
0000
1010
0000
0101
0000
,
1000
0000
0100
0010
0001
0010
0100
1000
0100
0000
0010
0001
0010
0100
1000
0100
,
0020
0000
0230
0000
,
1300
0000
0000
0000
0000
0000
1000
0100
0010
0000
0000
0000
0001
0000
0000
0000
0020
0000
0000
0000
0100
0000
0000
0000
1030
0000
0000
0000
0100
0000
0000
0000
,
0010
0001
0010
0100
0010
0100
1000
0100
1000
0001
1000
0010
0001
0010
0100
1000
,
0001
0010
0100
0000
0020
0000
0032
0000
0203
0000
0320
0000
0030
0000
0001
0000
,
0010
1000
0001
0100
0010
1000
0001
0100
0010
0100
1000
0100
0010
0100
1000
0100
,
0010
0000
0100
1000
0000
1000
0100
1000
1000
0000
0010
1000
0000
1000
0010
1000
,
0001
0000
0001
0001
0000
0001
0000
0001
0010
0000
0010
0000
0010
0100
1000
0000
,
0100
0000
0000
0000
0000
0000
0010
0000
0000
1000
0000
0000
0000
0000
0000
1000
0000
0000
0010
0000
0000
1000
0000
0000
1000
0000
0000
0000
0000
0000
0001
0000
0000
1000
0000
0000
0000
0000
0000
1000
0000
0000
1000
0000
0100
0000
0010
0000
,
0001
0000
0001
0100
0010
0000
0010
1000
0100
0000
0001
0001
0010
0100
1000
0000
,
0110
0000
0000
0000
0000
0000
2000
0000
0000
0000
0000
0000
0000
0000
0000
0000
0000
0000
3100
0000
0000
0000
0000
0000
0010
0000
0000
0000
0000
0000
0010
0000
0000
0000
0000
0000
0010
0000
0000
0100
0000
0000
1000
0000
0100
0000
0010
0000
,
0001
0000
0001
0100
0010
0000
0010
1000
0010
0000
0001
0001
0010
0100
1000
0000
,
0110
0000
0000
0000
0000
0000
2000
0000
0000
0000
0000
0000
0000
0000
0000
0000
0000
0000
3100
0000
0000
0000
0000
0000
0010
0000
0000
0000
0000
0000
0010
0000
0000
0010
0000
0000
0010
0000
0000
0001
0000
0000
1000
0000
0100
0000
0010
0000
,
0001
0000
0000
0000
0000
0000
0000
0000
0000
0000
0000
0000
0000
0000
0000
0000
0000
0000
0000
0000
0000
0000
0000
0000
0010
0000
0000
0000
0000
0000
0000
0000
0000
0000
0000
0000
0001
0000
0000
0000
0000
0000
0000
0000
0000
0000
0000
0000
0010
0000
0000
0000
0000
0000
0000
0000
0000
0000
0000
0000
0100
0000
0000
0000
0000
0000
0000
0000
0000
0000
0000
0000
1000
0000
0000
0000
0000
0000
0000
0000
0000
0000
0000
0000
0000
0000
0000
0000
0000
0000
0000
0000
0000
0000
0000
0000
0010
0000
0000
0000
0000
0000
1000
0000
0000
0000
0000
0000
0010
0000
0000
0000
0000
0000
1000
0000
0000
0000
0000
0000
0010
0000
0000
0000
0000
0000
1000
0000
0000
0000
0000
0000
0010
0000
0000
0000
0000
0000
1000
0000
0000
0000
0000
0000
0010
0000
0000
0000
0000
0000
1000
0000
0000
0000
0000
0000
0010
0000
0000
0000
0000
0000
0000
0000
0000
0000
0000
0000
1000
0000
0000
0000
0000
0000
0000
0000
0100
0000
0000
0000
0000
0000
0000
0000
0010
0000
0000
0000
0000
0000
0000
0000
,
0001
0000
0000
0000
0100
0000
0001
0000
0100
0000
0010
0000
0001
0000
0000
0000
0001
0100
0001
0100
0001
0100
0001
0100
0001
0100
0001
0000
0000
0000
0000
0000
,
1000
0100
0010
0001
1000
0100
0010
0001
1000
0100
0010
0001
1000
0100
0010
0001
0010
0100
1000
0001
0010
0100
1000
0001
0010
0100
1000
0001
0010
0100
1000
0100
,
0011
0000
0011
0011
0000
0011
0000
0011
0110
0000
0110
0000
0110
1010
1100
0000
,
1010
0000
0000
0000
0000
0000
0000
0000
0000
0000
0000
0000
0100
0000
0000
0000
0000
0000
0010
0000
0000
0000
0000
0000
0001
0000
0000
0000
0000
0000
0000
0000
0000
0000
0000
0000
0000
0000
0000
0000
0000
0000
0000
0000
0000
0000
0000
0000
0100
0000
0000
0000
0000
0000
0000
0000
0000
0000
0000
0000
0010
0000
0000
0000
0000
0000
0000
0000
0000
0000
0000
0000
0100
0000
0000
0000
0000
0000
0000
0000
0000
0000
0000
0000
0010
0000
0000
0000
0000
0000
0000
0000
0000
0000
0000
0000
0001
0000
0000
0000
0000
0000
0000
0000
0000
0000
0000
0000
0000
0000
0000
0000
0000
0000
0000
0000
0000
0000
0000
0000
0001
0000
0000
0000
0000
0000
0000
0000
0000
0000
0000
0000
0001
0000
0000
0000
0000
0000
0000
0000
0000
0000
0000
0000
0010
0000
0000
0000
0000
0000
0000
0000
0000
0000
0000
0000
0100
0000
0000
0000
0000
0000
0000
0000
0000
0000
0000
0000
1000
0000
0000
0000
0000
0000
0000
0000
0100
0000
0000
0000
0000
0000
0000
0000
0010
0000
0000
0000
0000
0000
0000
0000
,
0001
0000
0001
0100
0010
0000
0010
1000
0100
0000
0010
0010
0010
0100
1000
0000
,
0100
0000
0000
0000
0000
0000
0000
0000
0000
0000
0000
0000
0010
0000
0000
0000
0000
0000
1000
0000
0000
0000
0000
0000
0001
0000
0000
0000
0000
0000
0000
0000
0000
0000
0000
0000
0000
0000
0000
0000
0000
0000
0000
0000
0000
0000
0000
0000
0100
0000
0000
0000
0000
0000
0000
0000
0000
0000
0000
0000
0010
0000
0000
0000
0000
0000
0000
0000
0000
0000
0000
0000
0100
0000
0000
0000
0000
0000
0000
0000
0000
0000
0000
0000
0010
0000
0000
0000
0000
0000
0000
0000
0000
0000
0000
0000
0001
0000
0000
0000
0000
0000
0000
0000
0000
0000
0000
0000
0000
0000
0000
0000
0000
0000
0000
0000
0000
0000
0000
0000
1000
0000
0000
0000
0000
0000
0000
0000
0000
0000
0000
0000
0100
0000
0000
0000
0000
0000
0000
0000
0000
0000
0000
0000
0010
0000
0000
0000
0000
0000
0000
0000
0000
0000
0000
0000
0001
0000
0000
0000
0000
0000
0000
0000
0000
0000
0000
0000
1000
0000
0000
0000
0000
0000
0000
0000
0100
0000
0000
0000
0000
0000
0000
0000
0010
0000
0000
0000
0000
0000
0000
0000
,
0001
0000
0000
0000
0000
0000
0000
0000
0000
0000
0000
0000
0000
0000
0000
0000
0000
0000
0000
0000
0000
0000
0000
0000
0010
0000
0000
0000
0000
0000
0000
0000
0000
0000
0000
0000
0001
0000
0000
0000
0000
0000
0000
0000
0000
0000
0000
0000
0010
0000
0000
0000
0000
0000
0000
0000
0000
0000
0000
0000
0100
0000
0000
0000
0000
0000
0000
0000
0000
0000
0000
0000
1000
0000
0000
0000
0000
0000
0000
0000
0000
0000
0000
0000
0000
0000
0000
0000
0000
0000
0000
0000
0000
0000
0000
0000
0010
0000
0000
0000
0000
0000
0100
0000
0000
0000
0000
0000
0010
0000
0000
0000
0000
0000
0100
0000
0000
0000
0000
0000
0010
0000
0000
0000
0000
0000
0100
0000
0000
0000
0000
0000
0010
0000
0000
0000
0000
0000
0100
0000
0000
0000
0000
0000
0010
0000
0000
0000
0000
0000
0100
0000
0000
0000
0000
0000
0010
0000
0000
0000
0000
0000
0000
0000
0000
0000
0000
0000
1000
0000
0000
0000
0000
0000
0000
0000
0100
0000
0000
0000
0000
0000
0000
0000
0010
0000
0000
0000
0000
0000
0000
0000
,
0001
0000
0000
0000
0010
0000
0001
0000
0100
0000
0010
0000
0001
0000
0000
0000
0001
1000
0001
1000
0001
1000
0001
1000
0001
1000
0001
0000
0000
0000
0000
0000
,
1000
0000
0010
1000
0000
1000
0010
1000
1000
0000
0010
1000
0000
1000
0010
1000
,
1000
0100
0010
0000
1000
0010
0001
0000
0100
0100
0010
0010
0001
0000
0010
0010
,
0001
0001
0001
0010
0100
0100
1000
0000
0010
0010
0100
1000
0010
0010
0100
1000
,
1000
0100
0010
0000
1000
0010
0001
0000
0100
0100
0010
0010
0001
0000
1000
1000
,
0100
0100
0100
0001
1000
0100
0010
0000
1002
0100
0010
1000
0010
0100
1000
0100
,
1003
2000
0000
0000
,
0000
3002
0000
0000
0103
0001
0100
0011
,
1000
0000
0100
0100
0100
0100
0101
0000
0100
0000
0100
0000
0020
0030
0101
0000
,
0020
0030
0001
0001
0001
0000
0011
0000
0201
0300
0001
1000
0200
0300
1010
0000
,
0200
0300
0010
0010
0010
0010
1010
0000
0100
0000
0100
0001
0100
0000
0011
0000
,
0010
0000
1001
0001
0001
0000
0110
0000
2000
3000
0100
0001
0020
0030
0101
0010
,
0200
0300
0001
0001
0001
0001
2000
0000
3000
0001
0000
0001
0100
0000
0000
0000
;
