#TITLE:Kick Your A;
#SUBTITLE:;
#ARTIST:SuperGreenX;
#TITLETRANSLIT:;
#SUBTITLETRANSLIT:;
#ARTISTTRANSLIT:;
#CREDIT:DukAmok;
#BANNER:Kick_Your_A.png;
#BACKGROUND:Kick_Your_A-bg.png;
#LYRICSPATH:;
#CDTITLE:!duktitle.png;
#MUSIC:Kick_Your_A.mp3;
#OFFSET:1.980;
#SAMPLESTART:32.096;
#SAMPLELENGTH:19.980;
#SELECTABLE:YES;
#BPMS:0.000=93.202,40.000=186.002,134.000=40.002,134.250=45.002,134.500=50.002,134.750=55.002,135.000=70.002,135.250=80.002,135.500=100.002,135.750=140.002,136.000=186.002,200.000=20.002,201.000=30.002,201.250=40.002,201.500=50.002,201.750=70.002,202.000=90.002,202.250=110.002,202.500=130.002,202.750=160.002,203.000=190.002,203.250=220.002,203.500=250.002,204.000=93.002;
#STOPS:;
#BGCHANGES:;
// cache tags:
#FIRSTBEAT:7.000;
#LASTBEAT:308.000;
#SONGFILENAME:Songs/Community Keyboard Megapack - Volume 3/(DukAmok) Kick Your A/Kick_Your_A.sm;
#HASMUSIC:1;
#HASBANNER:1;
#MUSICLENGTH:149.279;
// end cache tags

//---------------dance-single - Hard----------------
#NOTES:
     dance-single:
     Hard:
     Hard:
     10:
     0.913,0.877,1.000,0.208,1.000,763.000,160.000,31.000,0.000,7.000:
0000
0000
0000
0000
,
0000
0000
0000
0000
0000
0000
0001
1000
,
0200
0000
0000
0000
,
0302
0000
0000
0000
0000
0000
0000
0000
0100
0000
0000
0000
0000
0000
0010
0100
,
1003
0000
0010
0100
0001
0000
0010
0100
1000
0100
0001
0100
1000
0010
0001
0100
,
1000
0000
0001
0000
1000
0000
0001
0000
1000
0000
0001
0000
0100
0000
0010
0100
,
0001
0000
1000
0010
0100
0001
0010
0001
0100
0010
1000
0100
1000
0010
0100
0001
,
0010
0001
0100
0010
1000
0100
1000
0010
0100
0001
0010
0001
0100
1000
0010
0001
,
0100
0001
0010
0100
0000
1000
0010
0100
0000
1000
0100
1000
0000
0001
0010
0001
,
0000
0000
0100
0000
0010
0000
0001
0000
0000
0000
1000
0000
0100
0000
0010
0000
0000
0000
0001
0000
0010
0000
0100
0000
0010
0100
1000
0010
0100
0001
0010
0100
,
1000
0011
0110
1100
0001
0011
0100
1010
,
0100
1001
0110
0011
1000
0101
1010
0110
,
0001
1010
1100
0101
0010
1010
0100
1001
,
0100
0011
1100
1010
0001
0110
1001
1100
,
0010
1001
0101
0110
1000
1001
0100
0011
,
0100
1010
0101
1001
0010
1100
0011
0101
,
1000
0011
0110
1100
0001
0011
0100
1010
,
0100
0000
1001
0000
0110
0000
0011
0000
1001
0000
1001
0000
1001
0010
0100
0010
,
1001
0000
1000
0000
0001
0001
0010
0000
0100
0100
0010
0000
0001
0001
0100
0100
,
0001
0001
1000
0000
0100
0000
0010
0010
0001
0000
0010
0000
0001
0001
0100
0100
,
0010
0010
1000
1000
0100
0000
0001
0000
0100
0000
0100
1000
0100
0010
0001
0000
,
0100
0100
0010
0010
1000
0000
0001
0000
0100
0000
0010
0000
1000
0000
0100
0000
,
0011
0000
0001
0010
0100
0010
1000
0000
0010
0001
0100
1000
0100
0001
0010
1100
,
0000
0010
0001
0100
0010
1000
0001
0000
0100
0010
0001
1000
0100
1000
0010
0100
,
0001
0000
1000
0001
0100
0010
0100
0000
0001
0010
0100
1000
0010
0100
0010
0000
,
1000
0100
0010
0100
1000
0010
0001
0000
0010
1000
0100
0010
0001
0100
1000
0000
,
0200
0001
0000
1000
,
0300
0000
0011
0000
0000
0110
0000
0000
1100
0000
0000
1001
0000
0000
0011
0000
,
2000
0010
0000
0100
,
3000
0000
0011
0000
0000
1001
0000
0000
1100
0000
0000
0110
0000
0000
0011
0000
,
0002
0100
0000
1000
,
0003
0000
0110
0000
0000
0011
0000
0000
1001
0000
0000
1100
0000
0000
0110
0000
,
0200
0001
0000
1000
,
0301
0000
0000
0000
0010
0000
0000
0000
0100
0000
0000
0000
1000
0000
0000
0000
0010
0000
0000
0000
0001
0000
0000
0000
1000
0000
0000
0000
0100
0000
0000
0000
0022
0033
0000
0000
0000
0000
0000
0000
0000
0000
0000
0000
0000
0000
0000
0000
0000
0000
0000
0000
0000
0000
0000
0000
0000
0000
0000
0000
0000
0000
0000
0000
,
0001
0010
0100
1000
0001
0100
0010
0100
0001
1000
0100
1000
0010
0100
0001
0010
,
0001
0100
0010
1000
0100
0001
0100
1000
0010
0100
0001
0010
0001
0010
0001
0100
,
0001
0100
0001
0010
0100
0010
0100
1000
0010
0100
0001
0010
0100
1000
0100
0010
,
0001
0100
0010
1000
0100
1000
0100
1000
0010
0100
0010
0100
0001
0010
0001
0010
,
0001
0100
0001
0100
0010
0100
0010
0100
0010
1000
0010
1000
0100
1000
0100
1000
,
0010
0100
0010
0100
0001
0010
0001
0010
0001
0100
0010
0100
0001
0010
0100
0010
,
0001
1000
0100
1000
0010
0001
0010
1000
0100
0010
0001
1000
0010
0100
0001
0010
,
0001
0100
0010
1000
0001
0010
0100
0001
0100
1000
0010
0100
0001
0010
0001
0100
,
0001
1000
0100
0010
0100
0001
0100
0010
0001
1000
0010
0100
0010
1000
0010
0100
,
1010
0000
0100
0000
1001
0000
0010
0000
0001
0010
0100
1000
0001
0100
0010
1000
,
0010
0100
0001
0010
0100
1000
0010
0100
0001
0010
0001
0100
0010
0100
0010
0100
,
0001
1000
0100
1000
0100
0010
0001
0010
0001
0100
0010
0100
0001
0100
0001
0010
,
0100
0010
0001
1000
0100
1000
0010
0100
0010
1000
0001
0010
0001
0100
0010
1000
,
0100
1000
0001
0100
0001
0010
0001
0010
0001
0100
0010
1000
0100
0010
0001
0010
,
0001
0010
0100
1000
0001
0010
0100
1000
0001
0100
0010
1000
0001
0100
0010
1000
,
0010
0101
0000
0000
1010
0000
0000
0110
0000
0000
0011
0000
0000
1010
0000
0000
,
1001
0000
0000
0000
,
2100
0000
0000
0000
0000
0000
3220
2330
3022
0000
0000
2033
0000
0000
3102
0000
,
0000
0223
0000
2332
0000
0000
0000
0000
0000
0000
0000
3003
1000
0001
0100
0001
,
1100
0000
0000
0000
1000
0011
0000
0011
0000
0000
0001
1100
0000
1010
0000
1001
,
0220
0000
0000
0000
0000
0000
0000
0000
0330
0000
0000
0000
0000
0000
0000
0000
0000
0000
0110
0000
0000
0000
0101
0000
0001
0010
0001
0100
0001
1000
0001
0100
,
0002
0000
0000
0000
0000
0003
1000
0001
0220
0000
0330
0110
0000
0000
1100
1100
,
0000
0101
0000
0202
0000
0000
0000
0000
0000
0000
0000
0303
0011
0101
1010
1100
,
0002
0000
0000
0000
0000
1000
0000
1000
0000
0000
0010
0100
0000
0100
0000
0100
,
2003
0000
0000
0000
3000
0000
1001
0110
,
0101
0000
0101
0000
1010
0000
1000
0100
0000
0100
0000
0100
1010
0000
0010
0100
,
0011
0000
1000
0001
0000
0001
0100
0000
0100
0010
0000
1000
0100
0000
0100
0010
,
1010
0000
1010
0000
0101
0000
0100
0010
0000
0010
0000
0010
0101
0000
0001
0010
,
1001
0000
0100
1000
0000
1000
0010
0000
0010
0001
0000
0100
0010
0000
0010
0001
,
1001
0000
0011
0000
0110
0000
0010
0001
0000
1000
0000
0001
0110
0000
1000
0100
,
0011
0000
0001
0001
0000
0100
0001
0000
0001
0100
0000
1000
0010
0000
0010
1000
,
0110
0000
1010
0000
0011
0000
0100
1000
0000
0010
0000
0001
0101
0000
0001
0010
,
1100
0000
1000
1000
0000
0100
0010
0000
0010
1000
0000
1000
0001
0000
0001
0001
,
1100
0000
0001
0100
0101
0000
0001
1000
0101
0000
1001
0000
0010
0000
1100
0001
,
1010
0000
0010
0001
1100
0000
1000
0010
1010
0000
1100
0000
0001
0000
0110
1000
,
0011
0000
1000
0100
1010
0000
1000
0100
1010
0000
1010
0000
1000
0000
1001
0001
,
1010
0000
0001
0001
0101
0000
0100
1000
1010
0000
1010
0000
0010
0000
1010
0001
,
0011
0000
0100
0100
0101
0000
0010
0100
1010
0000
1001
0000
1000
0000
0101
0010
,
0101
0000
0001
1000
0110
0000
0100
0001
0101
0000
0110
0000
1000
0000
0011
0100
,
1001
0000
0100
0010
0101
0000
0100
0010
0101
0000
0101
0000
0100
0000
1100
1000
,
0101
0000
1000
0001
1010
0000
0010
0100
1100
0000
0101
0000
1010
0000
0011
0000
,
2002
0000
0000
0000
,
0000
0000
0000
0000
,
3003
0000
0000
0000
;
