#TITLE:Hatsune Miku no Syoushitsu;
#SUBTITLE:-Dead End-;
#ARTIST:cosMo;
#TITLETRANSLIT:;
#SUBTITLETRANSLIT:;
#ARTISTTRANSLIT:;
#CREDIT:;
#BANNER:vanishment-bn.png;
#BACKGROUND:vanishment-bg.png;
#LYRICSPATH:;
#CDTITLE:;
#MUSIC:Hatsune Miku no Syoushitsu.ogg;
#OFFSET:-0.350;
#SAMPLESTART:26.700;
#SAMPLELENGTH:12.020;
#SELECTABLE:YES;
#DISPLAYBPM:70.000:240.000;
#BPMS:0.000=75.000,30.000=70.000,32.000=240.000,345.000=480.000,348.000=240.000;
#STOPS:287.500=0.250
,345.000=0.031
,345.250=0.031
,345.500=0.031
,345.750=0.032
,346.000=0.031
,346.250=0.031
,346.500=0.031
,346.750=0.032
,347.000=0.031
,347.250=0.031
,347.500=0.031
,347.750=0.032
;
#BGCHANGES:;
// cache tags:
#FIRSTBEAT:0.000;
#LASTBEAT:478.000;
#SONGFILENAME:Songs/SSSC PACK/[Revolver] - Hatsune Miku no Syoushitsu/hatsune.sm;
#HASMUSIC:1;
#HASBANNER:1;
#MUSICLENGTH:105.000;
// end cache tags

//---------------dance-single - D. D'Agostino----------------
#NOTES:
     dance-single:
     D. D'Agostino:
     Challenge:
     13:
     1.000,1.000,0.267,0.162,1.000,1001.000,28.000,17.000,44.000,0.000:



1000
0000
0100
0000
0010
0001
0000
0100
M000
0000
0000
0000
00M0
0000
0001
0000
,
1000
0000
0100
0000
0010
0100
0000
1000
000M
0000
0010
0010
M000
0000
0100
0001
,
1000
0000
0000
0100
000M
0010
0100
1000
0010
0000
0001
0000
0010
0000
1000
0000
,
0001
0000
0000
0000
0010
0000
0000
0000
0100
0000
0000
0000
1000
0000
0010
0100
,
0001
0000
0001
0000
0001
1000
0000
0100
00M0
0000
0001
0000
0001
0000
0100
0000
,
1000
0010
0100
0001
0010
0100
0100
0100
,
1000
0010
000M
0100
1000
0100
00M0
0001
,
1000
0000
0100
0010
0001
0000
1000
0000
,
0001
0100
0010
1000
0010
1000
0001
0100
0001
1000
0100
1000
,
0001
0010
0000
0100
0010
0001
1000
0001
1000
0010
1000
0001
,
0100
0000
0010
1000
0000
0001
1000
0010
1000
0001
1000
0100
,
1000
0001
0010
0100
0010
0001
1000
0000
0010
1000
0001
0100
,
0010
1000
0010
0100
0001
1000
0001
0010
0000
0100
1000
0100
,
0010
0001
1000
0001
0100
0010
1000
0001
1000
0100
0010
0100
,
1000
0000
0100
0010
0001
1000
0001
0100
0010
1000
0010
0100
,
0001
1000
0000
0001
0010
0001
1000
0100
1000
0100
0010
0001
,
1000
0001
0100
0010
1000
0001
0100
0001
1000
0010
0100
0010
,
1000
0000
0001
0010
0100
0010
0001
1000
0100
1000
0001
0100
,
0010
1000
0000
0001
0100
0001
1000
0100
0000
1000
0001
0100
,
0010
0000
0100
0001
1000
0001
0010
0100
0010
0001
1000
0100
,
0010
0100
1000
0001
0100
0001
1000
0010
0100
0001
0100
0010
,
1000
0001
0100
0001
1000
0100
0010
0001
0010
0100
1000
0001
,
0200
0000
0000
0320
0000
1030
0001
0100
0001
1000
0001
1000
,
0100
0010
0001
0010
0100
1000
0001
0000
0100
0010
1000
0010
,
0100
0001
1000
0001
0100
0001
1000
0100
,
0010
0000
0001
0000
1000
0000
0010
0000
0100
0000
0001
0000
1000
0001
1000
0000
,
0010
1000
0001
0010
0100
0010
0001
1000
,
0001
0000
0100
0000
0010
0000
1000
0000
0100
0000
1000
0000
0001
1000
0001
1000
,
0001
0100
0001
1000
0001
0010
0100
0001
,
0100
2000
0000
3020
0000
0130
0001
0010
,
0100
1000
0100
0010
0001
0100
0010
1000
,
0010
0000
0100
0000
0001
0000
0010
0000
0100
0000
1000
0001
1000
0001
1000
0001
,
1000
0010
1000
0001
0100
0001
0010
0100
,
1000
0000
0001
0000
0100
0000
0001
0000
0010
0000
0100
0000
1000
0100
1000
0000
,
0001
1000
0010
0100
0001
0010
0100
1000
,
0001
0000
0100
0000
0001
0000
0010
0000
0100
0000
1000
0000
0001
1000
0001
1000
,
0001
0100
0001
1000
0010
0100
1000
0100
,
0001
0020
0000
0230
0000
1300
0001
0010
,
0001
0100
0010
1000
0001
0100
0001
0010
,
0100
0000
1000
0000
0010
0000
0100
0000
0001
0000
1000
0001
1000
0001
1000
0001
,
1000
0M00
00M0
M000
,
000M
0M00
1100
000M
,
0011
M000
0M00
000M
,
1001
0M00
1010
0110
,
0101
00M0
M000
0M00
,
0110
000M
1001
00M0
,
1100
000M
0110
M000
,
0011
0M00
1001
00M0
,
0101
00M0
M000
000M
,
1010
0M00
00M0
0101
,
0110
0000
0000
1001
0000
0000
1100
0000
,
0110
0011
0110
1001
,
0101
00M0
M000
000M
,
0110
M000
1010
0M00
,
0101
00M0
M000
0M00
,
1001
0000
0000
0000
00M0
0000
0000
0000
0M00
0000
0000
0000
0001
1000
0001
1000
,
0001
0100
0001
1000
0100
1000
0001
0010
,
0100
1000
0100
0010
0001
1000
0010
0100
,
0001
0010
0001
1000
0100
0010
0001
0010
,
0100
1000
0010
1000
0001
0100
0010
1000
,
0100
0001
0100
2000
0000
3010
0100
0001
,
1000
0001
0010
0100
1000
0010
0100
0001
,
1000
0001
0010
0001
0100
0010
1000
0100
,
1000
0000
0001
0000
0010
0000
0100
0000
1000
0000
0001
0000
0100
0001
0100
0001
,
0100
0010
0100
0001
1000
0100
0010
0001
,
0100
0001
0010
0100
1000
0001
0100
0001
,
0010
0100
1000
0001
0100
0010
1000
0100
,
1000
0001
0010
0100
1000
0010
0100
0001
,
0010
0100
0001
0200
0000
1300
0010
0100
,
0001
1000
0100
0010
0001
0010
0100
1000
,
0010
1000
0001
0010
0100
1000
0001
0100
,
0010
1000
0001
0010
0001
1000
0010
M40M
,
0301
1000
0010
0100
0001
1000
0010
0100
,
0001
1000
0100
0010
0100
1000
0001
0010
,
0100
1000
0010
0100
0001
0010
0001
0100
,
0010
1000
0100
1000
0001
0010
0100
1000
,
0001
0100
0010
1000
0100
1000
0001
0010
,
0100
1000
0001
0100
0001
0010
0100
0010
,
0001
1000
0100
0010
0001
1000
0010
0100
,
0001
1000
0010
0100
1000
0100
0002
0000
,
0000
1003
0100
0010
0001
0100
0010
1000
,
0001
1000
0010
1000
0100
0010
0001
0100
,
0001
1000
0100
0010
0001
1000
0010
0100
,
0010
1000
0100
0010
0001
1000
0010
0100
,
0001
0010
0001
0100
0010
1000
0001
0010
,
0100
1000
0100
0010
0002
0203
0000
0320
,
0000
0000
0000
0000
1030
0001
1000
0001
1000
0001
1000
0001
1000
0001
1000
0001
,
0200
0320
2030
3002
0023
0030
0100
1000
,
0001
0010
0100
1000
0001
0100
0010
1000
,
0001
0100
0001
0010
0100
0010
0001
1000
,
0010
0100
0010
1000
0001
0010
0100
1000
,
0001
0010
0100
0010
0001
1000
0001
0100
,
0010
1000
0001
0010
0100
0010
0001
1000
,
0010
0100
0001
0010
0001
1000
0100
0010
,
0001
1000
0010
0100
0001
1000
0100
0010
,
0001
0000
0000
0000
0000
0000
1000
0000
0000
0000
0000
0000
0001
0000
0000
0100
0000
0000
0001
0000
0000
0100
0000
0000
0010
0000
0000
1000
0000
0000
0010
0000
0000
1000
0000
0000
0001
0000
0000
0000
0100
0000
0000
0000
0001
0000
0000
0000
,
0100
0010
0100
0001
1000
0001
1000
0100
1000
0001
0010
0001
,
1000
0100
1000
0010
1000
0010
0100
0001
0100
0010
0100
0010
,
1000
0001
1000
0100
0010
0100
1000
0100
1000
0001
0010
0001
,
0100
0010
0100
0001
0100
0001
1000
0010
1000
0001
0010
0001
,
1000
0100
1000
0100
0010
0100
1000
0001
1000
0010
0100
0010
,
0100
0001
0100
0010
1000
0010
1000
0100
1000
0001
0010
0001
,
0100
0000
0000
0000
0001
0000
0000
0000
0100
0000
0000
0000
0010
0000
0000
0000
1000
0000
0000
0000
0010
0000
0000
0000
0100
0000
0000
0000
0001
0000
0000
0000
0100
0000
0000
0000
0001
0000
0000
1000
0000
0000
0001
0000
0000
1000
0000
0000
,
0010
0000
0000
0100
0000
0000
0010
0000
0000
0100
0000
0000
0010
0000
0000
1000
0000
0000
0010
0000
0000
1000
0000
0000
0001
0000
0000
0100
0000
0000
0001
0000
0000
0100
0000
0000
0010
0000
0000
0000
0000
0000
0000
0000
1000
0000
0000
0000
,
0010
0000
1000
0001
0100
0001
1000
0010
0000
1000
0001
0010
,
0100
0010
0001
1000
0001
0010
0001
1000
0010
1000
0001
0100
,
0010
1000
0001
1000
0100
0010
0001
0000
0010
0100
1000
0100
,
0010
0001
1000
0001
0000
0100
0001
1000
0010
1000
0001
0100
,
0001
1000
0001
0010
0100
1000
0100
0010
0001
1000
0001
0100
,
0010
0100
0001
1000
0100
1000
0001
0010
0100
1000
0100
0010
,
0001
0010
0001
1000
0100
1000
0001
0000
1000
0010
0100
0010
,
1000
0001
0100
0001
1000
0100
0010
0100
0000
1000
0100
0010
,
0001
0010
0001
1000
0010
1000
0001
0000
0100
0010
1000
0010
,
0100
0001
0100
0010
1000
0001
0100
0000
0001
1000
0001
0010
,
0100
0010
0001
1000
0100
1000
0001
0100
0010
1000
0010
0100
,
0001
0000
1000
0001
0100
0001
1000
0100
0010
0100
1000
0001
,
0010
0001
1000
0010
0100
0001
0100
0010
1000
0001
1000
0100
,
0010
0001
0010
0100
0000
1000
0001
1000
0010
0100
0001
0100
,
0010
1000
0001
0100
0001
1000
0100
1000
0001
0010
0100
0010
,
0000
0001
1000
0010
0100
0001
1000
0000
0000
0000
0000
0000
;
