#TITLE:Can You feel The Music;
#SUBTITLE:(Melt Your Face Off Mix);
#ARTIST:Toby Emerson;
#TITLETRANSLIT:;
#SUBTITLETRANSLIT:;
#ARTISTTRANSLIT:;
#CREDIT:;
#BANNER:;
#BACKGROUND:;
#LYRICSPATH:;
#CDTITLE:;
#MUSIC:Can You feel The Music (MYFO Mix).mp3;
#OFFSET:0.000;
#SAMPLESTART:46.097;
#SAMPLELENGTH:12.000;
#SELECTABLE:YES;
#BPMS:0.000=130.160;
#STOPS:;
#BGCHANGES:;
// cache tags:
#FIRSTBEAT:2.000;
#LASTBEAT:195.000;
#SONGFILENAME:Songs/new cedric/Can You feel The Music (MYFO Mix)/Can You feel The Music (MYFO Mix).sm;
#HASMUSIC:1;
#HASBANNER:0;
#MUSICLENGTH:90.043;
// end cache tags

//---------------dance-single - Beginner----------------
#NOTES:
     dance-single:
     Beginner:
     Beginner:
     1:
     0.132,0.162,0.000,0.056,0.000,78.000,0.000,5.000,0.000,0.000:
0000
0000
1000
0000
,
0001
0000
0100
0000
,
0010
0000
1000
0000
,
0001
0000
0100
0000
,
0010
0000
0100
0000
,
0001
0000
1000
0000
,
0010
0000
0100
0000
,
0001
0000
1000
0000
,
0010
0000
0100
0000
,
0001
0000
0100
0000
,
0010
0000
1000
0000
,
0001
0000
0100
0000
,
0010
0000
0200
0000
,
0301
0000
1000
0000
,
0010
0000
0100
0000
,
0001
0000
1000
0000
,
0010
0000
0100
0000
,
0001
0000
0100
0000
,
0010
0000
1000
0000
,
0001
0000
0100
0000
,
0010
0000
1000
0002
,
0000
0000
0000
0000
,
0000
0000
0000
0000
,
2003
0000
0000
0000
,
0000
0000
0000
0000
,
3200
0000
0000
0000
,
0000
0000
0000
0000
,
0310
0000
0000
0000
,
0001
0000
0000
0000
,
1000
0000
0000
0000
,
0001
0000
0000
0000
,
0100
0000
0000
0000
,
0010
0000
0100
0000
,
0002
0000
0000
0000
,
0003
0000
0000
0000
,
0100
0000
0000
0000
,
0010
0000
0000
0000
,
1000
0000
0000
0010
,
0000
0100
0000
0001
,
0000
1000
0000
0100
,
0000
0010
0000
0100
,
0000
0001
0000
1000
,
0000
0001
0000
0100
,
0000
0010
0000
1000
,
0000
0001
0000
0100
,
0000
0010
0000
1000
,
0000
0001
0000
0100
,
0000
0001
0000
0010
,
0000
1000
0000
0100
;

//---------------dance-single - Easy----------------
#NOTES:
     dance-single:
     Easy:
     Easy:
     4:
     0.265,0.271,0.255,0.133,0.000,132.000,23.000,12.000,0.000,3.000:
0000
0000
1000
0000
,
0001
1000
0100
0000
,
0010
0001
1000
0000
,
0001
1000
0100
0000
,
0010
0001
0101
0000
,
0001
0100
1010
0000
,
0010
1000
1100
0000
,
0001
0100
1010
0000
,
0010
0001
0101
0000
,
0001
1000
0101
0000
,
0010
0100
1001
0000
,
0001
1000
0110
0000
,
0010
0001
0200
0000
,
0301
0000
1001
0100
,
0010
0000
0101
0100
,
0001
0000
1010
0100
,
0010
0000
0110
1000
,
0001
0000
0110
0001
,
0010
0000
1100
0000
,
0001
1000
0100
0001
,
0010
0100
1000
2002
,
0000
0000
0000
0000
,
0000
0000
0000
3000
,
2003
0002
0000
0000
,
0000
0000
0000
0003
,
3200
0002
0000
0000
,
0000
0000
0000
0000
,
0323
0000
0001
0000
,
0100
0100
0100
0000
,
0001
0001
0001
0000
,
0100
0100
0100
0000
,
2030
0010
0010
0010
,
0010
0000
0001
0001
,
0002
0000
0000
0000
,
3023
0000
0000
0000
,
0230
0000
0000
0000
,
0311
0000
0000
0000
0000
0000
0000
0100
,
0000
1000
0000
0100
0000
0001
0000
0010
,
1000
0100
0010
1001
,
0000
1000
0001
0101
,
0000
1010
0100
1100
,
0001
0001
1000
1000
,
0001
0101
0000
0100
,
0001
0010
0001
1000
,
0100
1001
0000
1100
,
0000
0010
0001
1000
,
0100
0001
1000
0100
,
0010
0001
0100
0010
,
0001
1000
0001
0100
;

//---------------dance-single - Difficult----------------
#NOTES:
     dance-single:
     Difficult:
     Medium:
     6:
     0.441,0.433,0.255,0.089,0.000,247.000,23.000,8.000,0.000,1.000:
0000
0000
1000
0001
,
1001
0000
0100
1000
0100
0000
0001
0000
,
0011
0000
1000
0000
1010
0000
0001
0100
,
0001
0200
0001
1000
,
0311
0000
0100
1000
0100
0000
0110
0000
,
0001
0000
0100
0010
1000
0001
0100
0000
,
0011
0000
0100
1000
0100
1000
0010
0000
,
0101
0000
1000
0100
1000
0001
0010
0001
,
0010
0000
1000
0010
0100
0000
0001
0000
,
0101
0000
0100
1000
0100
0000
0001
0000
,
0011
0000
0001
0100
1000
0000
1000
0000
,
0001
0000
0100
1000
0100
0000
0010
0001
,
0010
0000
0100
1000
0200
0000
0001
0000
,
0301
0000
1000
0100
1000
0000
0001
0000
,
0011
0000
0100
1000
0100
0000
0001
0000
,
0101
0000
0001
0100
1000
0000
0010
0000
,
0011
0100
1100
0100
,
1001
0000
0001
1000
0100
0000
0010
0001
,
0010
0000
1000
0100
1000
0000
0001
0010
,
0001
0000
0100
1000
0100
0000
0001
0000
,
0010
0000
1000
0100
1000
0100
0002
0000
,
1000
0100
1000
0100
,
1000
0100
1000
0100
,
2003
0001
0010
0001
,
0010
0001
0010
0001
,
3200
1000
0010
1000
,
0010
1000
0010
1000
,
0320
1000
1000
0001
,
0001
0100
0100
1000
,
1000
0001
0001
0100
,
0100
1000
1000
0100
,
0100
0000
0001
0000
0001
0000
0100
0030
,
0010
1001
1100
0011
,
0001
1000
0100
0001
0010
1000
0100
0001
,
0010
0000
1001
0000
0011
0000
0100
2200
,
0000
0000
0000
0000
,
0000
0000
0000
0000
3300
0000
0000
0100
,
0000
1100
0000
0011
0000
0011
0000
0001
,
1000
0001
0100
0000
0010
0100
0001
0010
,
0001
0000
1000
0001
1000
0010
0100
0000
,
0100
0001
0010
0001
1000
0000
0100
1000
,
0010
0100
0001
0000
0001
0100
1000
0100
,
0001
0000
0001
0100
0001
1000
0100
0000
,
0001
0100
1000
0001
0100
0000
1000
0010
,
0100
0010
0001
0000
0100
0010
0100
1000
,
0000
0001
0010
0000
0100
1000
1000
0001
,
0001
0100
0001
0000
0100
0010
0100
0100
,
0001
0001
0001
0000
0100
0010
0010
0000
,
1000
0100
1000
0001
1000
0010
0100
0000
;

//---------------dance-single - Heavy----------------
#NOTES:
     dance-single:
     Heavy:
     Hard:
     9:
     0.603,0.650,0.244,0.122,0.472,347.000,22.000,11.000,0.000,4.000:
0000
0000
1000
1100
,
0001
1010
0101
0010
,
0110
0011
1100
1000
,
0101
1010
1100
0001
,
0011
0000
0000
0000
1010
0000
0000
0000
0100
0010
0100
0000
1001
0000
0000
0000
,
0001
1000
0001
0100
1000
0010
0100
0001
,
0010
0000
0100
0000
1000
0000
0001
0000
0100
0000
1000
0000
0100
0000
0001
1000
,
0000
0001
1000
0000
0001
0000
0100
0000
1000
0000
0001
0000
0100
0000
0010
0100
,
0000
0010
0100
0000
1000
0000
0001
0000
1000
0000
0100
0010
0100
0000
0010
0100
,
0000
0010
0100
0000
1000
0000
0001
0000
0100
0000
0000
0000
0010
0000
0001
0010
,
0000
0001
0010
0000
1000
0000
0100
0000
1000
0000
0000
0000
1000
0000
0100
0001
,
0000
0100
0001
0000
0010
0000
0100
0010
0000
0010
0100
0000
1000
0000
0100
0010
,
0000
0000
0000
0100
0000
0000
0010
0000
0000
0000
0000
0000
1000
0000
0000
0000
0000
0000
0100
0000
0000
0000
0000
0000
1000
0000
0000
0000
0100
0000
0000
0000
1000
0000
0000
0000
0100
0000
0000
0000
0000
0000
0000
0000
0000
0001
0000
0000
,
0000
0000
1000
0000
0001
0000
0100
0000
1000
0000
0000
0000
0001
0000
0000
0100
,
0000
0000
0010
0000
1000
0000
0001
0000
0100
0000
0000
0000
0010
0000
0000
0100
,
0000
0000
0001
0000
0100
0000
1000
0000
1000
0000
0000
0000
1000
0000
0000
0001
,
0000
0000
0100
0000
0010
0000
0001
0000
0100
0000
0000
0000
1100
0000
0000
0001
,
0000
0000
1000
0000
0001
0000
0010
0000
0100
0000
0000
0000
0101
0000
0000
0010
,
0000
0000
1000
0000
0001
0000
0100
0000
1000
0000
0000
0000
1000
0100
0000
0100
,
0000
0000
0010
0000
0100
1000
0000
1000
0000
0000
1000
0000
0001
1000
0000
1000
,
0000
0100
1000
0100
1000
0010
0002
0000
,
0103
0010
1000
0001
0100
0010
1000
0001
,
0100
0010
0100
0001
1000
0001
0100
0000
,
0020
0100
0001
1000
,
0001
0100
0001
0001
,
1230
1000
1000
0010
,
0010
0001
0001
0010
,
0320
0100
1000
0001
,
0001
0000
0100
0100
0100
0000
1000
1000
,
1000
0000
0100
0100
0100
0000
0001
0001
,
0001
0000
1000
1000
1000
0000
0100
0100
,
0100
0000
0001
0001
0001
0000
0100
0100
,
0130
0000
0000
0000
1000
0100
0000
0000
0100
0010
0000
0000
0001
1000
0000
0100
,
0000
0010
0000
0001
0000
0100
0000
0010
0000
0001
0000
1000
0001
0100
0001
0100
,
0001
1000
0001
1000
0001
1000
0001
1000
0100
1000
0010
0100
0001
0100
1000
0000
,
0100
0000
0000
0010
0000
0000
0100
0010
0000
0100
0000
0000
0010
0000
0000
0100
,
0010
0000
0100
0010
0000
0000
0001
0100
0000
0100
0000
0010
0100
0000
2200
0000
,
0000
3322
0000
2233
0000
3320
0000
0100
,
1030
0001
0100
1000
0010
0100
0001
0010
,
0100
0000
0010
0000
1000
0000
0001
0000
1000
0000
0001
0000
0100
0000
0000
1000
,
0000
1000
0000
1000
0010
0000
0000
0001
0000
0001
0100
0000
0101
0000
0000
1000
,
0000
1000
0000
1000
0001
0000
0100
0010
0000
0010
0100
0000
1000
0000
1000
0100
,
0000
0100
0000
0010
0001
0000
1000
0010
0000
0010
0001
0000
0100
0000
0010
0100
,
0000
0010
0000
0100
0010
0000
0100
0010
0000
0010
1000
0000
1100
0000
1000
0100
,
0000
1100
0000
0100
0001
0000
1000
0100
0000
0010
0100
0000
1100
0000
0001
0100
,
0000
0001
0000
1000
0010
0000
0100
0000
0001
0000
0000
0000
1000
0000
0000
0000
,
0010
1000
0001
0100
0001
1000
0100
0010
,
0100
0010
0001
1000
0001
0100
0010
0001
,
0100
0010
1000
0001
1000
0010
0100
0000
;
