#TITLE:Megalovania;
#SUBTITLE:Undertale OST\;
#ARTIST:Toby Fox;
#TITLETRANSLIT:;
#SUBTITLETRANSLIT:;
#ARTISTTRANSLIT:;
#CREDIT:owenviau1;
#BANNER:BN.PNG;
#BACKGROUND:BG.PNG;
#LYRICSPATH:;
#CDTITLE:../CDTitleOV1.png;
#MUSIC:Toby Fox - Megalovania.mp3;
#OFFSET:-0.019;
#SAMPLESTART:16.516;
#SAMPLELENGTH:29.338;
#SELECTABLE:YES;
#DISPLAYBPM:240.000;
#BPMS:0.000=240.000;
#STOPS:;
#BGCHANGES:;
// cache tags:
#FIRSTBEAT:0.000;
#LASTBEAT:623.500;
#SONGFILENAME:Songs/owenviau1 Simfiles 7/Megalovania - [owenviau1] v1.1.0/Megalovania.sm;
#HASMUSIC:1;
#HASBANNER:1;
#MUSICLENGTH:156.029;
// end cache tags

//---------------dance-single - 1.02 (1) (owenviau1)----------------
#NOTES:
     dance-single:
     1.02 (1) (owenviau1):
     Beginner:
     1:
     0.116,0.200,0.051,0.019,0.000,116.000,8.000,3.000,0.000,0.000:
1000
0000
0000
0000
,
0000
0000
0000
0000
,
1000
0000
0000
0000
,
0000
0000
0000
0000
,
0001
0000
0000
0000
,
0000
0000
0000
0000
,
0010
0000
0000
0000
,
0000
0000
0000
0000
,
0100
0000
0000
0000
,
0000
0000
0000
0000
,
1000
0000
0000
0000
,
0000
0000
0000
0000
,
0010
0000
0000
0000
,
0000
0000
0000
0000
,
0100
0000
0000
0000
,
0000
0000
0000
0000
,
1001
0000
0000
0000
,
0000
1000
0000
0000
,
0000
0000
0000
0010
,
0000
0000
0000
0000
,
0100
0000
0000
0000
,
0000
0000
0000
0000
,
0001
0000
0000
0000
,
0000
0000
1000
0000
,
0000
0000
0000
0100
,
0000
0000
0000
0000
,
0001
0000
0000
0000
,
0000
0000
0000
0000
,
0010
0000
0000
0000
,
0000
0000
0000
0000
,
0100
0000
0000
0000
,
0000
0000
0000
0000
,
1001
0000
0000
0000
,
1000
0000
0000
0000
,
0010
0000
0000
0000
,
0100
0000
0000
0000
,
0001
0000
0000
0000
,
1000
0000
0000
0000
,
0100
0000
0000
0000
,
2000
0000
0000
0000
,
3001
0000
0000
0000
,
0010
0000
0000
0000
,
0100
0000
0000
0000
,
0000
0000
1000
0000
,
0010
0000
0000
0000
,
0010
0000
0000
0000
,
0100
0000
0000
0000
,
0001
0000
0000
0000
,
1001
0000
0000
0000
,
1000
0000
0000
0000
,
0100
0000
0100
0000
,
0000
0000
0000
0000
,
0010
0000
0000
0000
,
0001
0000
0000
0000
,
1000
0000
0000
0000
,
0020
0000
0000
0000
,
0130
0000
0000
0000
,
0001
0000
0000
0000
,
1000
0000
0000
0000
,
0100
0000
0000
0000
,
0010
0000
0000
0000
,
0001
0000
0000
0000
,
1000
0000
0000
0000
,
0020
0000
0000
0000
,
0130
0000
0000
0000
,
0001
0000
0000
0000
,
1000
0000
0000
0000
,
0000
0000
0000
0000
,
0100
0000
0000
0000
,
0010
0000
0000
0000
,
0001
0000
0000
0000
,
1000
0000
0000
0000
,
1001
0000
0000
0000
,
0001
0000
0000
0000
,
0010
0000
0000
0000
,
0100
0000
0000
0000
,
1000
0000
0000
0000
,
0010
0000
0000
0000
,
0100
0000
0000
0000
,
0001
0000
0000
0000
,
0110
0000
0000
0000
,
1000
0000
0000
0000
,
0010
0000
0000
0000
,
0100
0000
0000
0000
,
0001
0000
0000
0000
,
1000
0000
0000
0000
,
0100
0000
0000
0000
,
1000
0000
0000
0000
,
0001
0000
0000
0000
,
0000
0000
0000
0000
,
1000
0000
0000
0000
,
0000
0000
0000
0000
,
0100
0000
0000
0000
,
0000
0000
0000
0000
,
0010
0000
0000
0000
,
0000
0000
0000
0000
,
0001
0000
0000
0000
,
1000
0000
0000
0000
,
0010
0000
0000
0000
,
0000
0000
0100
0000
,
0000
0000
0000
0000
,
0001
0000
0000
0000
,
1000
0000
0000
0000
,
0000
0000
0100
0000
,
0000
0000
0010
0000
,
0000
0000
0000
0000
,
0001
0000
0000
0000
,
0000
0000
1000
0000
,
0000
0010
0000
0000
,
0000
0000
0100
0000
,
0000
0000
0001
0000
,
0000
0000
1000
0000
,
1001
0000
0000
0000
,
0010
0000
0000
0000
,
0100
0000
0000
0000
,
0000
0000
0000
0001
,
0000
0000
0000
0000
,
0000
1000
0000
0000
,
0000
0000
0000
0000
,
0010
0000
0000
0000
,
0100
0000
0000
0000
,
0000
0000
0000
0000
,
0001
0000
0000
0000
,
0000
0000
0000
0000
,
1000
0000
0000
0000
,
0000
0000
0000
0000
,
0100
0000
0000
0000
,
0000
0000
0000
0000
,
0010
0000
0000
0000
,
0000
0000
0000
0000
,
0001
0000
0000
0000
,
0000
0000
0000
0000
,
1000
0000
0000
0000
,
0000
0000
0000
0000
,
0001
0000
0000
0000
,
0000
0000
0000
0000
,
1001
0000
0000
0000
,
0000
0000
0000
0000
,
0010
0000
0000
0000
,
0000
0000
0000
0000
,
0110
0000
0000
0000
,
0000
0000
0000
0000
,
0010
0000
0000
0000
,
0000
0000
0000
0000
,
1000
0000
0000
0000
,
0000
0000
0000
0000
,
0001
0000
0000
0000
,
0000
0000
0000
0000
,
0010
0000
0000
0000
,
0000
0000
0000
0000
,
0100
0000
0000
0000
,
0000
0000
0000
0000
,
1000
0000
0000
0000
,
0000
0000
0000
0000
,
0001
0000
0000
0000
,
0000
0000
0000
0000
0000
0000
0000
1000
,
0000
0000
0000
0000
;

//---------------dance-single - 2.96 (3-) (owenviau1----------------
#NOTES:
     dance-single:
     2.96 (3-) (owenviau1:
     Easy:
     3:
     0.259,0.300,0.058,0.000,0.000,274.000,9.000,0.000,0.000,0.000:

1000
0000
0000
0000
0100
0000
0000
0010
,
0000
0000
0000
0001
0000
0000
0000
0000
,
1000
0000
0000
0000
0010
0000
0000
0100
,
0000
0000
0000
0001
0000
0000
0000
0000
,
1000
0000
0000
0000
0100
0000
0000
1000
,
0000
0000
0000
0010
0000
0000
0000
0000
,
0100
0000
0000
0000
0001
0000
0000
1000
,
0000
0000
0000
0100
0000
0000
0000
0000
,
0010
0000
0000
0000
0001
0000
0000
1000
,
0000
0000
0000
0010
0000
0000
0000
0000
,
0100
0000
0000
0000
0001
0000
0000
1000
,
0000
0000
0000
0100
0000
0000
0000
0000
,
1000
0000
0000
0000
0010
0000
0000
0100
,
0000
0000
0000
0001
0000
0000
0000
0000
,
0010
0000
0000
0000
0100
0000
0000
1000
,
0000
0000
0000
0010
0000
0000
0000
0000
,
1001
1000
0000
0010
,
0000
0100
0000
0001
,
0000
0100
0000
0010
,
0000
1000
0000
0001
,
0000
0010
0000
0001
,
0000
1000
0000
0100
,
0000
1000
0000
0010
,
0000
0100
0000
0000
,
1001
0000
0000
1000
,
0000
0010
0000
0100
,
0000
0001
0000
1000
,
0000
0100
0000
0010
,
0000
0001
0000
1000
,
0000
0010
0000
0100
,
0000
0010
0000
1000
,
0000
0001
0000
0000
,
0101
0000
0000
0100
,
0000
0010
0000
1000
,
0000
0010
0000
0100
,
0000
0001
0000
0010
,
0000
0001
0000
1000
,
0000
0100
0000
1000
,
0000
0010
0000
0100
,
0100
0000
0000
0001
0000
0000
1000
0000
,
0001
0000
0000
0010
,
0000
0100
0000
1000
,
0000
0010
0000
0100
,
0000
0010
0000
1000
,
0000
1000
0000
0001
,
0000
0010
0000
0100
,
0000
1000
0000
0010
,
0000
0100
0000
0000
,
1001
0000
0000
0001
,
0000
0010
0000
0100
,
0000
1000
0000
0010
,
0000
0100
0000
0010
,
0000
1000
0000
0001
,
0000
0010
0000
0100
,
0000
1000
0000
0010
,
0000
0100
0000
0010
,
0000
1000
0000
0001
,
0000
0010
0000
0001
,
0000
1000
0000
0100
,
0000
1000
0000
0010
,
0000
0100
0000
0010
,
0000
1000
0000
0001
,
0000
0010
0000
0100
,
0000
0001
0000
0000
,
1001
0000
0000
1000
,
0000
0010
0000
0100
,
0000
0010
0000
1000
,
0000
0100
0000
1000
,
0000
0001
0000
0010
,
0000
0100
0000
1000
,
0000
0010
0000
0100
,
0000
0010
0000
0000
,
1001
0000
0000
0001
,
0000
0010
0000
0100
,
0000
1000
0000
0010
,
0000
0100
0000
0001
,
0000
1000
0000
0100
,
0000
1000
0000
0010
,
0000
0100
0000
0001
,
0000
1000
0000
0000
,
1001
0000
0000
0000
,
1000
0000
0000
0000
,
0010
0000
0000
0000
,
0100
0000
0000
0000
,
0001
0000
0000
0000
,
1000
0000
0000
0000
,
0100
0000
0000
0000
,
0010
0000
0000
0000
,
0001
0000
0000
0000
,
1000
0000
0000
0000
,
0100
0000
0000
0000
,
1000
0000
0000
0000
,
0010
0000
0000
0000
,
0100
0000
0000
0000
,
0001
0000
0000
0000
,
1000
0000
0000
0000
,
0100
0000
0000
0000
,
0010
0000
0000
0000
,
0001
0000
0000
0000
,
1000
0000
0000
0000
,
0010
0000
0000
0000
,
0100
0000
0000
0000
,
0001
0000
0000
0000
,
1000
0000
0000
0000
,
0100
0000
0000
0000
,
1000
0000
0000
0000
,
0010
0000
0000
0000
,
0100
0000
0000
0000
,
1001
0000
0000
0000
,
0000
0000
0000
0000
,
0110
0000
0000
0000
,
0000
0000
0000
0000
,
1000
0000
0000
0001
,
0000
0010
0000
0100
,
0000
1000
0000
0010
,
0000
1000
0000
0001
,
0000
0010
0000
0001
,
0000
1000
0000
0100
,
0000
0010
0000
0001
,
0000
0100
0000
0010
,
0000
1000
0000
0100
,
0000
1000
0000
0010
,
0000
0100
0000
0001
,
0000
1000
0000
0100
,
0000
0010
0000
0001
,
0000
0100
0000
0010
,
0000
1000
0000
0001
,
0000
0010
0000
0100
,
0000
1000
0000
0010
,
0000
1000
0000
0100
,
0000
1000
0000
0001
,
0000
0100
0000
0001
,
0000
1000
0000
0010
,
0000
0100
0000
0010
,
0000
1000
0000
0001
,
0000
0010
0000
0100
,
0000
1000
0000
0010
,
0000
0100
0000
0010
,
0000
1000
0000
0001
,
0000
0010
0000
0001
,
0000
0100
0000
0010
,
0000
1000
0000
0100
,
0000
0010
0000
0001
,
0000
0100
0000
0010
,
0000
0000
0000
0000
0010
0000
0000
0001
,
0000
0000
0000
0001
0000
0000
0000
0000
,
1000
0000
0000
0000
0010
0000
0000
0100
,
0000
0000
0000
0001
0000
0000
0000
0000
,
1000
0000
0000
0000
0100
0000
0000
1000
,
0000
0000
0000
0010
0000
0000
0000
0000
,
0100
0000
0000
0000
0001
0000
0000
1000
,
0000
0000
0000
0100
0000
0000
0000
0000
,
0010
0000
0000
0000
0001
0000
0000
1000
,
0000
0000
0000
0010
0000
0000
0000
0000
,
0100
0000
0000
0000
0001
0000
0000
1000
,
0000
0000
0000
0100
0000
0000
0000
0010
;

//---------------dance-single - 9.26 (9) (owenviau1 ----------------
#NOTES:
     dance-single:
     9.26 (9) (owenviau1 :
     Medium:
     9:
     0.786,0.849,0.250,0.442,0.010,750.000,39.000,69.000,0.000,0.000:
1000
0100
0010
0000
0001
0000
0000
0100
,
0000
0010
0000
2000
0000
3100
0010
0001
,
1000
0010
1000
0000
0100
0000
0000
0010
,
0000
0001
0000
2000
0000
3010
0100
0010
,
1000
0001
0010
0000
0100
0000
0000
1000
,
0000
0010
0000
2000
0000
3010
0100
0010
,
1000
0001
0100
0000
0010
0000
0000
1000
,
0000
0010
0000
0200
0000
0301
0010
0100
,
1000
0100
0010
0000
0001
0000
0000
0100
,
0000
0010
0000
2000
0000
3100
0010
0001
,
1000
0010
1000
0000
0100
0000
0000
0010
,
0000
0001
0000
2000
0000
3010
0100
0010
,
1000
0001
0010
0000
0100
0000
0000
1000
,
0000
0010
0000
2000
0000
3010
0100
0010
,
1000
0001
0100
0000
0010
0000
0000
1000
,
0000
0010
0000
0200
0000
0301
0010
0100
,
1000
0100
0010
0000
0101
0000
0000
0011
,
0000
0110
0000
1100
0000
1000
0001
0010
,
0001
0100
0010
0000
1100
0000
0000
1010
,
0000
0110
0000
0101
0000
0001
1000
0010
,
1000
0001
0010
0000
0101
0000
0000
0011
,
0000
0110
0000
1100
0000
1000
0001
0010
,
0001
1000
0010
0000
1100
0000
1000
0001
,
1001
0000
0100
0110
0000
1000
1001
0000
,
0001
1000
0010
1000
0100
0010
0001
0100
,
0000
0110
0000
1010
0000
0001
1000
0010
,
1000
0001
0010
0001
0100
0010
1000
0100
,
0000
0110
0000
0011
0000
1000
0001
0010
,
0001
1000
0100
0010
0001
0100
0010
1000
,
0000
0110
0000
0011
0000
1000
0100
0010
,
0001
0100
0010
1000
0010
0100
0001
0010
,
0110
0000
1000
1100
0000
0001
0101
0000
,
2000
0000
3010
1000
0000
0100
0000
2000
,
0000
3010
0000
0200
0000
0000
0300
0000
,
0002
0000
0013
0100
0000
0010
0000
0001
,
0000
0000
0100
0001
0100
0000
0010
0000
1000
0000
0001
0000
0000
0000
0000
0000
,
2000
0000
3100
0010
0000
0001
0000
1000
,
0000
0010
0000
0100
0000
0002
0000
0000
,
0013
0000
0001
0000
1000
0010
0100
0002
,
0000
0000
1000
1000
0000
1000
1003
0000
,
0001
0100
0001
1000
0100
0010
0001
0100
,
0010
1000
0000
0200
0000
0000
0000
0300
,
1000
0100
1000
0001
0100
0010
1000
0100
,
0010
0001
0000
0100
0000
0010
1000
0000
,
0002
0203
0320
2030
,
3002
0023
0230
2300
,
3001
0000
1000
0100
0000
0010
0000
0002
,
0000
0000
1000
1000
0000
1000
1003
0000
,
0001
0100
0010
0100
0001
0100
0010
0100
,
0001
0010
0100
1000
0010
0100
0010
1000
,
0001
0010
0001
0000
0200
0000
0000
0000
0320
0000
0000
0000
0000
0000
0000
0000
,
0000
0000
0000
0000
0030
1000
0000
0001
,
0010
0000
0100
1000
0100
1000
0001
0010
,
0002
2003
3200
0320
,
0032
0000
0103
0000
0001
1000
0001
1000
,
0100
0000
1000
0100
0000
1000
0001
0000
,
2000
3200
0320
0032
,
2003
0000
3200
0000
,
2300
0000
3002
0000
,
0203
0000
0320
0000
,
2030
0000
0000
3000
,
0001
0010
0100
1000
0001
0100
0010
1000
,
0200
0000
0000
0000
,
0310
0000
0010
0011
0000
0001
1001
0000
,
1000
0100
0010
0100
1000
0100
0010
0100
,
1000
0010
0100
0001
0010
0100
0010
0001
,
1000
0010
1000
0000
0200
0000
0000
0000
0320
0000
0000
0000
0000
0000
0000
0000
,
0000
0000
0000
0000
0030
0001
0000
1000
,
0010
0000
0100
0001
0100
0001
1000
0010
,
2000
3002
0203
0320
,
2030
0000
3100
0000
1000
0001
1000
0001
,
0100
0000
0001
0100
0000
0001
1000
0000
,
0002
0023
0230
2300
,
3002
0000
0203
0000
,
0302
0000
2003
0000
,
3200
0000
0320
0000
,
0032
0000
0000
0003
,
1000
0001
0100
0010
1000
0001
0010
0100
,
2000
0000
0000
0000
,
3001
0000
0100
0110
0000
0010
1010
0000
,
0001
0000
1000
0000
0100
1000
0000
0001
,
0000
1000
0000
0100
1000
0100
0010
0000
,
0001
0000
1000
0000
0010
1000
0000
0001
,
0000
1000
0000
0010
0100
0010
1000
0000
,
0100
0000
0010
0000
0001
1000
0000
0001
,
0000
0010
0000
0001
0100
0010
1000
0000
,
0010
0000
0100
0000
0001
1000
0000
0001
,
0000
0100
0000
0001
0010
0100
1000
0010
,
1000
0000
0001
0000
0100
0001
0000
1000
,
0000
0001
0000
0100
0001
0100
0010
0000
,
1000
0000
0001
0000
0010
0001
0000
1000
,
0000
0001
0000
0010
0100
0010
0001
0000
,
0100
0000
0010
0000
1000
0001
0000
1000
,
0000
0010
0000
1000
0100
0010
0001
0000
,
0010
0000
0100
0000
1000
0001
0000
1000
,
0000
0100
0000
1000
0010
0100
0001
0010
,
0001
0100
0010
0000
1000
0000
0000
0100
,
0000
0010
0000
0001
0000
0100
0010
1000
,
0001
0010
0100
0000
1000
0000
0000
0010
,
0000
0100
0000
0001
0000
0010
0100
1000
,
0001
1000
0010
0000
0100
0000
0000
0001
,
0000
0010
0000
0100
0000
1000
0100
0010
,
0001
0100
0010
1000
0001
0000
0010
0000
,
0100
1000
0000
0001
0000
0100
0010
1000
,
0001
0010
0100
0000
1000
0000
0000
0010
,
0000
0100
0000
0001
0000
0010
0100
1000
,
0001
0100
0010
0000
1000
0000
0000
0100
,
0000
0010
0000
0001
0000
0100
0010
1000
,
0000
0000
1100
0000
0101
0000
0000
0110
,
0000
1010
0000
1001
0000
1000
0100
0010
,
0000
0000
0011
0000
1010
0000
0000
0101
,
0000
0110
0000
1001
0000
1000
0100
0010
,
0001
0100
0010
1000
,
0100
0000
0010
0000
0001
1000
0001
0000
,
1000
0010
0100
0001
,
0010
0000
0100
0000
1000
0001
1000
0000
,
0001
0100
0010
1000
,
0001
0010
0100
1000
,
0001
0100
0010
0100
,
0001
0010
0100
0010
,
0001
0010
0100
1000
,
0010
0000
0100
0000
0001
1000
0001
0000
,
1000
0100
0010
0001
,
0100
0000
0010
0000
1000
0001
1000
0000
,
0001
0000
0010
0000
0100
0000
0000
1000
,
0000
0001
0000
1000
0000
0010
0100
0001
,
1000
0000
0100
0000
0010
0000
0000
0001
,
0000
1000
0000
0010
0000
1000
0001
0010
,
0001
0100
0010
1000
,
0100
0000
0010
0000
0001
1000
0001
0000
,
1000
0010
0100
0001
,
0010
0000
0100
0000
1000
0001
1000
0000
,
0001
0100
0010
1000
,
0001
0010
0100
1000
,
0001
0100
0010
0100
,
0001
0010
0100
0010
,
0001
0010
0100
1000
,
0010
0000
0100
0000
0001
1000
0001
0000
,
1000
0100
0010
0001
,
0100
0000
0010
0000
1000
0001
1000
0000
,
0001
0000
0010
0000
0100
0000
0000
1000
,
0000
0001
0000
1000
0000
0010
0100
0001
,
1000
0000
0100
0000
0010
0000
0000
0001
,
0000
1000
0000
0010
0000
1000
0001
0010
,
0100
1000
0010
0000
0100
0000
0000
0001
,
0000
1000
0000
2000
0000
3100
0010
0001
,
1000
0010
1000
0000
0100
0000
0000
0010
,
0000
0001
0000
2000
0000
3010
0100
0010
,
1000
0001
0010
0000
0100
0000
0000
1000
,
0000
0010
0000
2000
0000
3010
0100
0010
,
1000
0001
0100
0000
0010
0000
0000
1000
,
0000
0010
0000
0200
0000
0301
0010
0100
,
1000
0100
0010
0000
0001
0000
0000
0100
,
0000
0010
0000
2000
0000
3100
0010
0001
,
1000
0010
1000
0000
0100
0000
0000
0010
,
0000
0001
0000
2000
0000
3010
0100
0001
,
0000
0000
0000
0000
;

//---------------dance-single - 13.98 (14-) (owenvia----------------
#NOTES:
     dance-single:
     13.98 (14-) (owenvia:
     Hard:
     14:
     1.000,1.000,0.000,0.064,1.000,1608.000,0.000,10.000,0.000,0.000:
1000
0100
0010
0000
0001
0000
0000
0100
,
0000
0010
0000
2000
0000
3100
0010
0001
,
1000
0010
1000
0000
0100
0000
0000
0010
,
0000
0001
0000
2000
0000
3010
0100
0010
,
1000
0001
0010
0000
0100
0000
0000
1000
,
0000
0010
0000
2000
0000
3010
0100
0010
,
1000
0001
0100
0000
0010
0000
0000
1000
,
0000
0010
0000
0200
0000
0301
0010
0100
,
1000
0010
0100
0001
1000
0100
1000
0010
,
0100
0001
1000
0100
0010
0001
0100
0010
,
1000
0001
0100
0001
0010
0100
1000
0010
,
0100
0001
1000
0100
1000
0010
0100
0010
,
1000
0001
0010
0100
1000
0010
0100
0001
,
1000
0100
0010
0001
0100
0010
0100
0001
,
1000
0010
0100
0010
1000
0001
0010
0001
,
1000
0100
0010
0001
0100
0010
1000
0001
,
1000
0100
0010
0001
0100
0010
1000
0001
0010
0100
1000
0010
,
0100
0010
1000
0001
0100
0001
0010
0100
1000
0010
0100
0001
,
1000
0100
1000
0010
0100
0001
0010
0001
1000
0100
0010
0001
,
0100
0010
1000
0001
0010
0100
1000
0010
0100
0001
0100
0010
,
1000
0001
1000
0010
0100
0001
1000
0100
1000
0001
0010
0100
,
1000
0010
0100
0010
1000
0001
0010
0001
0100
0010
1000
0001
,
0010
0100
1000
0010
0100
0001
1000
0100
0010
0001
0100
0010
,
1000
0100
0010
0001
0100
0010
1000
0001
0010
0100
1000
0010
,
0100
0010
1000
0001
0100
0001
0010
0100
1000
0010
0100
0001
,
1000
0100
1000
0010
0100
0001
0010
0001
1000
0100
0010
0001
,
0100
0010
1000
0001
0010
0100
1000
0010
0100
0001
0100
0010
,
1000
0001
1000
0010
0100
0001
1000
0100
1000
0001
0010
0100
,
1000
0010
0100
0010
1000
0001
0010
0001
0100
0010
1000
0001
,
0010
0100
1000
0010
0100
0001
1000
0100
0010
0001
0100
0010
,
1000
0100
0010
0001
0100
0010
1000
0001
0010
0100
1000
0010
,
0100
0010
1000
0001
0100
0001
0010
0100
1000
0010
0100
0001
,
1000
0100
1000
0010
0100
0001
0010
0001
1000
0100
0010
0001
,
0100
0010
1000
0001
0010
0100
1000
0010
0100
0001
0100
0010
,
1000
0001
1000
0010
0100
0001
1000
0100
1000
0001
0010
0100
,
1000
0010
0100
0010
1000
0001
0010
0001
0100
0010
1000
0001
,
0010
0100
1000
0010
0100
0001
1000
0100
0010
0001
0100
0010
,
1000
0001
0100
0001
1000
0010
0100
0010
1000
0001
0010
0001
,
1000
0000
0100
0000
0010
0000
0001
0000
0100
0000
0010
0000
1000
0000
0001
0000
1000
0000
0100
0000
0000
0010
0000
0000
,
0001
0100
0010
0010
1000
0001
0001
0100
,
0010
1000
0100
1000
0001
0010
0001
0100
0010
1000
0001
0010
,
0100
1000
0010
0100
0001
1000
0100
1000
0010
0100
0010
1000
,
0001
0100
0001
1000
0100
0010
0001
0100
0010
1000
0010
0100
,
0001
0010
0001
1000
0100
0010
0001
0100
0010
0100
0001
1000
,
0010
0100
0010
1000
0001
0100
0001
0010
0100
1000
0010
0100
,
0001
1000
0100
1000
0010
0100
0001
1000
0100
0010
0001
0100
,
0010
1000
0001
0100
0001
0010
0100
1000
0001
0010
0001
0100
,
0010
1000
0100
0010
0001
1000
0100
1000
0010
0100
0001
1000
,
0100
0010
0001
0010
0100
1000
0010
1000
0100
1000
0001
0010
,
0001
0100
0010
1000
0001
0010
0100
1000
0010
0100
0001
1000
,
0100
1000
0010
0100
0010
1000
0001
0100
0001
1000
0100
0010
,
0001
1000
0100
1000
0001
0010
0001
0100
0010
1000
0001
0010
,
0100
1000
0010
0100
0001
1000
0100
1000
0010
0100
0010
1000
,
0001
0100
0001
1000
0100
0010
0001
0100
0010
1000
0010
0100
,
0001
0010
0001
1000
0100
0010
0001
0100
0010
0100
0001
1000
,
0010
0100
0010
1000
0001
0100
0001
0010
0100
1000
0010
0100
,
0001
1000
0100
1000
0010
0100
0001
1000
0100
0010
0001
0100
,
0010
1000
0001
0010
0001
0100
0010
1000
0001
0010
0001
0100
,
0010
1000
0100
0010
0001
1000
0100
1000
0010
0100
0001
1000
,
0100
0010
0001
0010
0100
1000
0001
0100
0010
0100
0001
1000
,
0100
1000
0010
0100
0001
1000
0100
0010
0001
0010
0100
1000
,
0001
0010
0001
1000
0100
1000
0010
0100
0001
1000
0100
0010
,
0001
0100
0010
1000
0001
0010
0100
1000
0010
0100
0001
0100
,
0010
1000
0100
0100
0010
0001
0001
1000
,
0001
0010
0100
1000
0001
0010
0001
0100
0010
1000
0001
0010
,
0100
1000
0010
0100
0001
1000
0100
1000
0010
0100
0010
1000
,
0001
0100
0001
1000
0100
0010
0001
0100
0010
1000
0010
0100
,
0001
0010
0001
1000
0100
0010
0001
0100
0010
0100
0001
1000
,
0010
0100
0010
1000
0001
0100
0001
0010
0100
1000
0010
0100
,
0001
1000
0100
1000
0010
0100
0001
1000
0100
0010
0001
0100
,
0010
1000
0001
0010
0001
0100
0010
1000
0001
0010
0001
0100
,
0010
1000
0100
0010
0001
1000
0100
1000
0010
0100
0001
1000
,
0100
0010
0001
0010
0100
1000
0001
0100
0010
1000
0001
0010
,
0001
0100
0010
1000
0001
0010
0100
1000
0010
0100
0001
1000
,
0100
1000
0010
0100
0010
1000
0001
0100
0001
1000
0100
0010
,
0001
0100
0010
1000
0010
0100
0001
0010
0001
1000
0100
0010
,
0001
0100
0010
0100
0001
1000
0010
0100
0010
1000
0001
0100
,
0001
0010
0100
1000
0010
0100
0001
1000
0100
1000
0010
0100
,
0001
1000
0100
0010
0001
0100
0010
1000
0001
0010
0001
0100
,
0010
1000
0001
0010
0001
0100
0010
1000
0100
0010
0001
1000
,
0001
0010
0100
1000
0010
0100
0001
1000
,
0100
1000
0010
0100
0001
1000
0100
0010
,
0001
0100
0010
1000
0001
0010
0001
1000
,
0010
1000
0100
0010
0001
0100
0010
1000
,
0001
0010
0100
1000
0001
0010
0001
0100
,
0010
1000
0001
0100
0001
1000
0100
1000
,
0010
0100
0010
1000
0001
0100
0001
1000
,
0100
0010
0001
0100
0010
1000
0001
0010
,
0100
1000
0001
0010
0001
1000
0100
1000
,
0010
0100
0001
0100
0010
1000
0001
1000
,
0100
0010
0001
0100
0010
1000
0001
0010
,
0100
1000
0010
0100
0001
1000
0100
1000
,
0010
0100
0001
1000
0100
1000
0010
0100
,
0010
1000
0001
0010
0001
0100
0010
1000
,
0001
0010
0100
1000
0010
0100
0001
1000
,
0100
0010
0001
0100
0010
1000
0001
0100
,
0001
0010
0100
1000
0001
0010
0001
0100
0010
1000
0001
0010
,
0100
1000
0010
0100
0001
1000
0100
1000
0010
0100
0010
1000
,
0001
0100
0001
1000
0100
0010
0001
0100
0010
1000
0010
0100
,
0001
0010
0001
1000
0100
0010
0001
0100
0010
0100
0001
1000
,
0010
0100
0010
1000
0001
0100
0001
0010
0100
1000
0010
0100
,
0001
1000
0100
1000
0010
0100
0001
1000
0100
0010
0001
0100
,
0010
1000
0001
0010
0001
0100
0010
1000
0001
0010
0001
0100
,
0010
1000
0100
0010
0001
1000
0100
1000
0010
0100
0001
1000
,
0100
0010
0001
0010
0100
1000
0001
0100
0010
1000
0001
0010
,
0001
0100
0010
1000
0001
0010
0100
1000
0010
0100
0001
1000
,
0100
1000
0010
0100
0010
1000
0001
0100
0001
1000
0100
0010
,
0001
0100
0010
1000
0010
0100
0001
0010
0001
1000
0100
0010
,
0001
0100
0010
1000
0001
0010
0000
0100
,
1000
0010
0100
0010
1000
0001
0010
0100
,
1000
0010
0100
0001
1000
0100
0000
0010
,
0001
1000
0010
1000
0001
0100
0010
1000
,
0001
0010
0100
1000
0001
0010
0001
0100
0010
1000
0001
0010
,
0100
1000
0010
0100
0001
1000
0100
1000
0010
0100
0010
1000
,
0001
0100
0001
1000
0100
0010
0001
0100
0010
1000
0010
0100
,
0001
0010
0001
1000
0100
0010
0001
0100
0010
0100
0001
1000
,
0010
0100
0010
1000
0001
0100
0001
0010
0100
1000
0010
0100
,
0001
1000
0100
1000
0010
0100
0001
1000
0100
0010
0001
0100
,
0010
1000
0001
0010
0001
0100
0010
1000
0001
0010
0001
0100
,
0010
1000
0100
0010
0001
1000
0100
1000
0010
0100
0001
1000
,
0100
0010
0001
0010
0100
1000
0001
0100
0010
1000
0001
0010
,
0001
0100
0010
1000
0001
0010
0100
1000
0010
0100
0001
1000
,
0100
1000
0010
0100
0010
1000
0001
0100
0001
1000
0100
0010
,
0001
0100
0010
1000
0010
0100
0001
0010
0001
1000
0100
0010
,
0001
0010
0100
1000
0001
0010
0001
0100
0010
1000
0001
0010
,
0100
1000
0010
0100
0001
1000
0100
1000
0010
0100
0010
1000
,
0001
0100
0001
1000
0100
0010
0001
0100
0010
1000
0010
0100
,
0001
0010
0001
1000
0100
0010
0001
0100
0010
0100
0001
1000
,
0010
0100
0010
1000
0001
0100
0001
0010
0100
1000
0010
0100
,
0001
1000
0100
1000
0010
0100
0001
1000
0100
0010
0001
0100
,
0010
1000
0001
0010
0001
0100
0010
1000
0001
0010
0001
0100
,
0010
1000
0100
0010
0001
1000
0100
1000
0010
0100
0001
1000
,
0100
0010
0001
0010
0100
1000
0001
0100
0010
1000
0001
0010
,
0001
0100
0010
1000
0001
0010
0100
1000
0010
0100
0001
1000
,
0100
1000
0010
0100
0010
1000
0001
0100
0001
1000
0100
0010
,
0001
0100
0010
1000
0010
0100
0001
0010
0001
1000
0100
0010
,
0001
0010
0100
1000
0001
0010
0001
0100
0010
1000
0001
0010
,
0100
1000
0010
0100
0001
1000
0100
1000
0010
0100
0010
1000
,
0001
0100
0001
1000
0100
0010
0001
0100
0010
1000
0010
0100
,
0001
0010
0001
1000
0100
0010
0001
0100
0010
0100
0001
1000
,
0010
0100
0010
1000
0001
0100
0001
0010
0100
1000
0010
0100
,
0001
1000
0100
1000
0010
0100
0001
1000
0100
0010
0001
0100
,
0010
1000
0001
0010
0001
0100
0010
1000
0001
0010
0001
0100
,
0010
0000
1000
0000
0100
0000
0010
0000
0001
0000
1000
0000
0010
0000
0100
0000
0001
0000
1000
0000
0000
0100
0000
0000
,
0010
0001
1000
0000
0001
0000
0000
0100
,
0000
0010
0000
2000
0000
3100
0010
0001
,
1000
0010
1000
0000
0100
0000
0000
0010
,
0000
0001
0000
2000
0000
3010
0100
0010
,
1000
0001
0010
0000
0100
0000
0000
1000
,
0000
0010
0000
2000
0000
3010
0100
0010
,
1000
0001
0100
0000
0010
0000
0000
1000
,
0000
0010
0000
0200
0000
0301
0010
0100
,
1000
0010
0100
0000
0001
0000
0000
0010
,
0000
0001
0000
2000
0000
3100
0010
0001
,
1000
0100
1000
0000
0010
0000
0000
0100
,
0000
0001
0000
0200
0000
0310
1000
0001
;

//---------------dance-single - 22.18 (22) (owenviau----------------
#NOTES:
     dance-single:
     22.18 (22) (owenviau:
     Challenge:
     22:
     1.000,1.000,0.000,0.064,1.000,2030.000,0.000,10.000,0.000,0.000:
1000
0100
0010
0000
0001
0000
0000
0100
,
0000
0010
0000
2000
0000
3100
0010
0001
,
1000
0010
1000
0000
0100
0000
0000
0010
,
0000
0001
0000
2000
0000
3010
0100
0010
,
1000
0001
0010
0000
0100
0000
0000
1000
,
0000
0010
0000
2000
0000
3010
0100
0010
,
1000
0001
0100
0000
0010
0000
0000
1000
,
0000
0010
0000
0200
0000
0301
0010
0100
,
1000
0010
0100
0001
1000
0100
1000
0010
,
0100
0001
1000
0100
0010
0001
0100
0010
,
1000
0001
0100
0001
0010
0100
1000
0010
,
0100
0001
1000
0100
1000
0010
0100
0010
,
1000
0001
0010
0100
1000
0010
0100
0001
,
1000
0100
0010
0001
0100
0010
0100
0001
,
1000
0010
0100
0010
1000
0001
0010
0001
,
1000
0100
0010
0001
0100
0010
1000
0001
,
1000
0010
0100
0001
0010
0001
0100
0010
1000
0001
0010
0100
1000
0010
0100
0001
,
0100
0010
1000
0001
0010
0001
0100
0010
1000
0001
0100
0001
0010
0100
1000
0010
,
0100
0001
1000
0100
1000
0010
0100
0001
0100
0010
1000
0001
1000
0100
0010
0001
,
0100
0010
1000
0001
0010
0100
1000
0010
0100
0001
0100
0010
1000
0001
1000
0100
,
0010
0001
0100
0010
1000
0010
0100
0001
0010
0001
1000
0100
0010
0001
0100
0010
,
1000
0001
0010
0001
0100
0010
1000
0001
0100
0001
1000
0010
0100
0010
1000
0001
,
0010
0001
0100
0010
1000
0001
0010
0100
1000
0010
0100
0001
0100
0010
1000
0001
,
1000
0100
0010
0001
0100
0010
0100
0001
1000
0010
0100
0010
1000
0001
1000
0100
,
0010
0001
1000
0001
0010
0100
1000
0010
0100
0001
1000
0100
0010
0001
0100
0010
,
1000
0001
0010
0100
1000
0010
0100
0001
0010
0001
1000
0010
1000
0100
0010
0001
,
0100
0010
1000
0001
0010
0100
1000
0010
0100
0001
0100
0010
1000
0001
0010
0100
,
1000
0010
0100
0001
0010
0001
0100
0010
1000
0001
0010
0100
1000
0010
0100
0001
,
0100
0010
1000
0001
0010
0001
0100
0010
1000
0001
0100
0001
0010
0100
1000
0010
,
0100
0001
1000
0100
1000
0010
0100
0001
0100
0010
1000
0001
1000
0100
0010
0001
,
0100
0010
1000
0001
0010
0100
1000
0010
0100
0001
0100
0010
1000
0001
1000
0100
,
0010
0001
0100
0010
1000
0010
0100
0001
0010
0001
1000
0100
0010
0001
0100
0010
,
1000
0001
0010
0001
0100
0010
1000
0001
0100
0001
1000
0010
0100
0010
1000
0001
,
0010
0001
0100
0010
1000
0001
0010
0100
1000
0010
0100
0001
0100
0010
1000
0001
,
1000
0100
0010
0001
0100
0010
0100
0001
1000
0010
0100
0010
1000
0001
1000
0100
,
0010
0001
1000
0001
0010
0100
1000
0010
0100
0001
1000
0100
0010
0001
0100
0010
,
1000
0001
0010
0100
1000
0010
0100
0001
0010
0001
1000
0010
1000
0100
0010
0001
,
0100
0010
1000
0001
0010
0100
1000
0010
0100
0001
0100
0010
1000
0001
0010
0100
,
1000
0010
0100
0001
0100
0010
1000
0100
0010
0001
0100
0010
1000
0000
0100
0000
,
0010
0001
0010
0010
0100
1000
1000
0010
,
1000
0100
0010
0001
0100
0001
0010
0100
1000
0001
0010
0100
1000
0010
0100
0001
,
0100
0010
1000
0001
0010
0001
0100
0010
1000
0001
0100
0001
0010
0100
1000
0010
,
0100
0001
1000
0100
1000
0010
0100
0001
0100
0010
1000
0001
1000
0100
0010
0001
,
0100
0010
1000
0001
0010
0100
1000
0010
0100
0001
0100
0010
1000
0001
1000
0100
,
0010
0001
0100
0010
1000
0010
0100
0001
0010
0001
1000
0100
0010
0001
0100
0010
,
1000
0001
0010
0001
0100
0010
1000
0001
0100
0001
1000
0010
0100
0010
1000
0001
,
0010
0001
0100
0010
1000
0001
0010
0100
1000
0010
0100
0001
0100
0010
1000
0001
,
1000
0100
0010
0001
0100
0010
0100
0001
1000
0010
0100
0010
1000
0001
1000
0100
,
0010
0001
1000
0001
0010
0100
1000
0010
0100
0001
1000
0100
0010
0001
0100
0010
,
1000
0001
0010
0100
1000
0010
0100
0001
0010
0001
1000
0010
1000
0100
0010
0001
,
0100
0010
1000
0001
0010
0100
1000
0010
0100
0001
0100
0010
1000
0001
0010
0100
,
1000
0010
0100
0001
0010
0001
0100
0010
1000
0001
0010
0100
1000
0010
0100
0001
,
0100
0010
1000
0001
0010
0001
0100
0010
1000
0001
0100
0001
0010
0100
1000
0010
,
0100
0001
1000
0100
1000
0010
0100
0001
0100
0010
1000
0001
1000
0100
0010
0001
,
0100
0010
1000
0001
0010
0100
1000
0010
0100
0001
0100
0010
1000
0001
1000
0100
,
0010
0001
0100
0010
1000
0010
0100
0001
0010
0001
1000
0100
0010
0001
0100
0010
,
1000
0001
0010
0001
0100
0010
1000
0001
0100
0001
1000
0010
0100
0010
1000
0001
,
0010
0001
0100
0010
1000
0001
0010
0100
1000
0010
0100
0001
0100
0010
1000
0001
,
1000
0100
0010
0001
0100
0010
0100
0001
1000
0010
0100
0010
1000
0001
1000
0100
,
0010
0001
1000
0001
0010
0100
1000
0010
0100
0001
1000
0100
0010
0001
0100
0010
,
1000
0001
0010
0100
1000
0010
0100
0001
0010
0001
1000
0010
1000
0100
0010
0001
,
0100
0010
1000
0001
0010
0100
1000
0010
0100
0001
0100
0010
1000
0001
0010
0100
,
1000
0010
0100
0001
0010
0100
1000
0001
0010
0001
0100
0010
1000
0100
0010
0001
,
1000
0010
1000
1000
0001
0100
0100
0010
,
1000
0010
0100
0001
0010
0001
0100
0010
1000
0001
0010
0100
1000
0010
0100
0001
,
0100
0010
1000
0001
0010
0001
0100
0010
1000
0001
0100
0001
0010
0100
1000
0010
,
0100
0001
1000
0100
1000
0010
0100
0001
0100
0010
1000
0001
1000
0100
0010
0001
,
0100
0010
1000
0001
0010
0100
1000
0010
0100
0001
0100
0010
1000
0001
1000
0100
,
0010
0001
0100
0010
1000
0010
0100
0001
0010
0001
1000
0100
0010
0001
0100
0010
,
1000
0001
0010
0001
0100
0010
1000
0001
0100
0001
1000
0010
0100
0010
1000
0001
,
0010
0001
0100
0010
1000
0001
0010
0100
1000
0010
0100
0001
0100
0010
1000
0001
,
1000
0100
0010
0001
0100
0010
0100
0001
1000
0010
0100
0010
1000
0001
1000
0100
,
0010
0001
1000
0001
0010
0100
1000
0010
0100
0001
1000
0100
0010
0001
0100
0010
,
1000
0001
0010
0100
1000
0010
0100
0001
0010
0001
1000
0010
1000
0100
0010
0001
,
0100
0010
1000
0001
0010
0100
1000
0010
0100
0001
0100
0010
1000
0001
0010
0100
,
1000
0010
0100
0001
0010
0001
0100
0010
1000
0001
0010
0100
1000
0010
0100
0001
,
0100
0010
1000
0001
0010
0001
0100
0010
1000
0001
0100
0001
0010
0100
1000
0010
,
0100
0001
1000
0100
1000
0010
0100
0001
0100
0010
1000
0001
1000
0100
0010
0001
,
0100
0010
1000
0001
0010
0100
1000
0010
0100
0001
0100
0010
1000
0001
1000
0100
,
0010
0001
0100
0010
1000
0010
0100
0001
0010
0001
1000
0100
0010
0001
0100
0010
,
1000
0001
0010
0100
1000
0010
0100
0001
,
1000
0100
1000
0010
0100
0001
1000
0100
,
0010
0001
0100
0010
1000
0001
0010
0001
,
1000
0010
1000
0100
0010
0001
0100
0010
,
1000
0001
0010
0100
1000
0001
0010
0001
,
0100
0010
1000
0001
0100
0001
1000
0100
,
1000
0010
0100
0010
1000
0001
0100
0001
,
1000
0100
0010
0001
0100
0010
1000
0001
,
0010
0100
1000
0001
0010
0001
1000
0100
,
1000
0010
0100
0001
0100
0010
1000
0001
,
1000
0100
0010
0001
0100
0010
1000
0001
,
0010
0100
1000
0010
0100
0001
1000
0100
,
1000
0010
0100
0001
1000
0100
1000
0010
,
0100
0010
1000
0001
0010
0001
0100
0010
,
1000
0001
0010
0100
1000
0010
0100
0001
,
1000
0100
0010
0001
0100
0010
1000
0001
,
1000
0010
0100
0001
0010
0001
0100
0010
1000
0001
0010
0100
1000
0010
0100
0001
,
0100
0010
1000
0001
0010
0001
0100
0010
1000
0001
0100
0001
0010
0100
1000
0010
,
0100
0001
1000
0100
1000
0010
0100
0001
0100
0010
1000
0001
1000
0100
0010
0001
,
0100
0010
1000
0001
0010
0100
1000
0010
0100
0001
0100
0010
1000
0001
1000
0100
,
0010
0001
0100
0010
1000
0010
0100
0001
0010
0001
1000
0100
0010
0001
0100
0010
,
1000
0001
0010
0001
0100
0010
1000
0001
0100
0001
1000
0010
0100
0010
1000
0001
,
0010
0001
0100
0010
1000
0001
0010
0100
1000
0010
0100
0001
0100
0010
1000
0001
,
1000
0100
0010
0001
0100
0010
0100
0001
1000
0010
0100
0010
1000
0001
1000
0100
,
0010
0001
1000
0001
0010
0100
1000
0010
0100
0001
1000
0100
0010
0001
0100
0010
,
1000
0001
0010
0100
1000
0010
0100
0001
0010
0001
1000
0010
1000
0100
0010
0001
,
0100
0010
1000
0001
0010
0100
1000
0010
0100
0001
0100
0010
1000
0001
0010
0100
,
1000
0010
0100
0001
0010
0001
0100
0010
1000
0001
0010
0100
1000
0010
0100
0001
,
0100
0010
1000
0100
1000
0010
0000
0100
,
0001
1000
0100
0010
0001
0100
0010
1000
,
0001
0010
0100
1000
0001
0100
0000
0010
,
1000
0001
0010
0001
1000
0100
0010
0001
,
1000
0010
0100
0001
0100
0010
1000
0001
0100
0001
1000
0010
0100
0010
1000
0001
,
0010
0001
0100
0010
1000
0001
0010
0100
1000
0010
0100
0001
0100
0010
1000
0001
,
1000
0100
0010
0001
0100
0010
0100
0001
1000
0010
0100
0010
1000
0001
1000
0100
,
0010
0001
1000
0001
0010
0100
1000
0010
0100
0001
1000
0100
0010
0001
0100
0010
,
1000
0001
0010
0100
1000
0010
0100
0001
0010
0001
1000
0010
1000
0100
0010
0001
,
0100
0010
1000
0001
0010
0100
1000
0010
0100
0001
0100
0010
1000
0001
0010
0100
,
1000
0010
0100
0001
0010
0001
0100
0010
1000
0001
0010
0100
1000
0010
0100
0001
,
0100
0010
1000
0001
0010
0001
0100
0010
1000
0001
0100
0001
0010
0100
1000
0010
,
0100
0001
1000
0100
1000
0010
0100
0001
0100
0010
1000
0001
1000
0100
0010
0001
,
0100
0010
1000
0001
0010
0100
1000
0010
0100
0001
0100
0010
1000
0001
1000
0100
,
0010
0001
0100
0010
1000
0010
0100
0001
0010
0001
1000
0100
0010
0001
0100
0010
,
1000
0001
0010
0001
0100
0010
1000
0001
0100
0001
1000
0010
0100
0010
1000
0001
,
0010
0001
0100
0010
1000
0001
0010
0100
1000
0010
0100
0001
0100
0010
1000
0001
,
1000
0100
0010
0001
0100
0010
0100
0001
1000
0010
0100
0010
1000
0001
1000
0100
,
0010
0001
1000
0001
0010
0100
1000
0010
0100
0001
1000
0100
0010
0001
0100
0010
,
1000
0001
0010
0100
1000
0010
0100
0001
0010
0001
1000
0010
1000
0100
0010
0001
,
0100
0010
1000
0001
0010
0100
1000
0010
0100
0001
0100
0010
1000
0001
0010
0100
,
1000
0010
0100
0001
0010
0001
0100
0010
1000
0001
0010
0100
1000
0010
0100
0001
,
0100
0010
1000
0001
0010
0001
0100
0010
1000
0001
0100
0001
0010
0100
1000
0010
,
0100
0001
1000
0100
1000
0010
0100
0001
0100
0010
1000
0001
1000
0100
0010
0001
,
0100
0010
1000
0001
0010
0100
1000
0010
0100
0001
0100
0010
1000
0001
1000
0100
,
0010
0001
0100
0010
1000
0010
0100
0001
0010
0001
1000
0100
0010
0001
0100
0010
,
1000
0001
0010
0001
0100
0010
1000
0001
0100
0001
1000
0010
0100
0010
1000
0001
,
0010
0001
0100
0010
1000
0001
0010
0100
1000
0010
0100
0001
0100
0010
1000
0001
,
1000
0100
0010
0001
0100
0010
0100
0001
1000
0010
0100
0010
1000
0001
1000
0100
,
0010
0001
1000
0001
0010
0100
1000
0010
0100
0001
1000
0100
0010
0001
0100
0010
,
1000
0001
0010
0100
1000
0010
0100
0001
0010
0001
1000
0010
1000
0100
0010
0001
,
0100
0010
1000
0001
0010
0100
1000
0010
0100
0001
0100
0010
1000
0001
0010
0100
,
1000
0010
0100
0001
0010
0001
0100
0010
1000
0001
0010
0100
1000
0010
0100
0001
,
0100
0010
1000
0001
0010
0001
0100
0010
1000
0001
0100
0001
0010
0100
1000
0010
,
0100
0001
1000
0100
1000
0010
0100
0001
0100
0010
1000
0001
1000
0100
0010
0001
,
0100
0010
1000
0001
0010
0100
1000
0010
0100
0001
0100
0010
1000
0000
0100
0000
,
0010
0001
1000
0000
0001
0000
0000
0100
,
0000
0010
0000
2000
0000
3100
0010
0001
,
1000
0010
1000
0000
0100
0000
0000
0010
,
0000
0001
0000
2000
0000
3010
0100
0010
,
1000
0001
0010
0000
0100
0000
0000
1000
,
0000
0010
0000
2000
0000
3010
0100
0010
,
1000
0001
0100
0000
0010
0000
0000
1000
,
0000
0010
0000
0200
0000
0301
0010
0100
,
1000
0010
0100
0000
0001
0000
0000
0010
,
0000
0001
0000
2000
0000
3100
0010
0001
,
1000
0100
1000
0000
0010
0000
0000
0100
,
0000
0001
0000
0200
0000
0310
1000
0001
;
