#TITLE:Beloved;
#SUBTITLE:;
#ARTIST:Interstate;
#TITLETRANSLIT:;
#SUBTITLETRANSLIT:;
#ARTISTTRANSLIT:;
#CREDIT:;
#BANNER:beloved.png;
#BACKGROUND:beloved-bg.png;
#LYRICSPATH:;
#CDTITLE:;
#MUSIC:Interstate - Beloved(short).mp3;
#OFFSET:-0.120;
#SAMPLESTART:33.456;
#SAMPLELENGTH:12.000;
#SELECTABLE:YES;
#BPMS:0.000=175.960;
#STOPS:;
#BGCHANGES:;
// cache tags:
#FIRSTBEAT:4.000;
#LASTBEAT:319.500;
#SONGFILENAME:Songs/Community Keyboard Megapack - Volume 2/(skorpion9x) Beloved/beloved.sm;
#HASMUSIC:1;
#HASBANNER:1;
#MUSICLENGTH:109.191;
// end cache tags

//---------------dance-single - ----------------
#NOTES:
     dance-single:
     :
     Hard:
     8:
     0.560,0.622,0.082,0.037,0.201,415.000,9.000,4.000,0.000,0.000:  // measure 1
0000
0000
0000
0000
,  // measure 2
0000
0000
0000
0000
,  // measure 3
0000
0000
0000
0000
,  // measure 4
0000
0000
0000
0000
,  // measure 5
0001
0100
0001
1000
,  // measure 6
0010
0000
0100
0000
0010
0000
1000
0001
,  // measure 7
1000
0100
1000
0001
,  // measure 8
0010
0000
0100
0000
0010
0000
0001
0010
,  // measure 9
0001
0100
0001
1000
0001
0100
0001
0010
,  // measure 10
1000
0100
1000
0010
1000
0001
1000
0010
,  // measure 11
0100
0001
0100
0010
0100
1000
0100
0010
,  // measure 12
0001
0010
0001
0100
0001
1000
0001
0100
,  // measure 13
0010
0001
0010
0100
0010
1000
0010
0100
,  // measure 14
0001
0010
0100
1000
0010
0100
0001
0100
,  // measure 15
1000
0100
0001
0010
1000
0010
0001
0100
,  // measure 16
0110
0000
0000
0000
,  // measure 17
1000
0100
0000
0010
0000
0100
0000
1000
,  // measure 18
0000
0010
0000
0100
0000
0001
0100
0010
,  // measure 19
1000
0100
0000
0010
0000
0001
0000
0100
,  // measure 20
0000
0010
0000
1000
0000
0010
0100
0001
,  // measure 21
1000
0100
0000
1000
0000
0010
0000
0100
,  // measure 22
0000
0010
0000
1000
0000
0001
0100
0001
,  // measure 23
1000
0100
0000
0010
0000
0100
0000
0001
,  // measure 24
0000
0100
0000
1000
0000
0010
0100
0010
,  // measure 25
1000
0001
0100
0000
0001
1000
0110
0000
,  // measure 26
0010
0100
0001
0000
0001
0010
0011
0001
,  // measure 27
1000
0100
1000
0000
1000
0010
0101
0000
,  // measure 28
0010
0100
0001
0000
1000
0100
0110
0010
,  // measure 29
0100
0010
0001
0000
0001
0100
1010
0000
,  // measure 30
0100
0010
1000
0000
1000
0100
0110
0010
,  // measure 31
0001
1000
0001
0000
0100
0010
0100
0000
,  // measure 32
2002
0000
0000
3003
,  // measure 33
0100
0000
0000
1000
0000
0000
0100
0000
0000
1000
0000
0000
0100
0000
0000
1000
,  // measure 34
0001
0000
0000
0100
0000
0000
0001
0000
0000
0100
0000
0000
0001
0000
0000
0100
,  // measure 35
0010
0000
0000
1000
0000
0000
0010
0000
0000
1000
0000
0000
0010
0000
0000
1000
,  // measure 36
0100
0000
0000
0010
0000
0000
0100
0000
0000
0010
0000
0000
0100
0000
0000
0010
,  // measure 37
0001
0000
0000
1000
0000
0000
0001
0000
0000
1000
0000
0000
0001
0000
0000
1000
,  // measure 38
0100
0000
0000
1000
0000
0000
0100
0000
0000
1000
0000
0000
0100
0000
0000
1000
,  // measure 39
0010
0000
0000
0100
0000
0000
0010
0000
0000
0100
0000
0000
0010
0000
0000
0100
,  // measure 40
0002
0000
0000
1000
0000
0000
1000
0000
0000
1000
0000
0000
1000
0000
1000
0000
,  // measure 41
2003
0000
0000
0000
,  // measure 42
0000
0000
0000
0000
,  // measure 43
0000
0000
0000
0000
,  // measure 44
0100
0100
0000
0100
0100
0000
0000
0000
,  // measure 45
0100
0100
0000
0100
0100
0000
0000
0000
,  // measure 46
0010
0010
0000
0010
0010
0000
0000
0000
,  // measure 47
0010
0010
0000
0010
0010
0000
0000
0000
,  // measure 48
0001
0001
0000
0001
0001
0000
0001
3001
,  // measure 49
1001
0000
0100
0000
0010
0000
1000
0001
,  // measure 50
0000
0001
0000
0001
0000
0001
0000
0001
,  // measure 51
0010
0000
0100
0000
1000
0000
0100
0010
,  // measure 52
0000
0010
0000
0010
0000
0010
0000
0010
,  // measure 53
0001
0000
0100
0000
0010
0000
0100
0001
,  // measure 54
0000
0001
0000
0001
0000
0001
0000
0001
,  // measure 55
0010
0000
0100
0000
1000
0000
0100
1000
,  // measure 56
0000
1000
0000
1000
0000
1000
0000
1000
,  // measure 57
0001
0000
0000
0100
0000
0000
0010
0000
0000
1000
0000
0000
0010
0000
0000
0100
,  // measure 58
0001
0000
0000
0010
0000
0000
0100
0000
0000
1000
0000
0000
0100
0000
0000
0010
,  // measure 59
0001
0000
0000
0100
0000
0000
0001
0000
0000
1000
0000
0000
0100
0000
0000
0010
,  // measure 60
1000
0000
0000
0010
0000
0000
0001
0000
0000
0100
0000
0000
0010
0000
0000
0100
,  // measure 61
0001
0000
0000
0100
0000
0000
0010
0000
0000
0001
0000
0000
0010
0000
0000
1000
,  // measure 62
0100
0000
0000
0001
0000
0000
0100
0000
0000
0010
0000
0000
0001
0000
0000
0100
,  // measure 63
1000
0000
0000
0100
0000
0000
0001
0000
0000
0010
0000
0000
0100
0000
0000
1000
,  // measure 64
0001
0001
0000
0001
0001
1000
1000
1000
,  // measure 65
1000
0100
0000
1000
0000
0001
0000
0100
,  // measure 66
0000
0010
0000
1000
0000
0001
0100
0010
,  // measure 67
0100
0001
0000
1000
0000
0010
0000
0100
,  // measure 68
0000
0010
0000
1000
0000
0100
0010
0001
,  // measure 69
0010
0100
0000
0010
0000
0001
0000
0100
,  // measure 70
0000
0010
0000
1000
0000
0001
0100
0001
,  // measure 71
1000
0100
0000
0010
0000
0100
0000
1000
,  // measure 72
0000
0001
0000
0010
0000
0001
0100
0010
,  // measure 73
1000
0001
0100
0000
0100
0010
1000
0000
,  // measure 74
1000
0001
1000
0000
1000
0100
0010
0100
,  // measure 75
1000
0010
0100
0000
0100
0010
1000
0000
,  // measure 76
0100
0001
0010
0000
1000
0001
0100
0010
,  // measure 77
1000
0100
0010
0100
1000
0001
0010
0100
,  // measure 78
0010
0001
0010
0001
0100
0001
1000
0010
,  // measure 79
1000
0100
1000
0001
1000
0010
0100
0001
,  // measure 80
0010
0100
1000
0100
0001
0010
1000
0001
;

//---------------dance-single - ----------------
#NOTES:
     dance-single:
     :
     Medium:
     5:
     0.449,0.512,0.027,0.027,0.137,337.000,3.000,3.000,0.000,0.000:  // measure 1
0000
0000
0000
0000
,  // measure 2
0000
0000
0000
0000
,  // measure 3
0000
0000
0000
0000
,  // measure 4
0000
0000
0000
0000
,  // measure 5
1000
0100
1000
0100
,  // measure 6
1000
0000
0100
0000
1000
0000
0100
0010
,  // measure 7
0001
0100
0001
0100
,  // measure 8
0001
0000
0100
0000
0001
0000
0100
0010
,  // measure 9
1000
0001
0100
1000
,  // measure 10
0010
0000
0001
0000
1000
0000
0001
0100
,  // measure 11
1000
0001
0100
1000
,  // measure 12
0100
0000
0001
0000
0010
0000
0100
0010
,  // measure 13
1000
0100
0001
0010
,  // measure 14
0001
0000
0100
0000
1000
0000
0100
0001
,  // measure 15
0010
0001
0010
1000
,  // measure 16
0220
0330
0000
0000
,  // measure 17
0001
1000
0000
0001
1000
0000
0010
0000
,  // measure 18
0100
0001
0000
0100
0001
0000
1000
0000
,  // measure 19
0010
0100
0000
0010
0100
0000
0001
0000
,  // measure 20
0010
1000
0000
0010
1000
0000
0010
0000
,  // measure 21
0100
1000
0000
0100
1000
0000
0010
0000
,  // measure 22
0001
0100
0000
0001
0100
0000
0001
0000
,  // measure 23
0010
1000
0000
0010
1000
0000
0100
0000
,  // measure 24
0010
0001
0000
0010
0001
0000
0100
0000
,  // measure 25
0001
1000
0000
0001
1000
0000
0010
0000
,  // measure 26
0100
0001
0000
0100
0001
0000
0010
0000
,  // measure 27
0100
1000
0000
0100
1000
0000
0010
0000
,  // measure 28
0100
0001
0000
0100
0001
0000
0010
0000
,  // measure 29
0100
1000
0000
0100
1000
0000
0010
0000
,  // measure 30
0100
0001
0000
0100
0001
0000
1000
0000
,  // measure 31
0100
0010
0000
0100
0010
0000
0001
0000
,  // measure 32
0100
0010
0100
0010
0100
0010
0100
0010
,  // measure 33
1000
0000
0000
0100
0000
0000
0010
0000
0000
0100
0000
0000
1000
0000
0000
0000
,  // measure 34
0001
0000
0000
0100
0000
0000
0010
0000
0000
0100
0000
0000
0001
0000
0000
0000
,  // measure 35
0010
0000
0000
0100
0000
0000
1000
0000
0000
0100
0000
0000
0010
0000
0000
0000
,  // measure 36
0100
0000
0000
0010
0000
0000
0001
0000
0000
0010
0000
0000
0100
0000
0000
0000
,  // measure 37
1000
0000
0000
0100
0000
0000
0001
0000
0000
0100
0000
0000
1000
0000
0000
0000
,  // measure 38
0001
0000
0000
0100
0000
0000
1000
0000
0000
0100
0000
0000
0001
0000
0000
0000
,  // measure 39
1000
0000
0000
0010
0000
0000
0001
0000
0000
0010
0000
0000
1000
0000
0000
0000
,  // measure 40
0001
0000
0000
0010
0000
0000
1000
0000
0000
0010
0000
0000
0001
0000
1000
0000
,  // measure 41
2001
0000
0000
0000
,  // measure 42
0000
0000
0000
0000
,  // measure 43
0000
0000
0000
0000
,  // measure 44
0001
0000
0000
0001
0000
0000
0000
0000
,  // measure 45
0001
0000
0000
0001
0000
0000
0000
0000
,  // measure 46
0001
0000
0000
0001
0000
0000
0000
0000
,  // measure 47
0001
0000
0000
0001
0000
0000
0000
0000
,  // measure 48
0001
0000
0000
0001
0000
0000
3001
0000
,  // measure 49
1001
0100
1000
0010
,  // measure 50
0100
0000
0001
0000
0010
0000
0100
0001
,  // measure 51
1000
0100
0010
0100
,  // measure 52
1000
0000
0010
0000
0100
0000
0001
1000
,  // measure 53
0001
0100
0010
0100
,  // measure 54
0001
0000
1000
0000
0100
0000
0001
0010
,  // measure 55
0001
0100
0010
0100
,  // measure 56
1000
0000
0010
0000
0001
0000
0100
1000
,  // measure 57
0001
0000
0000
0100
0000
0000
0010
0000
0000
1000
0000
0000
0001
0000
0000
0000
,  // measure 58
0100
0000
0000
0010
0000
0000
1000
0000
0000
0001
0000
0000
0100
0000
0000
0000
,  // measure 59
0010
0000
0000
0100
0000
0000
0001
0000
0000
0010
0000
0000
0100
0000
0000
0000
,  // measure 60
1000
0000
0000
0001
0000
0000
0010
0000
0000
0001
0000
0000
1000
0000
0000
0000
,  // measure 61
0001
0000
0000
0010
0000
0000
0100
0000
0000
1000
0000
0000
0010
0000
0000
0000
,  // measure 62
0100
0000
0000
0001
0000
0000
1000
0000
0000
0100
0000
0000
0001
0000
0000
0000
,  // measure 63
1000
0000
0000
0010
0000
0000
0001
0000
0000
0100
0000
0000
1000
0000
0000
0000
,  // measure 64
0001
1000
0000
0001
1000
0001
0001
1000
,  // measure 65
0000
0001
0000
0100
0000
0001
0000
0100
,  // measure 66
0000
0001
0000
0100
0000
0001
0010
0100
,  // measure 67
0000
1000
0000
0100
0000
1000
0000
0100
,  // measure 68
0000
1000
0000
0100
0000
1000
0010
0100
,  // measure 69
0000
0001
0000
0010
0000
0100
0000
1000
,  // measure 70
0000
0001
0000
0100
0000
0010
1000
0001
,  // measure 71
0000
1000
0000
0100
0000
0010
0000
0001
,  // measure 72
0000
1000
0000
0010
0000
0100
0001
1000
,  // measure 73
0001
0100
0010
1000
,  // measure 74
0010
0000
0100
0000
0001
0000
1000
0100
,  // measure 75
0001
0010
0100
1000
,  // measure 76
0100
0000
0010
0000
0001
0000
1000
0010
,  // measure 77
0001
0100
0010
1000
,  // measure 78
0010
0000
0100
0000
0001
0000
1000
0100
,  // measure 79
0001
0010
0100
1000
,  // measure 80
0100
0000
0010
0000
0001
1000
0100
0001
;

//---------------dance-single - ----------------
#NOTES:
     dance-single:
     :
     Easy:
     3:
     0.377,0.439,0.211,0.119,0.000,252.000,23.000,13.000,0.000,0.000:  // measure 1
0000
0000
0000
0000
,  // measure 2
0000
0000
0000
0000
,  // measure 3
0000
0000
0000
0000
,  // measure 4
0000
0000
0000
0000
,  // measure 5
1000
0100
0010
0001
,  // measure 6
1000
0100
0010
0001
,  // measure 7
1000
0010
0100
0001
,  // measure 8
1000
0010
0100
0001
,  // measure 9
1000
0100
1000
0100
,  // measure 10
1000
0100
1000
0100
,  // measure 11
0010
0001
0010
0001
,  // measure 12
0010
0001
0010
0001
,  // measure 13
0100
0010
0100
0010
,  // measure 14
0100
0010
0100
0010
,  // measure 15
1000
0001
1000
0001
,  // measure 16
2002
3003
0000
0000
,  // measure 17
1001
0100
1000
0010
,  // measure 18
0100
0001
0010
0100
,  // measure 19
1001
0010
0100
0001
,  // measure 20
1000
0010
0100
0010
,  // measure 21
1001
0100
0010
0001
,  // measure 22
0010
0100
1000
0001
,  // measure 23
1001
0100
0010
0001
,  // measure 24
0100
0010
1000
0100
,  // measure 25
0110
0001
1000
0100
,  // measure 26
1000
0001
0010
0001
,  // measure 27
0110
1000
0100
0001
,  // measure 28
0010
1000
0100
0001
,  // measure 29
0110
1000
0010
0001
,  // measure 30
0100
1000
0010
0001
,  // measure 31
0110
0010
0100
0010
,  // measure 32
2002
0000
0000
3003
,  // measure 33
1000
0011
1000
0011
,  // measure 34
1000
0000
0011
0000
0000
1000
0000
1000
,  // measure 35
0001
1010
0001
1010
,  // measure 36
0001
0000
1010
0000
0000
0100
0000
0100
,  // measure 37
0010
0101
0010
0101
,  // measure 38
0010
0000
0101
0000
0000
1000
0000
1000
,  // measure 39
0001
0110
1000
0110
,  // measure 40
1001
0000
0000
0000
,  // measure 41
2002
0000
0000
0000
,  // measure 42
0000
0000
0000
0000
,  // measure 43
0000
0000
0000
0000
,  // measure 44
0000
0000
0000
0000
,  // measure 45
0000
0000
0000
0000
,  // measure 46
0000
0000
0000
0000
,  // measure 47
0000
0000
0000
0000
,  // measure 48
0000
0000
0000
3003
,  // measure 49
1000
0000
0100
0000
0010
0000
0001
2000
,  // measure 50
0000
0000
0000
0000
0000
0000
0000
3000
,  // measure 51
0001
0000
0010
0000
0100
0000
1000
0002
,  // measure 52
0000
0000
0000
0000
0000
0000
0000
0003
,  // measure 53
1000
0000
0100
0000
0001
0000
0010
2000
,  // measure 54
0000
0000
0000
0000
0000
0000
0000
3000
,  // measure 55
0001
0000
0010
0000
1000
0000
0100
0002
,  // measure 56
0000
0000
0000
0000
0000
0000
0000
0003
,  // measure 57
0010
0000
0100
0000
0010
0000
1000
0002
,  // measure 58
0000
0000
0000
0000
0000
0000
0000
0003
,  // measure 59
0100
0000
0010
0000
1000
0000
0010
0200
,  // measure 60
0000
0000
0000
0000
0000
0000
0000
0300
,  // measure 61
0010
0000
0100
0000
0001
0000
0100
0020
,  // measure 62
0000
0000
0000
0000
0000
0000
0000
0030
,  // measure 63
0001
0000
0100
0000
1000
0000
0100
0010
,  // measure 64
0001
1000
0000
0001
1000
0000
0001
1000
,  // measure 65
0000
0001
0000
1000
0000
0100
0000
1000
,  // measure 66
0000
0001
0000
1000
0000
0010
0100
0010
,  // measure 67
0000
0100
0000
0010
0000
0100
0000
0001
,  // measure 68
0000
0100
0000
0010
0000
1000
0100
1000
,  // measure 69
0000
0001
0000
0100
0000
0010
0000
1000
,  // measure 70
0000
0010
0000
0100
0000
0001
1000
0001
,  // measure 71
0000
0010
0000
0100
0000
1000
0000
0100
,  // measure 72
0000
0010
0000
0001
0000
0100
0010
0100
,  // measure 73
0001
0100
0010
0100
,  // measure 74
0001
1000
0100
1000
,  // measure 75
0001
0010
0100
0010
,  // measure 76
0001
1000
0010
1000
,  // measure 77
0001
0100
1000
0100
,  // measure 78
0001
0100
0010
1000
,  // measure 79
0100
0010
0001
1000
,  // measure 80
0001
1000
0000
1000
0000
1000
0010
1000
;

//---------------dance-single - ----------------
#NOTES:
     dance-single:
     :
     Challenge:
     11:
     1.000,1.000,1.000,0.027,0.604,605.000,379.000,3.000,0.000,0.000:  // measure 1
0000
0000
0000
0000
,  // measure 2
1100
0110
1100
0110
1100
0110
1100
0110
,  // measure 3
0011
0110
0011
0110
0011
0110
0011
0110
,  // measure 4
0011
0000
0110
0000
0011
0000
0110
0000
0100
0010
0100
0010
0100
0010
0100
0010
,  // measure 5
0011
1001
0011
1001
0011
1001
0011
1001
,  // measure 6
0011
1001
0011
1001
0011
1001
0011
1001
,  // measure 7
0110
1100
0110
0011
,  // measure 8
0110
0000
0000
0000
1100
0000
0000
0000
0010
0100
0010
0100
0010
0100
0010
0100
,  // measure 9
1100
1010
1100
1010
1100
1010
1100
1010
,  // measure 10
1100
1010
1100
1010
1100
1010
1100
1010
,  // measure 11
0011
0101
0011
0101
,  // measure 12
0011
0000
0000
0000
0101
0000
0000
0000
0001
0100
0001
0100
0001
0100
0001
0100
,  // measure 13
0011
1100
0011
1100
0011
1100
0011
1100
,  // measure 14
0011
1100
0011
1100
0011
1100
0011
1100
,  // measure 15
1001
0110
1001
0110
,  // measure 16
2002
0000
0000
0000
3003
0000
0000
0000
1000
0100
1000
0001
1000
0100
1000
0010
,  // measure 17
1010
0000
1010
0000
0000
0000
0110
0000
0110
0000
0100
0010
0100
0000
0010
0000
,  // measure 18
0110
0110
0000
0110
0110
0100
0010
0001
,  // measure 19
0101
0000
0101
0000
0000
0000
0110
0000
0110
0000
0100
0010
0100
0000
0010
0000
,  // measure 20
0110
0110
0000
0011
0011
0001
0010
0100
,  // measure 21
1100
0000
1100
0000
0000
0000
0101
0000
0101
0000
0001
0010
0001
0000
0010
0000
,  // measure 22
1010
1010
0000
0101
0101
0001
0010
0100
,  // measure 23
0110
0000
0110
0000
0000
0000
1100
0000
1100
0000
0100
0010
0100
0000
0010
0000
,  // measure 24
0011
0011
0000
0110
0011
0010
0100
1000
,  // measure 25
1100
0000
1100
0000
0000
0000
0110
0000
0110
0000
0100
0010
0100
0000
0010
0000
,  // measure 26
0011
0110
0000
0110
1100
0100
0010
0001
,  // measure 27
0101
0000
0110
0000
0000
0000
1001
0000
0110
0000
0010
0100
1000
0000
0100
0000
,  // measure 28
1100
0110
0000
0110
1010
1000
0100
0010
,  // measure 29
0011
0000
0011
0000
0000
0000
0110
0000
0110
0000
0100
0010
0001
0000
0010
0000
,  // measure 30
1010
1010
0000
0110
1100
0100
1000
0010
,  // measure 31
0110
0000
0110
0000
0000
0000
1100
0000
0110
0000
0010
0100
1000
0000
0100
0000
,  // measure 32
0110
0011
0000
0110
1100
0000
1001
0110
,  // measure 33
1100
0110
1100
0110
1100
0110
1100
0110
,  // measure 34
1100
0110
1100
0110
1100
0110
1100
0110
,  // measure 35
1001
0000
0000
0110
0000
0000
1100
0000
0000
0110
0000
0000
0011
0000
0000
0101
,  // measure 36
1010
0000
0000
0110
0000
0000
1100
0000
0100
0010
0100
0010
0100
0010
0100
0010
,  // measure 37
0011
0110
0011
0110
0011
0110
0011
0110
,  // measure 38
0011
0110
0011
0110
0011
0110
0101
0000
,  // measure 39
1100
0000
0000
0011
0000
0000
1100
0000
0000
0101
0000
0000
0110
0000
0000
1100
,  // measure 40
0011
0000
0000
0110
0000
0000
1100
0000
1000
0100
1000
0100
1000
0100
1000
0100
,  // measure 41
0020
0000
0000
0000
,  // measure 42
0000
0000
0000
0000
,  // measure 43
0000
0000
0000
0000
,  // measure 44
0000
0000
0000
0000
,  // measure 45
1000
0000
1000
0000
0000
0000
1000
0000
1000
0000
0100
1000
0100
0000
1000
0000
,  // measure 46
0001
0001
0000
0001
0001
0100
0001
0100
,  // measure 47
0001
0000
0001
0000
0000
0000
0100
0000
0100
0000
1000
0001
1000
0000
0130
0000
,  // measure 48
1100
1100
0000
0110
0110
0010
0100
1000
,  // measure 49
1100
0000
0000
0110
0000
0000
0011
0000
0000
1001
0000
0000
0110
0000
0000
0110
,  // measure 50
0011
0000
0000
0110
0000
0000
1100
0000
0000
0011
0000
0000
1100
0000
0000
0101
,  // measure 51
0110
0000
0000
0101
0000
0000
0110
0000
0000
1010
0000
0000
0011
0000
0000
0011
,  // measure 52
1001
0000
0000
0110
0000
0000
0110
0000
0000
1001
0000
0000
0110
0000
0000
0011
,  // measure 53
1100
0000
0000
1010
0000
0000
1100
0000
0000
0011
0000
0000
0110
0000
0000
1100
,  // measure 54
0011
0000
0000
0110
0000
0000
0110
0000
0000
1010
0000
0000
0101
0000
0000
1100
,  // measure 55
0110
0000
0000
1010
0000
0000
0110
0000
0000
1010
0000
0000
0101
0000
0000
0110
,  // measure 56
0011
0000
0000
0110
0000
0000
1100
0000
0000
0110
0000
0000
0011
0000
0000
0101
,  // measure 57
1010
0000
0000
0110
0000
0000
1100
0000
0000
1001
0000
0000
0101
0000
0000
0101
,  // measure 58
0110
0000
0000
1010
0000
0000
0101
0000
0000
1010
0000
0000
0011
0000
0000
0011
,  // measure 59
0110
0000
0000
1100
0000
0000
0110
0000
0000
0101
0000
0000
0110
0000
0000
0110
,  // measure 60
1001
0000
0000
1100
0000
0000
0110
0000
0000
0101
0000
0000
0101
0000
0000
1001
,  // measure 61
0011
0000
0000
1100
0000
0000
0011
0000
0000
0101
0000
0000
0011
0000
0000
1100
,  // measure 62
0110
0000
0000
1001
0000
0000
0110
0000
0000
0101
0000
0000
0110
0000
0000
1001
,  // measure 63
0110
0000
0000
1100
0000
0000
0110
0000
1000
0100
1000
0100
1000
0100
1000
0100
,  // measure 64
0110
0110
0000
1100
1100
0100
0010
0001
,  // measure 65
0110
0011
0110
0011
0110
0011
0110
0011
,  // measure 66
0110
0011
0110
0011
0110
0011
0110
1100
,  // measure 67
0110
1100
0110
1100
0110
1100
0110
1100
,  // measure 68
0110
0000
1100
0000
0110
0000
1100
0000
0100
1000
0100
1000
0100
1000
0100
1000
,  // measure 69
0110
1001
0110
1001
0110
1001
0110
1001
,  // measure 70
0110
1001
0110
1001
0110
1001
0110
1100
,  // measure 71
0011
1100
0011
1100
0011
1100
0011
1100
,  // measure 72
0011
0000
1100
0000
0011
0000
1100
0000
0010
0100
0010
0100
0010
0100
0010
0100
,  // measure 73
0011
1010
0011
1010
0011
1010
0011
1010
,  // measure 74
0011
1010
0011
1010
0011
1010
0110
1010
,  // measure 75
0110
1010
0110
1010
0110
1010
0110
1010
,  // measure 76
0110
0000
1010
0000
0110
0000
1010
0000
0100
1000
0100
1000
0100
1000
0100
0010
,  // measure 77
0001
0100
0010
1000
0100
0010
0001
0100
0010
1000
0100
0010
0001
0100
0010
1000
,  // measure 78
0100
0010
0001
0100
0010
1000
0100
0010
0001
0100
0010
1000
0100
0010
0001
0100
,  // measure 79
0010
1000
0100
0010
0001
0100
0010
1000
0100
0010
0001
0100
0010
1000
0100
0010
,  // measure 80
0001
0100
0010
1000
0100
0010
0001
0100
0010
1000
0100
0010
0001
0100
0010
0000
;
