#TITLE:Legend of Zelda;
#SUBTITLE:- Link's Theme [Heavy Dance Remix];
#ARTIST:Dave Phaneuf;
#TITLETRANSLIT:;
#SUBTITLETRANSLIT:;
#ARTISTTRANSLIT:;
#CREDIT:;
#BANNER:LoZ_HDM bn.png;
#BACKGROUND:LoZ_HDM bg.png;
#LYRICSPATH:;
#CDTITLE:cdtitle.png;
#MUSIC:LoZ Heavy Dance Mix.mp3;
#OFFSET:-0.088;
#SAMPLESTART:27.960;
#SAMPLELENGTH:11.980;
#SELECTABLE:YES;
#BPMS:0.000=172.000;
#STOPS:;
#BGCHANGES:;
// cache tags:
#FIRSTBEAT:0.000;
#LASTBEAT:352.000;
#SONGFILENAME:Songs/newbie/Legend of Zelda/LoZ_HDM.sm;
#HASMUSIC:1;
#HASBANNER:1;
#MUSICLENGTH:123.075;
// end cache tags

//---------------dance-single - ----------------
#NOTES:
     dance-single:
     :
     Hard:
     12:
     1.000,1.000,1.000,0.569,0.857,769.000,145.000,70.000,0.000,16.000:
2000
0000
0000
0000
,
3200
0000
0000
0000
,
0320
0000
0000
0000
,
2032
0000
0000
3003
,
0110
0000
1000
0000
0010
0000
0100
0000
0001
0010
0001
0000
0100
0000
0010
0000
,
1000
0000
0010
0000
0100
0000
0001
0000
0100
0010
0100
0000
0011
0000
1000
0000
,
0110
0000
1000
0000
0010
0000
0001
0000
1000
0001
1000
0000
0010
0000
0100
0000
,
0001
0000
0010
0000
0100
0000
1000
0000
0010
0001
0100
0000
2002
0000
0000
3003
,
0110
0000
1000
0000
0100
0000
0010
0000
1000
0100
1000
0000
0010
0000
0100
0000
,
0001
0000
0100
0000
1000
0000
0010
0000
0100
0001
0100
0000
1010
0000
0100
0000
,
1000
0001
1000
0001
1000
0001
1000
0001
1000
0001
1000
0001
1000
0001
1000
0000
,
0110
0000
0000
0100
0010
0100
0010
0000
1001
0000
1001
0000
0100
0010
0100
0000
,
1001
0000
0210
0000
0000
0000
0010
0000
0010
0000
0000
0010
0000
0000
0310
0000
,
1010
0000
0102
0000
0000
0000
0100
0000
0100
0000
0000
0100
0000
0000
0103
0000
,
0011
0000
1200
0000
0000
0000
1000
0000
1000
0000
0000
1000
0000
0000
1300
0000
,
0001
0010
0100
1000
0001
0010
0100
1000
0001
0100
0010
1000
0001
0100
0010
1000
,
0101
0000
0021
0000
0000
0000
0001
0000
0001
0000
0000
0001
0000
0000
0031
0000
,
1010
0000
0102
0000
0000
0000
0100
0000
0100
0000
0000
0100
0000
0000
0103
0000
,
0101
0000
2010
0000
0000
0000
0010
0000
0010
0000
0000
0010
0000
0000
3010
0000
,
0100
0010
0100
0010
0100
0010
0100
0010
0100
0010
0100
0010
0100
0010
0100
0000
,
1001
0000
0100
0000
0020
0000
0100
0000
0001
0030
1000
0000
1000
0100
0010
0001
,
0020
0000
0100
0000
1000
0000
0001
0000
1000
0030
0100
0000
0010
0001
0010
0100
,
2000
0000
0001
0000
0100
0000
0010
0000
0001
3000
0100
0000
0001
0010
0100
0010
,
0200
0000
0300
0010
0002
0000
0010
0000
0100
0000
0010
0003
2000
0000
0000
3000
,
0001
0000
0010
1000
0200
0000
0001
0000
1000
0000
0010
0300
0001
0000
0010
0000
,
0100
0000
1000
0001
0020
0000
0001
0000
0100
0000
1000
0030
0001
0000
1000
0000
,
0100
0000
0010
0001
2000
0000
0010
0000
0100
0000
0010
3000
0202
0000
0000
0303
,
0010
0100
1000
0100
0010
0001
0010
0100
1000
0100
0010
0001
0010
0100
1000
0000
,
0011
0000
0100
0000
2000
0000
0100
0000
0010
3000
0001
0000
0010
0001
0010
0100
,
0020
0000
0001
0000
1000
0000
0100
0000
1000
0030
0001
0000
0100
1000
0100
0010
,
0200
0000
0001
0000
0010
0000
1000
0000
0001
0300
0010
0000
1001
0000
0100
0000
,
1001
0000
0010
0000
0201
0000
1000
0000
0001
0000
1000
0300
0021
0000
0030
0000
,
1000
0100
0010
0001
0010
0100
1000
0100
0010
0001
0010
0100
1000
0100
0010
0001
,
0100
0010
1000
0010
0100
0001
0100
0010
1000
0010
0100
0001
0100
0010
1000
0001
,
1000
0001
1000
0010
0100
0010
0100
1000
0001
1000
0001
0100
0010
0100
0010
1000
,
0010
1000
0010
0100
0001
0100
0001
0010
1000
0010
1000
0001
0100
0001
0100
0000
,
1001
1100
0110
0011
0110
1100
0110
0011
,
1100
0001
1100
0001
0001
0110
1010
1100
,
1001
0000
0010
0100
0020
0000
0001
0000
0100
0000
1000
0030
0202
0000
0303
0000
,
0101
0010
0100
0001
1010
0100
0010
1000
0110
0001
0010
0100
1001
0100
0010
0001
,
0110
0000
1100
0000
0000
0000
1100
0000
1100
0000
0000
1100
0000
0000
1100
0000
,
0110
0000
0011
0000
0000
0000
0011
0000
0011
0000
0000
0011
0000
0000
0011
0000
,
0110
0000
1001
0000
0000
0000
1001
0000
1001
0000
0000
1001
0000
0000
1001
0000
,
0100
0001
0100
0001
0100
0001
0100
0001
1000
0010
1000
0010
1000
0010
1000
0000
,
1001
0000
1010
0000
0000
0000
1010
0000
1010
0000
0000
1010
0000
0000
1010
0000
,
1001
0000
0101
0000
0000
0000
0101
0000
0101
0000
0000
0101
0000
0000
0101
0000
,
1001
0000
0110
0000
0000
0000
0110
0000
0110
0000
0000
0110
0000
0000
0110
0000
,
1000
0001
1000
0001
1000
0001
1000
0001
0100
0010
0100
0010
0100
0010
0100
0000
,
0202
0000
0000
0300
0020
0000
0000
0000
0000
0030
1000
0000
0100
1000
0100
0010
,
2103
0001
0010
0100
0001
0010
0001
0100
,
3022
0000
0000
0003
2000
0000
0000
0000
0000
3000
0001
0000
1000
0100
1000
0100
,
1030
0100
0010
0001
1000
0100
0010
0001
1000
0100
0010
0001
1000
0100
0010
0001
,
2200
0000
0000
0300
0002
0000
0000
0000
0000
0003
0010
0000
0001
0010
0001
0010
,
3102
1000
0100
1000
0010
0100
0010
0100
,
2023
0000
0000
3000
0200
0000
0000
0000
0000
0300
0001
0000
1000
0100
1000
0100
,
0031
0010
0100
0010
0001
0010
0100
1000
0100
0010
0100
1000
0100
0010
0001
0010
,
1001
0000
0000
0100
0010
0100
0010
0000
1010
0000
0101
0000
1000
0001
1000
0001
,
0110
0000
1000
0000
0101
0000
0010
0000
0001
0100
0001
0000
0010
0000
1000
0000
,
0110
0000
0001
1000
0110
0000
1000
0001
0110
0000
0010
0100
1010
0000
0100
0010
,
0101
0000
1000
0000
0110
0000
0001
0000
0010
0100
0010
0000
1000
0000
0001
0000
,
1001
0000
0100
0010
1100
0000
0010
0100
0011
0000
0001
0100
0011
0000
0100
0001
,
1100
0010
0100
0010
0100
0010
0100
0010
0100
0010
0100
0010
0100
0010
0100
0010
,
1001
1010
0101
0110
,
1001
0000
0010
0000
1010
0000
0100
0000
0001
0100
0010
0000
1000
0000
0110
0000
,
0001
0000
1100
0000
0010
0000
0101
0000
0010
1000
0010
0000
1100
0000
0010
0000
,
0101
0000
0000
1000
0001
1000
0001
0000
0110
0000
0110
0000
0001
1000
0001
0000
,
0220
0000
0000
0030
0002
0000
0000
0000
0000
0003
0010
0000
1000
0010
0001
0010
,
1302
0100
0010
0100
1000
0100
0010
0100
,
0223
0000
0000
0300
0002
0000
0000
0000
0000
0003
0100
0000
1000
0100
1000
0001
,
1130
0000
0000
0100
0001
0100
0001
0000
1100
0000
0001
0100
0001
0000
1010
0000
,
0202
0000
0000
0003
2000
0000
0000
0000
0000
3000
0001
0000
0010
1000
0010
0001
,
2310
0001
0010
0100
0010
0010
0100
0001
,
3202
0000
0000
0300
2000
0000
0000
0000
0000
3000
0100
0000
0010
0100
1000
0010
,
1103
0000
0000
0010
0100
0010
0100
0000
1001
0000
1001
0000
0100
0010
0100
0000
,
1001
0000
0000
0100
0001
0100
0001
0000
1001
0000
1001
0000
0010
1000
0010
0000
,
0110
0000
0000
1000
0001
1000
0001
0000
0110
0000
1010
0000
0100
0001
0100
0000
,
1002
0000
0100
0000
0000
0000
0100
0000
0100
0000
0000
0100
0000
0000
0100
0000
,
0123
0000
1000
0000
0000
0000
1000
0000
1000
0000
0000
1000
0000
0000
1000
0000
,
1230
0000
0001
0000
0000
0000
0001
0000
0001
0000
0000
0001
0000
0000
0001
0000
,
1300
0100
1000
0100
0010
0001
0010
0001
0010
0100
0010
0100
1000
0001
1000
0001
,
0210
0000
1000
0000
0000
0000
1000
0000
1000
0000
0000
1000
0000
0000
1000
0000
,
0312
0000
0100
0000
0000
0000
0100
0000
0100
0000
0000
0100
0000
0000
0100
0000
,
1023
0000
0001
0000
0000
0000
0001
0000
0001
0000
0000
0001
0000
0000
0001
0000
,
1030
0100
0010
0001
1000
0010
0100
0001
1000
0100
0010
0001
1000
0010
0100
0001
,
0210
0010
0010
0010
,
0320
0100
0100
0100
,
2032
0000
0000
0000
,
0000
0000
0000
0000
,
3003
0000
0000
0000
;
