#TITLE:I am a super man.;
#SUBTITLE:;
#ARTIST:yuyoyuppe;
#TITLETRANSLIT:;
#SUBTITLETRANSLIT:;
#ARTISTTRANSLIT:;
#CREDIT:M.L-INS;
#BANNER:../Tachyon DIVA.png;
#BACKGROUND:../Tachyon DIVA-bg.png;
#LYRICSPATH:;
#CDTITLE:;
#MUSIC:I am a super man..ogg;
#OFFSET:-2.090;
#SAMPLESTART:100.000;
#SAMPLELENGTH:12.000;
#SELECTABLE:YES;
#BPMS:0.000=220.003,132.000=110.004,164.000=219.997,224.000=104.999,225.000=103.999,226.000=100.000,228.000=95.000,232.000=94.001,236.000=269.997,240.000=270.002,244.000=270.003;
#STOPS:;
#BGCHANGES:;
// cache tags:
#FIRSTBEAT:0.000;
#LASTBEAT:428.000;
#SONGFILENAME:Songs/Tachyon DIVA/I am a super man.[M.L-INS]/I am a super man..sm;
#HASMUSIC:1;
#HASBANNER:1;
#MUSICLENGTH:123.817;
// end cache tags

//---------------dance-single - ----------------
#NOTES:
     dance-single:
     :
     Challenge:
     12:
     1.000,1.000,0.024,1.000,0.743,823.000,3.000,152.000,40.000,0.000:
M000
0000
0000
0000
,
0M00
0000
0000
0000
,
00M0
0000
0000
0000
,
000M
0000
0000
0000
,
1000
0001
1000
0001
1000
0001
1000
0001
1000
0001
1000
0001
1000
0001
1000
0001
,
0100
0010
0100
0010
0100
0010
0100
0010
0100
0010
0100
0010
0100
0010
0100
0010
,
1000
0001
1000
0001
1000
0001
1000
0001
1000
0001
1000
0001
1000
0001
1000
0001
,
0100
0010
1000
0001
0100
0010
1000
0001
0200
0300
0000
0000
MMMM
0000
0000
0000
,
0001
0000
0010
0000
0100
1000
0100
0000
0010
0000
0001
0000
0100
0010
0100
0000
,
0001
0000
1000
0000
0010
0100
0010
0000
1000
0000
0100
0000
0010
0001
0010
0000
,
0100
0000
1000
0000
0001
0100
0010
0000
1000
0000
0100
0000
0010
0001
0100
0000
,
0010
1000
0010
1000
0001
0100
0001
0100
0010
0100
0010
0100
0001
0010
0001
0010
,
0100
0000
1000
0000
0010
0100
0001
0000
0010
0000
0100
0000
1000
0001
0010
0000
,
0100
0000
1000
0000
0100
0010
0001
0000
1000
0000
0001
0000
0100
0010
1000
0000
,
0100
0000
1000
0000
0010
1000
0100
0000
0010
0000
0001
0000
0100
0010
1000
0000
,
0010
1000
0001
0100
0001
0100
0001
1000
0010
0100
0001
0010
0100
1000
0010
0100
,
0010
0000
1000
0000
0100
1000
0010
0000
0100
0000
0010
0000
0100
0001
0010
0000
,
0001
0000
0010
0000
0100
1000
0001
0000
0100
0000
0010
0000
0100
0001
1000
0000
,
0001
0000
0010
0000
0100
1000
0010
0000
0100
0000
0001
0000
1000
0100
0010
0000
,
0001
1000
0001
1000
0010
0100
0010
0100
0001
0010
0001
0010
0100
1000
0100
1000
,
0001
0000
0010
0000
0100
1000
0001
0000
0010
0000
0001
0000
1000
0100
0010
0000
,
0100
0000
1000
0000
0010
1000
0001
0000
0010
0000
0001
0000
1000
0001
0100
0000
,
0001
0010
0001
0010
0100
0010
0001
0010
0100
0010
0100
0010
0001
1000
0100
1000
,
0010
1000
0010
1000
0001
0100
0001
0100
0010
1000
0001
1000
0002
0000
0000
0003
,
4100
0000
0010
3000
0410
0000
0001
0300
,
0041
0000
0100
0030
0410
0000
1000
0300
,
1040
0000
0001
0030
0104
0000
1000
0003
,
0041
0000
0100
0030
1400
0000
0001
0300
,
0104
0000
1000
0003
0410
0000
0001
0300
,
4001
0000
0010
3000
1040
0000
0100
0030
,
0401
0000
0010
0300
1040
0000
0100
0030
,
0410
0000
0001
0300
1040
0000
0100
0030
,
2002
0000
0000
0000
3003
0000
0100
0010
0200
0000
0000
0000
0000
0000
0300
0000
,
1000
0000
0001
0010
0100
0010
0001
0100
0010
1000
0000
1000
0100
0010
0001
0000
,
0001
0000
0100
0000
0010
0000
1000
0000
0010
0000
0100
0000
0001
0010
0001
0010
0001
0000
1000
0000
0100
0000
0010
0000
0001
0000
0000
0000
0001
0000
0100
0000
,
0010
1000
0010
0100
1000
0100
0010
0001
1000
0100
0010
0001
1000
0100
0010
0100
,
0001
0000
0000
0000
0001
0000
0010
0000
0100
0000
1000
0000
0010
1000
0010
1000
0010
0000
0100
0000
0000
0000
0010
0000
0000
0000
0000
0000
0100
0000
00M0
0000
,
1000
0000
0100
0000
0010
0000
0100
0000
1000
0000
0001
0000
0100
0000
0010
0000
1000
0000
0010
0000
0100
0000
0001
0000
0010
0000
0100
0000
1000
0001
1000
0001
,
1000
0000
0100
0000
0010
0000
0001
0000
0100
0000
0010
0000
1000
0010
1000
0010
1000
0000
0001
0000
0100
0000
0001
0000
0010
0000
0100
0000
1000
0000
0000
0000
,
1000
0000
0001
0000
0100
0000
0010
0000
0001
0000
1000
0000
0100
0000
0010
0000
0001
0000
1000
0000
0100
0000
0010
0000
0001
0000
1000
0000
0100
0001
0100
0001
,
0010
0000
0000
0000
0000
0000
0100
0000
0000
0000
0000
0000
0001
1000
0100
0010
0001
0000
0000
0000
0000
0000
0100
0000
0000
0000
0000
0000
0110
0000
0000
0000
,
100M
0100
0010
0100
1000
0010
0100
0010
,
1000
0100
0010
0001
1000
0100
0010
0001
,
1000
0001
1000
0001
0100
0010
0100
0010
,
1000
0100
0100
0001
0010
0010
1000
0010
,
0010
0001
0010
0001
0100
0010
0100
0010
,
1000
0100
0010
0100
1000
0001
0010
0100
,
1000
0100
0100
0001
0010
0010
1000
0100
,
0100
0010
0010
0001
0100
0100
1000
0010
,
0010
0001
0100
0010
1000
0010
0100
0001
,
0010
0100
1000
0100
0010
0001
0100
0010
,
1000
0001
0100
0001
0010
0001
0100
0010
,
1000
0010
0010
0001
0100
0100
1000
0100
,
0100
0001
0100
0001
1000
0010
1000
0010
,
0100
0010
0010
0001
0010
0010
0100
0010
,
0010
0001
0100
0010
1000
0001
0100
0010
,
4MM2
0000
0000
0000
0000
0000
0000
0000
0000
0000
0000
0000
0000
0000
0000
0000
0000
0000
0000
0000
0000
0000
0000
0000
0000
0000
0000
0000
0000
0000
0000
0000
0000
0000
0000
0000
0MM0
0000
0000
0000
0000
0000
0000
0000
0000
0000
0000
0000
0000
0000
0000
0000
0000
0000
0000
0000
0000
0000
0000
0000
0000
0000
0000
0000
0000
0000
0000
0000
0000
0000
0000
0000
0MM0
0000
0000
0000
0000
0000
0000
0000
0000
0000
0000
0000
0000
0000
0000
0000
0000
0000
0000
0000
0000
0000
0000
0000
0000
0000
0000
0000
0000
0000
0000
0000
0000
0000
0000
0000
0000
0000
0000
0000
0MM0
0000
0000
0000
0000
0000
0000
0000
0000
0000
0000
0000
0000
0000
0000
0000
0000
0000
0000
0000
0000
0000
0000
0000
0000
0000
0000
0000
0000
0000
0000
0000
0MM0
0000
0000
0000
0000
0000
0000
0000
0000
0000
0000
0000
0000
0000
0000
0000
0000
0000
0000
0000
0000
0000
0000
0000
0000
0000
0000
0000
0000
0000
0000
0000
0000
0000
0000
0000
0000
0000
0000
0000
0000
0000
0MM0
0000
0000
0000
0000
0000
,
0000
0000
0000
0000
0000
0000
0000
0000
0000
0000
0000
0000
0000
0000
0000
0000
0000
0000
0000
0000
0000
0000
0000
0000
0000
0000
0000
0000
0000
0000
0MM0
0000
0000
0000
0000
0000
0000
0000
0000
0000
0000
0000
0000
0000
0000
0000
0000
0000
0000
0000
0000
0000
0000
0000
0000
0000
0000
0000
0000
0000
0000
0000
0000
0000
0000
0000
0000
0000
0000
0000
0000
0000
0000
0000
0000
0000
0000
0000
0000
0000
0000
0000
0000
0000
0M00
0000
0000
0000
00M0
0000
0000
0000
0M00
0000
0000
0000
00M0
0000
0000
0000
0M00
0000
0000
0000
0000
0000
0000
0000
0000
0000
0000
0000
00M0
0000
0000
0000
0000
0000
0000
0000
0000
0000
0000
0000
0000
0000
0000
0000
0000
00M0
0000
0000
0000
0000
0000
0000
0000
0000
0000
0000
0000
0000
0000
0000
0000
0000
0000
0000
0000
0000
0000
0000
0000
0000
0000
0000
0000
0000
0000
0000
0000
0000
0000
0000
0000
00M0
0000
0000
0000
0000
0000
0000
0000
0000
0000
0000
0000
0000
0000
0000
0000
0000
0000
0000
0000
0000
0000
0000
0000
0000
0000
0000
,
0000
0000
0000
0000
0000
0000
0000
0000
0000
0000
0000
0000
0M00
0000
0000
0000
0000
0000
0000
0000
0000
0000
0000
0000
0000
0000
0000
0000
0000
0000
0000
0000
0000
0000
0000
0000
0000
0000
0000
0000
0000
0000
0000
0000
0000
0000
0000
0000
00M0
0M00
00M0
0000
0000
0000
0000
0000
3003
0000
0000
0000
0000
0000
0000
0000
,
0001
0100
0010
1000
0010
0100
0001
0010
,
0100
1000
0100
0010
0001
0100
0010
0100
,
0001
0100
0010
1000
0001
1000
0100
0010
,
0001
0100
0010
0100
0001
0100
0010
1000
,
0001
0100
0010
1000
0001
1000
0010
0100
,
0001
1000
0100
0010
0001
0100
0010
1000
,
0001
0100
0001
0010
0100
0010
0100
1000
,
0001
0000
0100
0000
0010
0000
1000
0000
0100
0000
0010
0001
0010
0001
0100
0000
,
0010
1000
0001
0100
0010
1000
0001
0100
,
0010
1000
0100
1000
0001
0100
0001
0010
,
0100
0010
0001
0100
0010
0100
0001
0100
,
0010
1000
0010
0100
0010
1000
0001
0010
,
0100
1000
0100
0010
0001
0100
0010
1000
,
0001
0100
0010
1000
0100
0010
0001
0100
,
0010
1000
0010
0100
0010
1000
0100
0010
,
0001
0000
0100
0000
0010
0000
0100
0000
0001
1000
0001
1000
0100
0000
0000
0000
,
2000
3200
2300
3020
0230
0302
0023
0230
,
2300
3200
0320
0032
0203
0320
2030
3200
,
0320
0230
2300
3002
0203
0320
2030
3002
,
0203
0320
2030
3200
0320
0032
2003
3020
,
2030
3200
2300
3002
0203
0320
2030
3002
,
0023
0230
2300
3002
0203
0320
2030
3020
,
0230
0302
2003
3002
0203
0320
2030
3020
,
0230
0302
2003
3200
0320
0032
2003
3020
,
0230
0302
0203
0320
2030
3020
0230
0302
,
0203
0320
2030
3002
2003
3020
0230
0302
,
0023
0230
2300
3200
0320
0032
0203
0320
,
0230
0302
2003
3002
0203
0302
0023
0230
,
2300
3002
0203
0320
2030
3002
0023
0230
,
2300
3002
0023
0230
2300
3002
0203
0320
,
1030
0010
2000
0000
3000
0000
0001
0100
0002
0000
0003
0000
1000
0010
1000
0010
,
1000
0100
0010
0001
0100
0001
0100
0001
0100
0001
0100
0001
0100
0000
0000
0000
,
0002
0023
0230
2300
,
3020
0230
0302
2003
,
3200
0320
0032
0203
,
0320
0000
0000
0000
0000
0000
0000
0000
0000
0000
0000
0000
0130
0000
0000
0000
0001
0000
0000
0000
0000
0100
0000
0000
0002
0000
0000
0000
0000
0000
0000
0000
0000
0000
0000
0000
2003
0000
0000
0000
0000
0000
0000
0000
0000
0000
0000
0000
,
3020
0230
0302
0023
,
0230
2300
3200
0320
,
0032
0203
0320
2030
,
3002
0023
0230
1300
,
2MM2
0000
0000
0000
,
0000
0000
0000
0000
,
0000
0000
0000
0000
,
0000
0000
0000
0000
,
0000
0000
0000
0000
,
0000
0000
0000
0000
,
0000
0000
0000
0000
,
0000
0000
0000
0000
,
3MM3
0000
0000
0000
;
