#TITLE:Z;
#SUBTITLE:;
#ARTIST:DM Ashura;
#TITLETRANSLIT:;
#SUBTITLETRANSLIT:;
#ARTISTTRANSLIT:;
#CREDIT:;
#BANNER:z.png;
#BACKGROUND:Z-bg.png;
#LYRICSPATH:;
#CDTITLE:!snapcdtitle.png;
#MUSIC:Z.mp3;
#OFFSET:-6.439;
#SAMPLESTART:92.794;
#SAMPLELENGTH:11.720;
#SELECTABLE:YES;
#BPMS:0.000=300.000,256.000=150.000,290.000=300.000;
#STOPS:256.000=2.400
;
#BGCHANGES:;
// cache tags:
#FIRSTBEAT:0.000;
#LASTBEAT:566.000;
#SONGFILENAME:Songs/new/Z (Crazylegz Edit)/Z.sm;
#HASMUSIC:1;
#HASBANNER:1;
#MUSICLENGTH:131.270;
// end cache tags

//---------------dance-single - ----------------
#NOTES:
     dance-single:
     :
     Challenge:
     13:
     0.942,1.000,0.884,0.488,0.175,686.000,116.000,64.000,0.000,0.000:
1000
1000
0000
0001
0001
0000
1000
0010
,
1000
0010
1000
0000
1010
0000
1001
0000
,
0010
0010
0000
0100
0100
0000
0001
0100
,
0001
0100
0001
0000
0101
0000
1001
0000
,
1000
1000
0000
0010
0010
0000
0001
1000
,
0001
1000
0001
0000
1001
0000
0110
0000
,
0100
0100
0000
0001
0001
0000
1000
0001
,
1000
0001
1000
0000
0011
0000
0011
0000
,
1000
0100
0000
0010
0001
0000
1000
0010
,
1000
0010
1000
0000
0110
0000
1001
0000
,
0010
0001
0000
1000
0100
0000
0001
0010
,
0001
0010
0001
0000
1001
0000
0110
0000
,
0001
0010
0000
0100
1000
0000
0010
0100
,
0010
0100
0010
0000
2000
0000
0002
3000
,
0103
0001
0000
1000
0010
0000
0100
0010
,
0100
0010
0100
0000
0101
0000
1001
0000
,
1000
0010
1000
0001
1000
0100
1000
0010
,
0100
0001
0100
0000
0101
0000
0011
0000
,
0001
0010
0001
1000
0001
0100
0010
0001
,
0010
1000
0010
0000
0011
0000
0011
0000
,
0010
0001
0010
0100
0010
1000
0010
0100
,
0010
0001
0010
0000
0110
0000
0110
0000
,
0100
1000
0100
0010
0100
0001
0100
1000
,
0100
0001
0100
0000
0101
0000
0101
0000
,
0011
0010
0110
0100
,
1100
0100
1001
0110
,
0100
1000
0010
0100
,
0001
0010
0100
1000
,
1001
0010
1001
1000
,
0010
0100
0010
0100
,
0110
0001
0100
0001
,
0011
0110
1100
1001
,
0220
0000
0000
0330
,
2002
0000
0000
3003
,
0022
0000
0000
0033
,
2200
0000
0000
3300
,
0002
0000
0000
0000
0020
0000
0000
0003
,
0200
0000
0000
0030
2000
0000
0000
3300
,
1100
0000
0000
0000
0000
0000
0000
0000
0000
0000
0000
0000
0000
0110
0000
0000
0000
0000
0000
0000
0000
0000
0000
0000
1100
0000
0000
0000
0000
0000
0000
0000
,
0000
0000
0000
0000
0000
0001
0000
0000
0000
0000
0000
0100
0000
0000
0000
0000
0000
0000
1000
0000
0100
0000
1000
0000
,
0000
0001
1000
2002
,
0000
0000
0000
0000
0000
0000
0000
0000
0000
3003
0000
0000
0000
0000
0000
0000
0000
0000
0001
0000
0010
0000
0002
0000
,
0000
1000
1003
0001
,
0000
0000
0000
0110
0000
0000
1001
0000
0000
1000
0010
1000
,
0000
0000
0002
2000
,
3003
0000
0000
0110
0000
0000
0110
0000
0000
0001
1000
0001
,
0000
0000
0000
0000
0000
0000
0000
0000
0000
0000
0000
1000
0000
0000
0000
0000
0000
0000
0000
0000
0000
0000
0000
0000
0001
0000
0000
0000
0000
0000
0000
0000
,
0000
0000
0000
1010
0000
0000
0101
0000
0000
1000
0001
2000
,
0010
0010
0010
3010
,
0012
0010
0010
0013
,
2100
0100
0100
3100
,
0201
0001
0001
0301
,
1020
1000
1000
1030
,
2001
0001
0001
3001
,
0120
0100
0100
0130
,
0210
0010
0010
0310
,
0002
0000
0003
2000
0000
3000
0012
0000
,
0000
0013
0000
0000
0100
1000
0100
0000
,
0002
0000
0003
0200
0000
0300
0020
0000
,
0030
0010
0000
0000
1000
0001
1000
0000
,
2000
0000
0000
3020
0000
0000
0230
0000
,
0000
0302
0000
0003
0001
0010
0001
0000
,
0022
0000
0033
2200
0000
3300
2020
0000
,
3030
0202
0000
0303
0220
0330
2002
3003
,
2002
3003
0000
0000
0000
0000
0000
0000
1001
0000
0000
0000
0000
0000
0000
0000
,
1000
0000
0000
0100
0000
0000
0010
0000
0001
0000
0000
1000
0000
0000
0010
0000
,
0100
0000
0000
0001
0000
0000
0110
0000
0110
0000
0000
0000
0000
0000
1000
0001
,
2000
0000
0000
0000
3001
0000
1000
0000
0000
1000
0100
0010
0001
1000
0100
0010
,
0001
0000
1010
0000
0011
0000
0000
1100
,
0000
0000
0000
0000
0001
0000
0010
0000
0200
0000
0000
1000
0300
0000
0100
0000
,
0000
0000
0000
0000
1100
0000
0000
0000
0001
1000
0001
1000
0001
1000
0001
1000
,
0001
1000
0001
1000
0001
1000
0001
1000
0001
1000
0001
1000
0001
1000
0001
1000
,
0001
1000
0001
1000
0001
1000
0001
1000
0001
0000
0010
0000
0100
0000
1000
0000
,
0001
0010
0100
1000
0010
1000
0010
1000
,
0010
1000
0001
0100
0001
0100
0001
0100
,
0001
0010
0100
0010
0100
0010
0100
0001
,
0100
0001
0100
0001
0100
0001
0100
0010
,
0100
0010
0100
0010
0100
1000
0100
1000
,
0100
1000
0001
1000
0001
1000
0001
1000
,
0001
1000
0001
1000
0001
1000
0010
0100
,
0010
0100
0010
1000
0100
1000
0001
0010
,
0001
0100
0010
0100
0001
0100
0001
1000
,
0010
1000
0001
0010
0001
1000
0100
1000
,
0001
0100
0001
1000
0010
0100
0001
1000
,
0010
0100
0001
1000
0100
0010
0100
0010
,
0100
0010
0100
0010
0100
0010
0001
1000
,
0001
1000
0001
1000
0001
1000
0001
0010
,
0100
1000
0001
0010
0100
1000
0001
0010
,
0100
2000
0000
0000
3001
1000
0000
0100
,
0010
0000
0001
1000
0001
1000
0001
0000
,
0110
0000
1001
0000
0001
0010
0000
0010
,
0001
0000
0010
0100
0010
0100
0010
0000
,
1001
0000
1001
0000
1000
0100
0000
0100
,
1000
0000
1000
1000
0000
0001
0001
0000
,
0110
0000
0110
0000
0001
0100
0000
0100
,
0001
0000
1000
0001
0000
1000
0001
0000
,
0010
0000
0100
0000
0001
1000
0000
0001
,
1000
0000
0001
1000
0000
0001
1000
0000
,
0001
0000
0001
0000
0010
0100
0000
0010
,
0100
0000
0010
0100
0000
0010
0100
0000
,
1000
0000
1000
0000
1000
0001
0000
1000
,
0001
0000
1000
0001
0000
1000
0001
0000
,
0010
0000
0010
0000
0100
0010
0000
0100
,
0010
0000
0100
0010
0000
0100
0010
0000
,
0100
0000
0100
0000
1100
0000
0000
0011
,
0000
0000
1100
0000
0000
0011
0000
0000
,
1100
0000
1100
0000
1010
0000
0000
0101
,
0000
0000
1010
0000
0000
0101
0000
0000
,
1100
0000
1100
0000
1010
0000
0000
0101
,
0000
0000
1010
0000
0000
0101
0000
0000
,
1010
0000
1010
0000
1100
0000
0000
1010
,
0000
0000
0101
0000
0000
0011
0000
0000
,
1001
0000
1001
0000
0110
0000
0000
1001
,
0000
0000
0101
0000
0000
1001
0000
0000
,
1100
0000
1001
0000
0110
0000
0000
0011
,
0000
0000
0110
0000
0000
1010
0000
0000
,
0110
0000
1001
0000
0001
0000
0000
0010
,
0000
0000
0100
0000
0000
1000
0000
0000
,
0010
0100
0010
0000
2000
0000
0000
3002
,
0000
0000
0023
0000
0000
0230
0000
0000
,
1300
1010
0020
0000
,
0000
0032
0000
0000
,
0003
0000
0000
1000
0100
1000
0000
0000
0000
0000
0000
0000
,
1000
1001
0000
0100
,
0010
0000
0000
0001
0010
0001
0000
0000
0000
0000
0000
0000
,
0000
2200
0000
0000
,
3300
0000
0000
0000
0000
0000
0000
0000
0000
0000
0000
0000
0000
0000
0000
0000
0000
0000
0000
0000
0000
0000
0000
0000
0000
0000
0000
0000
0000
0000
0000
0000
0000
0000
0000
0000
0000
0000
0000
0000
0000
0000
0000
0000
0000
0000
0000
0000
0001
0000
0000
0000
0000
0000
0000
0000
0000
0000
0000
0000
0000
0000
0000
0000
0010
0000
0000
0000
0000
0000
0000
0000
0000
0000
0000
0000
0000
0000
0000
0000
0001
0000
0000
0000
0000
0000
0000
0000
0000
0000
0000
0000
0000
0000
0000
0000
0000
0000
0000
0000
0000
0000
0000
0000
0000
0000
0000
0000
0000
0000
0000
0000
0000
0000
0000
0000
0000
0000
0000
0000
0000
0000
0000
0000
0000
0000
0000
0000
0000
0000
0000
0000
0000
0000
0000
0000
0000
0000
0000
0000
0000
0000
0000
0000
0000
0000
0000
0000
0000
0000
0000
0000
0000
0000
0000
0000
0000
0000
0000
0000
0000
0000
1000
0000
0000
0000
0000
0000
0000
0000
0000
0000
0000
0000
0000
0000
0000
0000
0000
0000
0000
0000
0000
0000
0000
0000
0000
0000
0000
0000
0000
0000
,
0000
0001
0100
0010
,
1000
0000
0100
0010
0001
1000
0100
0010
,
0001
1000
0100
0010
0001
0010
0001
1000
,
0010
1000
0001
0100
0001
1000
0010
1000
,
0010
0100
0010
1000
0100
1000
0001
0100
,
0001
0010
0001
0010
0001
1000
0001
1000
,
0001
1000
0010
0100
0010
0100
0010
0100
,
0001
0010
0100
1000
0001
1000
0100
0010
,
0001
1000
0001
0010
0100
1000
0010
0100
,
0001
1000
0001
1000
2002
0000
0000
0000
,
0000
0000
0000
0000
,
0000
0000
0000
0000
,
0000
0000
0000
0000
,
0000
0000
0000
0000
,
0000
0000
3003
0000
;

//---------------dance-single - Copied from----------------
#NOTES:
     dance-single:
     Copied from:
     Hard:
     10:
     0.847,1.000,0.769,0.571,0.057,602.000,101.000,75.000,0.000,0.000:
1000
0010
0000
0100
0001
0000
1000
0010
,
0000
0010
1000
0000
1010
0000
1001
0000
,
0010
0001
0000
1000
0100
0000
0001
0100
,
0000
0100
0001
0000
0101
0000
1001
0000
,
1000
0010
0000
0100
0010
0000
1000
0001
,
0000
0001
1000
0000
1001
0000
0110
0000
,
0100
0100
0000
0001
0001
0000
0001
1000
,
0000
1000
0001
0000
0011
0000
0011
0000
,
1000
0100
0000
0010
0001
0000
1000
0100
,
0000
0100
1000
0000
0110
0000
1001
0000
,
0010
0001
0000
1000
0100
0000
0001
0010
,
0000
0010
0001
0000
1001
0000
0110
0000
,
0001
0010
0000
0100
1000
0000
0010
0100
,
0000
0100
0010
0000
2000
0000
0002
3000
,
0103
0001
0000
1000
0010
0000
0100
0010
,
0000
0010
0100
0000
0101
0000
1001
0000
,
1000
0010
1000
0001
1000
0100
1000
0000
,
0000
0100
0101
0011
,
0001
0010
0001
1000
0001
0100
0001
0000
,
0000
0010
0011
0011
,
0010
0001
0010
0100
0010
0001
0010
0000
,
0000
0010
0110
0110
,
0100
1000
0100
0010
0100
1000
0100
0000
,
0000
0100
0101
0101
,
0011
0000
0110
0000
,
1100
0010
1001
0110
,
0100
0000
0010
0000
,
0001
0010
0100
1000
,
1001
0000
1001
0000
,
0010
0100
0010
0100
,
0110
0000
0100
0000
,
0011
0110
1100
1001
,
0220
0000
0000
0330
,
2002
0000
0000
3003
,
0022
0000
0000
0033
,
2200
0000
0000
3300
,
0002
0000
0000
0000
0020
0000
0000
0003
,
0200
0000
0000
0030
2000
0000
0000
3300
,
1100
0000
0000
0000
0000
0000
0000
0000
0000
0000
0000
0000
0000
0110
0000
0000
0000
0000
0000
0000
0000
0000
0000
0000
1100
0000
0000
0000
0000
0000
0000
0000
,
0000
0000
0000
0000
0000
0001
0000
0000
0000
0000
0000
0100
0000
0000
0000
0000
0000
0000
0000
0000
0000
0000
0000
0000
,
1100
0000
1000
2002
,
0000
0000
0000
3003
0000
0000
0010
0000
,
1001
0000
0000
0001
,
0000
0110
1001
1000
,
1100
0000
0002
2000
,
3003
0110
0110
0001
,
1000
0000
0000
0000
0000
0000
0000
0000
0000
0000
0000
1000
0000
0000
0000
0000
0000
0000
0000
0000
0000
0000
0000
0000
1000
0000
0000
0000
0000
0000
0000
0000
,
0000
0000
1010
0000
0101
0000
1000
0001
,
2000
0010
0010
3010
,
0002
1000
1000
1003
,
2000
0100
0100
3100
,
0200
0001
0001
0301
,
0020
1000
1000
1030
,
2000
0001
0001
3001
,
0020
0100
0100
0130
,
0200
0010
0010
0310
,
0001
0000
0000
1000
0000
0000
0001
0000
,
0000
0010
0000
0000
0100
0000
1000
0000
,
0010
0000
0000
0100
0000
0000
0001
0000
,
0000
0010
0000
0000
1000
0000
0001
0000
,
1000
0000
0000
0010
0000
0000
0100
0000
,
0000
1000
0000
0000
0001
0000
0010
0000
,
0002
0000
0003
0200
0000
0300
0020
0000
,
0030
2000
0000
3000
0110
0000
1001
0000
,
1001
0000
0001
0000
,
1000
0000
0000
0100
0000
0000
0010
0000
0001
0000
0000
1000
0000
0000
0010
0000
,
0100
0000
0000
0001
0000
0000
0110
0000
0110
0000
0000
0000
0000
0000
1000
0100
,
1000
0000
0000
0000
1001
0000
1001
0000
0000
1000
0100
1000
0100
1000
0100
1000
,
0100
0000
0010
0000
0020
0000
0000
0001
,
0030
0000
0000
0000
1010
0000
1001
0000
1100
0000
0000
0100
0000
0000
0100
0000
,
0000
0000
0000
0000
1100
0000
0000
0000
2002
0000
0000
0000
3003
0000
1000
0001
,
1000
0000
0000
0010
0000
0000
0100
0000
1010
0000
0000
0000
1000
0000
0000
0000
,
1000
1000
1000
0100
,
0010
0001
0010
0100
,
1000
0001
0100
0010
,
1000
0100
0020
0031
,
2000
3100
0002
0013
,
2000
3100
0002
0013
,
1000
0000
0010
0001
1000
0100
0010
0001
,
1000
0001
1000
0001
1000
0000
0010
0000
,
1001
0011
1001
1010
,
1001
1100
1001
0101
,
1001
0110
2000
3002
,
0023
0230
0302
2003
,
3020
0230
0300
1100
,
0110
0011
0101
1010
,
0000
0011
0110
1100
,
1010
0101
0000
1000
,
0110
0000
0110
0000
0001
0010
0000
0100
,
1000
0000
0010
0001
0000
0001
0010
0000
,
0011
0000
1001
0000
1000
0100
0000
0100
,
1000
0000
0010
0010
0000
0100
0100
0000
,
0110
0000
0110
0000
1000
0001
0000
1001
,
1001
0010
0100
0100
,
0001
0000
1000
0000
1000
0100
0000
0010
,
0001
0000
0100
0010
0000
1000
0001
0000
,
0001
0000
0001
0000
0010
0001
0000
0010
,
1000
0000
0010
0100
0000
0100
0010
0000
,
0100
0000
0100
0000
1000
0001
0000
1000
,
0001
0000
0001
1000
0000
1000
0001
0000
,
0110
0000
0110
0000
0100
1000
0000
0001
,
0010
0000
1000
0001
1000
0001
1000
0000
,
0110
0000
1001
0000
0010
0100
0000
0100
,
0010
0000
0100
0010
0100
0010
0100
0000
,
1001
0000
0110
0000
1000
0100
1000
0001
,
0100
0001
0010
0001
0100
0010
1000
0001
,
0100
0000
0000
0000
0001
0100
0010
1000
,
0001
0010
0001
1000
0001
0010
0100
1000
,
0100
1000
0100
0000
0010
0100
0001
1000
,
0010
0100
0001
1000
0010
0100
0010
0100
,
0010
0100
0010
0000
1000
0001
1000
0001
,
1000
0001
1000
0001
0100
0010
0100
0010
,
0100
0010
0100
0000
0001
0010
0100
1000
,
0001
0010
0100
1000
0001
0010
0100
1000
,
0001
0010
0100
0000
1000
0100
0010
0001
,
1000
0100
0010
0001
1000
0100
0010
0001
,
1000
0100
0010
0000
0001
0100
0010
1000
,
0001
0100
0010
1000
0001
0100
0010
1000
,
0001
0100
0010
0000
0001
1000
0001
1000
,
0001
1000
0001
1000
0010
0100
0010
0100
,
0010
0100
0010
0000
2000
0000
0000
0000
,
0000
0000
3002
0000
,
0000
0000
2003
0000
,
0000
0000
3002
0000
,
0000
0000
0023
0000
,
0032
0000
0203
0000
,
0320
0000
2030
0000
,
3200
0000
2300
0000
,
3200
0000
2300
3020
,
0230
0320
0230
0320
,
0230
0302
2003
3020
,
2030
3020
0230
0302
,
0023
0000
0031
0000
0010
0001
1000
0100
,
0010
0001
1000
0100
0010
0001
1000
0010
,
0100
0001
1000
0010
0100
0001
1000
0100
,
1000
0001
0010
0001
0100
0010
0100
0000
,
1001
0110
0220
0000
,
0000
0000
0000
0000
,
0000
0000
0000
0000
,
0000
0000
0000
0000
,
0000
0000
0330
0000
;
