#TITLE:Baroque Bit;
#SUBTITLE:;
#ARTIST:CCDM;
#TITLETRANSLIT:;
#SUBTITLETRANSLIT:;
#ARTISTTRANSLIT:;
#CREDIT:;
#BANNER:../ban - Jawn2.png;
#BACKGROUND:../Jawn2 - bg.png;
#LYRICSPATH:;
#CDTITLE:../CDa.png;
#MUSIC:Baroque Bit.ogg;
#OFFSET:0.009;
#SAMPLESTART:66.670;
#SAMPLELENGTH:16.400;
#SELECTABLE:YES;
#BPMS:0.000=234.000;
#STOPS:;
#BGCHANGES:;
// cache tags:
#FIRSTBEAT:0.000;
#LASTBEAT:573.000;
#SONGFILENAME:Songs/Jimmy Jawns 2/Baroque Bit - [Aoreo]/Baroque Bit.sm;
#HASMUSIC:1;
#HASBANNER:1;
#MUSICLENGTH:147.586;
// end cache tags

//---------------dance-single - J. Nero----------------
#NOTES:
     dance-single:
     J. Nero:
     Challenge:
     19:
     1.000,1.000,0.041,0.081,1.000,1626.000,6.000,12.000,0.000,0.000:
0001
0000
0100
0000
0000
1000
0000
0001
,
1000
0001
0010
0000
0010
0001
1000
0100
,
0000
2000
0000
3010
0100
0010
1000
0100
,
0010
0000
0001
0100
0001
0010
0100
0000
,
1000
0000
0000
0000
0001
0000
1000
0001
1000
0010
0100
0001
0010
0100
1000
0001
,
1000
0001
0100
0010
0000
1000
0100
1000
,
0001
0000
0010
0100
1000
0000
0001
0100
,
0010
0000
0000
0000
1000
0100
0010
0000
,
0001
0000
1000
0000
0100
0000
1000
0001
0100
0001
0010
0000
0100
0000
1000
0000
,
0010
1000
0100
0010
0001
1000
0001
0100
,
0001
0000
1000
0100
0010
0001
1000
0000
,
0001
0100
0001
0010
0200
0300
1000
0010
,
1000
0100
0010
0001
1000
0100
1000
0010
,
0100
0010
1000
0100
0010
0001
0100
0010
,
1000
0100
1000
0001
0100
0010
1000
0100
0010
0001
0100
0001
,
1000
0000
0010
0000
0100
0000
0000
0000
0001
0000
0010
0000
0100
0000
1000
0001
,
1000
0100
0010
0001
0100
0001
1000
0100
0010
0100
1000
0001
0100
0010
1000
0010
,
0100
0001
1000
0100
0010
0001
1000
0001
0100
0010
1000
0001
0010
0100
0010
0001
,
0100
0010
1000
0010
0100
0001
1000
0100
1000
0000
0001
0000
0100
0000
0010
0000
,
1000
0100
0010
0001
0000
0000
1000
1000
,
0001
0100
0010
0100
0001
0010
0100
1000
,
0001
0100
0001
0000
1000
0000
0100
0000
0010
0000
0001
1000
0001
0100
0010
0000
,
1000
0000
0100
0010
0001
1000
0001
0100
0010
0000
1000
0100
0010
0000
0001
1000
,
0001
0100
0001
0000
0010
0100
1000
0001
1000
0000
0000
0000
0001
0000
0100
0000
,
0010
0000
1000
0000
0100
0000
0010
0000
0100
0000
1000
0000
0010
0000
0100
0001
,
0000
1000
0100
0100
0010
0001
1000
0100
,
1000
0001
1000
0010
0100
0000
0001
0000
0010
0000
0001
0000
0100
0010
1000
0010
,
0100
0000
0001
1000
0001
0010
0100
0000
1000
0000
0010
0000
1000
0000
0100
0000
,
0010
0000
0001
0000
1000
0001
1000
0010
0100
0001
0010
0100
1000
0000
0001
0000
,
1000
0001
1000
0100
0010
0001
0100
0001
,
1000
0100
1000
0001
0100
0010
1000
0100
0010
0001
1000
0000
0001
1000
0001
0100
,
0010
1000
0100
0010
0001
0000
1000
0000
0010
0000
0100
0000
0001
0000
0010
0000
,
0100
0000
1000
0000
0001
1000
0001
0010
0100
0000
1000
0000
0040
0000
0000
0000
,
0000
0000
1030
0000
0001
0000
1000
0000
0100
0000
1000
0000
0001
0100
0001
1000
,
0100
0000
0010
0000
0001
0000
1000
0010
0100
0000
0001
0010
0100
0000
1000
0000
,
0001
0100
0010
1000
0100
0010
0100
1000
,
0010
0000
0100
0001
1000
0000
0001
0100
0010
0000
1000
0100
0010
0000
0001
0100
,
0010
0000
1000
0001
1000
0100
0010
0001
1000
0000
0001
0000
0100
0000
0010
1000
,
0001
1000
0100
0000
0010
0004
4000
0000
0000
0000
3003
0000
0001
0000
1000
0001
,
1000
0010
0100
0000
0001
0000
0010
0000
0100
0000
0010
0000
0001
0000
0100
0000
,
0010
0000
0010
0000
1000
0001
1000
0010
0100
0000
0001
0010
0100
1000
0001
0000
,
1000
0000
0100
0000
1000
0000
1000
0000
0010
0000
0100
0000
0001
1000
0001
0010
,
0100
1000
0001
0000
2000
0000
0000
3000
0001
0000
0001
0000
0100
0000
0010
1000
,
0010
0100
0001
0010
0100
1000
0001
0001
,
1000
0000
0100
1000
0001
0100
0010
0100
0001
0010
0100
1000
0010
0100
0001
0010
,
0001
0010
0100
1000
0004
0000
0000
0000
,
0000
0000
0000
0000
1003
0000
1000
0000
0001
0100
0001
1000
0100
0000
0010
0000
,
0001
1000
0001
1000
0010
0010
0100
0001
,
1000
0000
0100
0000
1000
0000
0010
0000
0100
0001
1000
0001
0010
0000
0010
0000
,
0100
0000
1000
0001
0100
0000
0001
0010
0100
0000
1000
0010
0100
0000
0001
1000
,
0100
0000
1000
0001
0010
0000
0100
0000
1000
0000
0010
0000
1000
0001
1000
0010
,
0400
0000
0304
0000
1003
0000
1000
0000
0100
0010
0001
0000
0100
0000
0001
0000
,
0100
0000
0100
0000
0010
1000
0010
0100
0001
0000
0001
0000
0100
0000
0001
0000
,
0010
0000
0100
0000
1000
0000
0010
0000
0100
0000
0001
0000
1000
0000
1000
0001
,
0100
0010
1000
0000
0001
1000
0001
0000
0040
0030
0100
0000
1000
0000
0010
0000
,
0100
0000
0010
0000
1000
0100
1000
0010
0100
0001
0010
0001
1000
0000
0010
0000
,
1000
0001
1000
0100
0010
0000
0010
0000
0001
0000
1000
0000
0001
0000
1000
0000
,
0200
0000
0000
0000
0000
0000
0310
0001
1000
0000
0001
1000
0001
0100
0040
0000
,
0000
0000
1030
0000
0001
0100
0001
0000
0010
0100
1000
0000
0001
0000
0001
0000
,
1000
0010
0100
0001
0100
0010
1000
0001
1000
0100
0010
0001
1000
0001
0100
0010
,
1000
0001
1000
0100
0010
0001
0100
0001
1000
0100
0010
0100
1000
0001
0100
0001
,
1000
0100
1000
0001
0100
0010
1000
0010
0100
0001
1000
0001
0010
0100
1000
0001
,
0100
0001
1000
0010
0100
0001
0100
0010
1000
0001
1000
0100
0010
0001
1000
0100
,
1000
0001
0100
0010
0100
0001
1000
0001
0010
0100
0010
0001
1000
0001
0100
0010
,
1000
0010
0100
0001
1000
0100
0010
0001
1000
0100
1000
0001
0100
0010
1000
0010
,
0100
0001
0010
0100
1000
0001
0100
0001
1000
0100
0010
0100
1000
0010
0100
0001
,
1000
0100
1000
0001
0100
0010
0100
0001
1000
0001
0010
0100
1000
0010
0100
0001
,
0100
0010
1000
0001
1000
0100
0010
0001
0100
0001
1000
0100
0010
0100
1000
0001
,
0100
0001
0010
0100
1000
0001
1000
0010
0100
0001
1000
0100
0010
0100
1000
0010
,
0100
0001
0100
0010
1000
0001
1000
0100
0010
0001
0100
0010
1000
0100
0010
0001
,
0100
0001
1000
0100
1000
0010
0100
0001
0100
0010
1000
0100
0010
0001
0100
0001
,
1000
0100
0010
0100
1000
0010
0100
0001
0100
0010
1000
0001
1000
0100
0010
0001
,
0100
0001
1000
0100
1000
0010
0100
0001
1000
0100
1000
0001
0010
0001
0100
0010
,
1000
0010
0100
0001
1000
0100
0010
0001
0100
0001
0010
0100
1000
0010
1000
0001
,
0100
0001
0010
0100
1000
0010
0100
0010
1000
0100
0010
0100
1000
0010
0100
0010
,
1000
0001
1000
0100
0010
0001
0100
0001
1000
0100
1000
0001
0100
0010
0100
0001
,
1000
0100
0010
0100
1000
0001
0100
0010
0100
0001
1000
0100
0010
0001
0100
0001
,
1000
0010
1000
0100
0010
0001
1000
0001
0100
0010
1000
0001
0010
0001
0100
0010
,
1000
0010
0100
0001
1000
0100
0010
0001
0100
0001
1000
0100
0010
0100
1000
0010
,
0100
0001
0010
0001
0100
0010
1000
0001
1000
0100
0010
0001
1000
0001
1000
0010
,
1000
0100
0010
0001
0100
0001
0010
0100
1000
0010
0100
0001
0010
0100
1000
0001
,
1000
0010
0100
0001
1000
0100
1000
0010
0100
0001
0010
0100
1000
0001
1000
0010
,
0100
0001
0100
0010
1000
0001
1000
0100
0010
0001
0100
0001
0010
0100
1000
0010
,
0100
0001
0100
0010
1000
0001
0010
0100
0010
0001
1000
0010
1000
0100
0010
0001
,
0100
0010
1000
0100
1000
0010
0100
0001
1000
0100
0010
0001
1000
0010
0100
0001
,
1000
0100
1000
0010
0100
0001
0010
0001
1000
0010
1000
0001
0010
0100
1000
0001
,
1000
0010
0100
0001
1000
0100
1000
0010
0100
0001
0010
0100
1000
0010
0100
0001
,
0100
0010
1000
0001
1000
0100
0010
0001
0100
0001
1000
0100
1000
0010
0100
0001
,
0010
0100
1000
0001
1000
0010
0100
0001
0100
0010
1000
0001
1000
0100
1000
0010
,
0100
0001
0010
0100
1000
0010
1000
0001
0010
0100
1000
0010
1000
0100
0010
0001
,
1000
0100
1000
0010
0100
0001
0010
0100
1000
0010
0100
0001
0010
0100
1000
0010
,
0100
0001
0010
0001
0100
0010
1000
0100
0010
0001
0100
0001
1000
0100
0010
0100
,
1000
0010
0100
0001
0010
0001
1000
0100
1000
0010
0100
0001
1000
0100
0010
0001
,
0100
0001
0010
0100
1000
0010
0100
0001
0010
0001
0100
0010
1000
0100
0010
0001
,
0100
0001
0010
0100
1000
0010
0100
0001
1000
0001
0100
0001
1000
0100
0010
0001
,
1000
0010
1000
0100
0010
0001
0100
0001
1000
0100
0010
0100
1000
0010
0100
0001
,
0010
0001
1000
0010
0100
0001
0100
0010
1000
0100
0010
0001
0100
0001
1000
0010
,
1000
0001
0100
0001
1000
0100
1000
0010
0100
0001
0100
0010
1000
0001
1000
0100
,
0010
0001
0100
0001
1000
0100
0010
0100
1000
0001
0100
0010
1000
0010
0100
0001
,
1000
0100
0010
0001
0100
0001
0010
0100
1000
0010
1000
0001
1000
0100
0010
0001
,
1000
0001
1000
0100
0010
0001
0100
0001
,
1000
0100
1000
0010
0100
0001
0100
0010
,
1000
0100
0010
0001
0100
0001
0010
0100
,
1000
0010
0100
0010
1000
0001
1000
0100
,
0010
0000
0001
0000
0100
0000
0001
0000
1000
0000
0100
0000
1000
0001
1000
0100
,
0010
0001
0100
0001
1000
0000
0100
0000
1000
0010
1000
0001
0400
0300
0004
0003
,
0010
0000
0100
0000
1000
0000
0010
0000
1000
0000
0001
0100
0001
0000
0010
0000
,
0100
1000
0010
1000
0001
0100
0001
0100
,
0010
1000
0001
0010
0100
1000
0010
1000
0001
0100
0010
1000
0001
1000
0100
0010
,
0001
1000
0001
0100
0040
0030
1000
0000
0001
0010
0100
0000
1000
0001
1000
0010
,
0100
0001
1000
0100
0010
0001
1000
0000
0000
0000
0001
0100
0001
1000
0100
0010
,
0001
1000
0010
0100
0010
1000
0001
0010
0100
0000
0000
0000
1000
0001
1000
0100
,
0010
0001
1000
0001
0100
0010
1000
0001
1000
0000
0001
0000
0100
0000
0001
0000
,
0010
0000
0100
0000
1000
0000
0001
0000
1000
0000
0010
0000
0100
0001
1000
0001
,
0010
0100
1000
0001
1000
0010
0100
0000
0001
0100
0001
1000
0200
0300
0020
0030
,
0001
1000
0001
0100
0010
0000
1000
0100
0010
0000
0001
0000
1000
0000
0001
0000
,
0010
0000
0100
0000
1000
0001
1000
0001
0100
0000
0010
0000
1000
0000
0100
0000
,
0010
0000
0001
0000
1000
0000
0001
0000
0100
0001
1000
0001
0010
0100
1000
0001
,
0400
0300
0001
1000
0001
0010
0100
1000
0001
1000
0010
0100
0001
0000
1000
0000
,
0001
0000
0100
0000
0001
0000
0010
0100
1000
0000
0001
0000
0100
0000
0001
0000
,
0020
0030
0100
0000
1000
0000
0010
0000
1000
0000
0100
0000
1000
0000
0001
0000
,
0100
0000
0010
0000
1000
0000
0001
0100
0010
0000
1000
0100
0010
0001
1000
0001
,
0100
0000
0001
0000
0010
0000
0001
0000
1000
0000
0010
0100
0001
0000
1000
0100
,
0010
0000
0001
1000
0004
0000
0000
0000
0000
0000
0000
0003
1000
0100
1000
0001
,
0100
0010
1000
0001
1000
0100
0010
0001
1000
0001
0100
0010
1000
0100
0010
0001
,
1000
0000
0100
0000
1000
0000
0001
0000
0100
0000
0010
0000
1000
0001
1000
0100
,
0010
0001
0100
0001
1000
0000
0001
0000
0040
0030
0400
0300
4000
3000
0001
0000
,
1000
0100
1000
0010
0200
0000
0000
0300
0001
1000
0001
0010
0100
1000
0001
0100
,
0010
1000
0100
0010
0001
0000
1000
0100
1000
0001
0100
0010
1000
0000
0001
0000
,
0100
0000
0001
0000
0010
0100
1000
0001
2000
0000
0000
0000
3001
0000
0100
0000
,
0001
0000
0010
0000
0100
0000
1000
0001
0100
0000
0001
0000
0010
0000
0001
1000
,
0001
0010
0100
0000
1000
0000
0010
1000
0001
1000
0400
0300
0010
0000
0001
0000
,
1000
0100
1000
0001
0400
0300
0010
0000
1000
0000
0100
0010
0001
1000
0004
0003
,
1000
0000
0100
0000
1000
0010
1000
0001
0400
0300
0001
0000
0020
0030
0400
0300
,
1000
0001
1000
0010
0100
0000
0001
0000
1000
0001
1000
0010
0100
0001
0010
0100
,
1000
0000
0001
0000
1000
0000
0100
0000
0010
0000
0001
0100
0001
1000
0100
0000
,
1000
0100
0010
0000
0001
0000
0100
0000
0001
0000
1000
0000
0100
0000
1000
0000
,
0010
0100
0001
1000
0001
0000
0010
0000
0100
1000
0100
1000
0010
0000
0100
0001
,
0100
0000
0000
0001
0000
0000
0010
0000
0000
0000
0000
0000
0100
0000
0000
0000
0000
0000
1000
0000
0000
0001
0000
0000
1000
0000
0000
0010
0000
0000
0100
0000
0000
0000
0000
0000
0001
0000
0000
0000
1000
0000
0000
0000
0100
0000
0000
0000
,
0010
0100
1000
0010
0100
0001
0000
0000
0000
0000
0000
0000
,
2002
0000
0000
0000
,
0000
0000
0000
0000
,
0000
0000
0000
0000
,
0000
3003
0000
0000
;

//---------------dance-single - J. Nero----------------
#NOTES:
     dance-single:
     J. Nero:
     Hard:
     18:
     1.000,1.000,0.041,0.095,1.000,1568.000,6.000,14.000,0.000,0.000:
0001
0000
0100
0000
0000
1000
0000
0001
,
1000
0001
0010
0000
0010
0001
1000
0100
,
0000
2000
0000
3010
0100
0010
1000
0100
,
0010
0000
0001
0100
0001
0010
0100
0000
,
1000
0000
0000
0000
0001
0000
1000
0001
1000
0010
0100
0001
0010
0100
1000
0001
,
1000
0001
0100
0010
0000
1000
0100
1000
,
0001
0000
0010
0100
1000
0000
0001
0100
,
0010
0000
0000
0000
1000
0100
0010
0000
,
0001
0000
1000
0000
0100
0000
1000
0001
0100
0001
0010
0000
0100
0000
1000
0000
,
0010
1000
0100
0010
0001
1000
0001
0100
,
0001
0000
1000
0100
0010
0001
1000
0000
,
0001
0100
0001
0010
0200
0300
1000
0010
,
1000
0100
0010
0001
1000
0100
1000
0010
,
0100
0010
1000
0100
0010
0001
0100
0010
,
1000
0100
1000
0001
0100
0010
1000
0100
0010
0001
0100
0001
,
1000
0000
0010
0000
0100
0000
0000
0000
0001
0000
0010
0000
0100
0000
1000
0001
,
1000
0100
0010
0001
0100
0001
1000
0100
0010
0100
1000
0001
0100
0010
1000
0010
,
0100
0001
1000
0100
0010
0001
1000
0001
0100
0010
1000
0001
0010
0100
0010
0001
,
0100
0010
1000
0010
0100
0001
1000
0100
1000
0000
0001
0000
0100
0000
0010
0000
,
1000
0100
0010
0001
0000
0000
1000
1000
,
0001
0100
0010
0100
0001
0010
0100
1000
,
0001
0100
0001
0000
1000
0000
0100
0000
0010
0000
0001
1000
0001
0100
0010
0000
,
1000
0000
0100
0010
0001
1000
0001
0100
0010
0000
1000
0100
0010
0000
0001
1000
,
0001
0100
0001
0000
0010
0100
1000
0001
1000
0000
0000
0000
0001
0000
0100
0000
,
0010
0000
1000
0000
0100
0000
0010
0000
0100
0000
1000
0000
0010
0000
0100
0001
,
0000
1000
0100
0100
0010
0001
1000
0100
,
1000
0001
1000
0010
0100
0000
0001
0000
0010
0000
0001
0000
0100
0010
1000
0010
,
0100
0000
0001
1000
0001
0010
0100
0000
1000
0000
0010
0000
1000
0000
0100
0000
,
0010
0000
0001
0000
1000
0001
1000
0010
0100
0001
0010
0100
1000
0000
0001
0000
,
1000
0001
1000
0100
0010
0001
0100
0001
,
1000
0100
1000
0001
0100
0010
1000
0100
0010
0001
1000
0000
0001
1000
0001
0100
,
0010
1000
0100
0010
0001
0000
1000
0000
0010
0000
0100
0000
0001
0000
0010
0000
,
0100
0000
1000
0000
0001
1000
0001
0010
0100
0000
1000
0000
0040
0000
0000
0000
,
0000
0000
1030
0000
0001
0000
1000
0000
0100
0000
1000
0000
0001
0100
0001
1000
,
0100
0000
0010
0000
0001
0000
1000
0010
0100
0000
0001
0010
0100
0000
1000
0000
,
0001
0100
0010
1000
0100
0010
0100
1000
,
0010
0000
0100
0001
1000
0000
0001
0100
0010
0000
1000
0100
0010
0000
0001
0100
,
0010
0000
1000
0001
1000
0100
0010
0001
1000
0000
0001
0000
0100
0000
0010
1000
,
0001
1000
0100
0000
0010
0004
4000
0000
0000
0000
3003
0000
0001
0000
1000
0001
,
1000
0010
0100
0000
0001
0000
0010
0000
0100
0000
0010
0000
0001
0000
0100
0000
,
0010
0000
0010
0000
1000
0001
1000
0010
0100
0000
0001
0010
0100
1000
0001
0000
,
1000
0000
0100
0000
1000
0000
1000
0000
0010
0000
0100
0000
0001
1000
0001
0010
,
0100
1000
0001
0000
2000
0000
0000
3000
0001
0000
0001
0000
0100
0000
0010
1000
,
0010
0100
0001
0010
0100
1000
0001
0001
,
1000
0000
0100
1000
0001
0100
0010
0100
0001
0010
0100
1000
0010
0100
0001
0010
,
0001
0010
0100
1000
0004
0000
0000
0000
,
0000
0000
0000
0000
1003
0000
1000
0000
0001
0100
0001
1000
0100
0000
0010
0000
,
0001
1000
0001
1000
0010
0010
0100
0001
,
1000
0000
0100
0000
1000
0000
0010
0000
0100
0001
1000
0001
0010
0000
0010
0000
,
0100
0000
1000
0001
0100
0000
0001
0010
0100
0000
1000
0010
0100
0000
0001
1000
,
0100
0000
1000
0001
0010
0000
0100
0000
1000
0000
0010
0000
1000
0001
1000
0010
,
0400
0000
0304
0000
1003
0000
1000
0000
0100
0010
0001
0000
0100
0000
0001
0000
,
0100
0000
0100
0000
0010
1000
0010
0100
0001
0000
0001
0000
0100
0000
0001
0000
,
0010
0000
0100
0000
1000
0000
0010
0000
0100
0000
0001
0000
1000
0000
1000
0001
,
0100
0010
1000
0000
0001
1000
0001
0000
0040
0030
0100
0000
1000
0000
0010
0000
,
0100
0000
0010
0000
1000
0100
1000
0010
0100
0001
0010
0001
1000
0000
0010
0000
,
1000
0001
1000
0100
0010
0000
0010
0000
0001
0000
1000
0000
0001
0000
1000
0000
,
0200
0000
0000
0000
0000
0000
0310
0001
1000
0000
0001
1000
0001
0100
0040
0000
,
0000
0000
1030
0000
0001
0100
0001
0000
0010
0100
1000
0000
0001
0000
0001
0000
,
1000
0010
0100
0001
0100
0010
1000
0001
1000
0100
0010
0001
1000
0001
0100
0010
,
1000
0100
1000
0001
0100
0001
0010
0100
,
1000
0001
1000
0100
0010
0100
1000
0001
,
0100
0001
0010
0001
1000
0010
0100
0010
,
1000
0001
0010
0100
1000
0001
0100
0010
,
0100
0000
0001
0000
1000
0000
0100
0000
0010
0001
1000
0000
0010
0000
1000
0010
,
0100
0001
0010
0100
1000
0001
0100
0001
1000
0100
0010
0100
1000
0010
0100
0001
,
1000
0100
1000
0001
0100
0010
0100
0001
1000
0001
0010
0100
1000
0010
0100
0001
,
0100
0010
1000
0001
1000
0100
0010
0001
0100
0001
1000
0100
0010
0100
1000
0001
,
0100
0001
0010
0100
1000
0001
1000
0010
0100
0001
1000
0100
0010
0100
1000
0010
,
0100
0001
0100
0010
1000
0001
1000
0100
0010
0001
0100
0010
1000
0100
0010
0001
,
0100
0001
1000
0100
1000
0010
0100
0001
0100
0010
1000
0100
0010
0001
0100
0001
,
1000
0100
0010
0100
1000
0010
0100
0001
0100
0010
1000
0001
1000
0100
0010
0001
,
0100
0001
1000
0100
1000
0010
0100
0001
1000
0100
1000
0001
0010
0001
0100
0010
,
1000
0010
0100
0001
1000
0100
0010
0001
0100
0001
0010
0100
1000
0010
1000
0001
,
0100
0001
0010
0100
1000
0000
0010
0000
0100
0000
0001
0000
0010
0000
0100
0000
,
1000
0001
1000
0100
0010
0001
0100
0001
1000
0100
1000
0001
0100
0010
0100
0001
,
1000
0100
0010
0100
1000
0001
0100
0010
0100
0001
1000
0100
0010
0001
0100
0001
,
1000
0010
1000
0100
0010
0001
1000
0001
0100
0010
1000
0001
0010
0001
0100
0010
,
1000
0010
0100
0001
1000
0100
0010
0001
0100
0001
1000
0100
0010
0100
1000
0010
,
0100
0001
0010
0001
1000
0010
0200
0000
0000
0000
0000
0000
0302
0000
0000
0000
,
1003
0100
0010
0001
0100
0001
0010
0100
1000
0010
0100
0001
0010
0100
1000
0001
,
1000
0010
0100
0001
1000
0100
1000
0010
0100
0001
0010
0100
1000
0001
1000
0010
,
0100
0001
0100
0010
1000
0001
1000
0100
0010
0001
0100
0001
0010
0100
1000
0010
,
0100
0001
0100
0010
1000
0001
0010
0100
0010
0001
1000
0010
1000
0100
0010
0001
,
0100
0010
1000
0100
1000
0010
0100
0001
1000
0100
0010
0001
1000
0010
0100
0001
,
1000
0100
1000
0010
0100
0001
0010
0001
1000
0010
1000
0001
0010
0100
1000
0001
,
1000
0010
0100
0001
1000
0100
1000
0010
0100
0001
0010
0100
1000
0010
0100
0001
,
0100
0010
1000
0001
1000
0100
0010
0001
0100
0001
1000
0100
1000
0010
0100
0001
,
0010
0100
1000
0001
1000
0010
0100
0001
0100
0010
1000
0001
1000
0100
1000
0010
,
0100
0001
0010
0100
1000
0010
1000
0001
0010
0100
1000
0010
1000
0100
0010
0001
,
1000
0100
1000
0010
0100
0001
0010
0100
1000
0010
0100
0001
0010
0100
1000
0010
,
0100
0001
0010
0001
0100
0010
1000
0100
0010
0001
0100
0001
1000
0100
0010
0100
,
1000
0010
0100
0001
0010
0001
1000
0100
1000
0010
0100
0001
1000
0100
0010
0001
,
0100
0001
0010
0100
1000
0010
0100
0001
0010
0001
0100
0010
1000
0100
0010
0001
,
1000
0001
0100
0010
1000
0000
0001
0000
0100
0000
0001
0000
0010
0000
0100
0000
,
1000
0010
1000
0100
0010
0001
0100
0001
1000
0100
0010
0100
1000
0010
0100
0001
,
0010
0001
1000
0010
0100
0001
0100
0010
1000
0100
0010
0001
0100
0001
1000
0010
,
1000
0001
0100
0001
1000
0100
1000
0010
0100
0001
0100
0010
1000
0001
1000
0100
,
0010
0001
0100
0001
1000
0100
0010
0100
1000
0001
0100
0010
1000
0010
0100
0001
,
1000
0100
0010
0001
0100
0001
0010
0100
1000
0010
1000
0001
1000
0100
0010
0001
,
1000
0001
1000
0100
0010
0001
0100
0001
,
1000
0100
1000
0010
0100
0001
0100
0010
,
1000
0100
0010
0001
0100
0001
0010
0100
,
1000
0010
0100
0010
1000
0001
1000
0100
,
0010
0000
0001
0000
0100
0000
0001
0000
1000
0000
0100
0000
1000
0001
1000
0100
,
0010
0001
0100
0001
1000
0000
0100
0000
1000
0010
1000
0001
0400
0300
0004
0003
,
0010
0000
0100
0000
1000
0000
0010
0000
1000
0000
0001
0100
0001
0000
0010
0000
,
0100
1000
0010
1000
0001
0100
0001
0100
,
0010
1000
0001
0010
0100
1000
0010
1000
0001
0100
0010
1000
0001
1000
0100
0010
,
0001
1000
0001
0100
0040
0030
1000
0000
0001
0010
0100
0000
1000
0001
1000
0010
,
0100
0001
1000
0100
0010
0001
1000
0000
0000
0000
0001
0100
0001
1000
0100
0010
,
0001
1000
0010
0100
0010
1000
0001
0010
0100
0000
0000
0000
1000
0001
1000
0100
,
0010
0001
1000
0001
0100
0010
1000
0001
1000
0000
0001
0000
0100
0000
0001
0000
,
0010
0000
0100
0000
1000
0000
0001
0000
1000
0000
0010
0000
0100
0001
1000
0001
,
0010
0100
1000
0001
1000
0010
0100
0000
0001
0100
0001
1000
0200
0300
0020
0030
,
0001
1000
0001
0100
0010
0000
1000
0100
0010
0000
0001
0000
1000
0000
0001
0000
,
0010
0000
0100
0000
1000
0001
1000
0001
0100
0000
0010
0000
1000
0000
0100
0000
,
0010
0000
0001
0000
1000
0000
0001
0000
0100
0001
1000
0001
0010
0100
1000
0001
,
0400
0300
0001
1000
0001
0010
0100
1000
0001
1000
0010
0100
0001
0000
1000
0000
,
0001
0000
0100
0000
0001
0000
0010
0100
1000
0000
0001
0000
0100
0000
0001
0000
,
0020
0030
0100
0000
1000
0000
0010
0000
1000
0000
0100
0000
1000
0000
0001
0000
,
0100
0000
0010
0000
1000
0000
0001
0100
0010
0000
1000
0100
0010
0001
1000
0001
,
0100
0000
0001
0000
0010
0000
0001
0000
1000
0000
0010
0100
0001
0000
1000
0100
,
0010
0000
0001
1000
0004
0000
0000
0000
0000
0000
0000
0003
1000
0100
1000
0001
,
0100
0010
1000
0001
1000
0100
0010
0001
1000
0001
0100
0010
1000
0100
0010
0001
,
1000
0000
0100
0000
1000
0000
0001
0000
0100
0000
0010
0000
1000
0001
1000
0100
,
0010
0001
0100
0001
1000
0000
0001
0000
0040
0030
0400
0300
4000
3000
0001
0000
,
1000
0100
1000
0010
0200
0000
0000
0300
0001
1000
0001
0010
0100
1000
0001
0100
,
0010
1000
0100
0010
0001
0000
1000
0100
1000
0001
0100
0010
1000
0000
0001
0000
,
0100
0000
0001
0000
0010
0100
1000
0001
2000
0000
0000
0000
3001
0000
0100
0000
,
0001
0000
0010
0000
0100
0000
1000
0001
0100
0000
0001
0000
0010
0000
0001
1000
,
0001
0010
0100
0000
1000
0000
0010
1000
0001
1000
0400
0300
0010
0000
0001
0000
,
1000
0100
1000
0001
0400
0300
0010
0000
1000
0000
0100
0010
0001
1000
0004
0003
,
1000
0000
0100
0000
1000
0010
1000
0001
0400
0300
0001
0000
0020
0030
0400
0300
,
1000
0001
1000
0010
0100
0000
0001
0000
1000
0001
1000
0010
0100
0001
0010
0100
,
1000
0000
0001
0000
1000
0000
0100
0000
0010
0000
0001
0100
0001
1000
0100
0000
,
1000
0100
0010
0000
0001
0000
0100
0000
0001
0000
1000
0000
0100
0000
1000
0000
,
0010
0100
0001
1000
0001
0000
0010
0000
0100
1000
0100
1000
0010
0000
0100
0001
,
0100
0000
0000
0001
0000
0000
0010
0000
0000
0000
0000
0000
0100
0000
0000
0000
0000
0000
1000
0000
0000
0001
0000
0000
1000
0000
0000
0010
0000
0000
0100
0000
0000
0000
0000
0000
0001
0000
0000
0000
1000
0000
0000
0000
0100
0000
0000
0000
,
0010
0100
1000
0010
0100
0001
0000
0000
0000
0000
0000
0000
,
2002
0000
0000
0000
,
0000
0000
0000
0000
,
0000
0000
0000
0000
,
0000
3003
0000
0000
;

//---------------dance-single - J. Nero----------------
#NOTES:
     dance-single:
     J. Nero:
     Medium:
     17:
     1.000,1.000,0.041,0.095,1.000,1532.000,6.000,14.000,0.000,0.000:
0001
0000
0100
0000
0000
1000
0000
0001
,
1000
0001
0010
0000
0010
0001
1000
0100
,
0000
2000
0000
3010
0100
0010
1000
0100
,
0010
0000
0001
0100
0001
0010
0100
0000
,
1000
0000
0000
0000
0001
0000
1000
0001
1000
0010
0100
0001
0010
0100
1000
0001
,
1000
0001
0100
0010
0000
1000
0100
1000
,
0001
0000
0010
0100
1000
0000
0001
0100
,
0010
0000
0000
0000
1000
0100
0010
0000
,
0001
0000
1000
0000
0100
0000
1000
0001
0100
0001
0010
0000
0100
0000
1000
0000
,
0010
1000
0100
0010
0001
1000
0001
0100
,
0001
0000
1000
0100
0010
0001
1000
0000
,
0001
0100
0001
0010
0200
0300
1000
0010
,
1000
0100
0010
0001
1000
0100
1000
0010
,
0100
0010
1000
0100
0010
0001
0100
0010
,
1000
0100
1000
0001
0100
0010
1000
0100
0010
0001
0100
0001
,
1000
0000
0010
0000
0100
0000
0000
0000
0001
0000
0010
0000
0100
0000
1000
0001
,
1000
0100
0010
0001
0100
0001
1000
0100
0010
0100
1000
0001
0100
0010
1000
0010
,
0100
0001
1000
0100
0010
0001
1000
0001
0100
0010
1000
0001
0010
0100
0010
0001
,
0100
0010
1000
0010
0100
0001
1000
0100
1000
0000
0001
0000
0100
0000
0010
0000
,
1000
0100
0010
0001
0000
0000
1000
1000
,
0001
0100
0010
0100
0001
0010
0100
1000
,
0001
0100
0001
0000
1000
0000
0100
0000
0010
0000
0001
1000
0001
0100
0010
0000
,
1000
0000
0100
0010
0001
1000
0001
0100
0010
0000
1000
0100
0010
0000
0001
1000
,
0001
0100
0001
0000
0010
0100
1000
0001
1000
0000
0000
0000
0001
0000
0100
0000
,
0010
0000
1000
0000
0100
0000
0010
0000
0100
0000
1000
0000
0010
0000
0100
0001
,
0000
1000
0100
0100
0010
0001
1000
0100
,
1000
0001
1000
0010
0100
0000
0001
0000
0010
0000
0001
0000
0100
0010
1000
0010
,
0100
0000
0001
1000
0001
0010
0100
0000
1000
0000
0010
0000
1000
0000
0100
0000
,
0010
0000
0001
0000
1000
0001
1000
0010
0100
0001
0010
0100
1000
0000
0001
0000
,
1000
0001
1000
0100
0010
0001
0100
0001
,
1000
0100
1000
0001
0100
0010
1000
0100
0010
0001
1000
0000
0001
1000
0001
0100
,
0010
1000
0100
0010
0001
0000
1000
0000
0010
0000
0100
0000
0001
0000
0010
0000
,
0100
0000
1000
0000
0001
1000
0001
0010
0100
0000
1000
0000
0040
0000
0000
0000
,
0000
0000
1030
0000
0001
0000
1000
0000
0100
0000
1000
0000
0001
0100
0001
1000
,
0100
0000
0010
0000
0001
0000
1000
0010
0100
0000
0001
0010
0100
0000
1000
0000
,
0001
0100
0010
1000
0100
0010
0100
1000
,
0010
0000
0100
0001
1000
0000
0001
0100
0010
0000
1000
0100
0010
0000
0001
0100
,
0010
0000
1000
0001
1000
0100
0010
0001
1000
0000
0001
0000
0100
0000
0010
1000
,
0001
1000
0100
0000
0010
0004
4000
0000
0000
0000
3003
0000
0001
0000
1000
0001
,
1000
0010
0100
0000
0001
0000
0010
0000
0100
0000
0010
0000
0001
0000
0100
0000
,
0010
0000
0010
0000
1000
0001
1000
0010
0100
0000
0001
0010
0100
1000
0001
0000
,
1000
0000
0100
0000
1000
0000
1000
0000
0010
0000
0100
0000
0001
1000
0001
0010
,
0100
1000
0001
0000
2000
0000
0000
3000
0001
0000
0001
0000
0100
0000
0010
1000
,
0010
0100
0001
0010
0100
1000
0001
0001
,
1000
0000
0100
1000
0001
0100
0010
0100
0001
0010
0100
1000
0010
0100
0001
0010
,
0001
0010
0100
1000
0004
0000
0000
0000
,
0000
0000
0000
0000
1003
0000
1000
0000
0001
0100
0001
1000
0100
0000
0010
0000
,
0001
1000
0001
1000
0010
0010
0100
0001
,
1000
0000
0100
0000
1000
0000
0010
0000
0100
0001
1000
0001
0010
0000
0010
0000
,
0100
0000
1000
0001
0100
0000
0001
0010
0100
0000
1000
0010
0100
0000
0001
1000
,
0100
0000
1000
0001
0010
0000
0100
0000
1000
0000
0010
0000
1000
0001
1000
0010
,
0400
0000
0304
0000
1003
0000
1000
0000
0100
0010
0001
0000
0100
0000
0001
0000
,
0100
0000
0100
0000
0010
1000
0010
0100
0001
0000
0001
0000
0100
0000
0001
0000
,
0010
0000
0100
0000
1000
0000
0010
0000
0100
0000
0001
0000
1000
0000
1000
0001
,
0100
0010
1000
0000
0001
1000
0001
0000
0040
0030
0100
0000
1000
0000
0010
0000
,
0100
0000
0010
0000
1000
0100
1000
0010
0100
0001
0010
0001
1000
0000
0010
0000
,
1000
0001
1000
0100
0010
0000
0010
0000
0001
0000
1000
0000
0001
0000
1000
0000
,
0200
0000
0000
0000
0000
0000
0310
0001
1000
0000
0001
1000
0001
0100
0040
0000
,
0000
0000
1030
0000
0001
0100
0001
0000
0010
0100
1000
0000
0001
0000
0001
0000
,
1000
0010
0100
0001
0100
0010
1000
0001
1000
0100
0010
0001
1000
0001
0100
0010
,
1000
0100
1000
0001
0100
0001
0010
0100
,
1000
0001
1000
0100
0010
0100
1000
0001
,
0100
0001
0010
0001
1000
0010
0100
0010
,
1000
0001
0010
0100
1000
0001
0100
0010
,
0100
0000
0001
0000
1000
0000
0100
0000
0010
0001
1000
0000
0010
0000
1000
0010
,
0100
0001
0100
0001
1000
0100
1000
0100
,
0010
0001
0100
0001
0100
0010
1000
0100
,
1000
0100
0010
0001
0100
0001
1000
0100
,
0010
0100
1000
0001
0100
0001
1000
0100
,
0010
0000
0001
0000
0100
0000
0010
0000
1000
0001
0100
0010
1000
0100
0010
0001
,
0100
0001
1000
0100
1000
0010
0100
0001
0100
0010
1000
0100
0010
0001
0100
0001
,
1000
0100
0010
0100
1000
0010
0100
0001
0100
0010
1000
0001
1000
0100
0010
0001
,
0100
0001
1000
0100
1000
0010
0100
0001
1000
0100
1000
0001
0010
0001
0100
0010
,
1000
0010
0100
0001
1000
0100
0010
0001
0100
0001
0010
0100
1000
0010
1000
0001
,
0100
0001
0010
0100
1000
0000
0010
0000
0100
0000
0001
0000
0010
0000
0100
0000
,
1000
0001
1000
0100
0010
0001
0100
0001
1000
0100
1000
0001
0100
0010
0100
0001
,
1000
0100
0010
0100
1000
0001
0100
0010
0100
0001
1000
0100
0010
0001
0100
0001
,
1000
0010
1000
0100
0010
0001
1000
0001
0100
0010
1000
0001
0010
0001
0100
0010
,
1000
0010
0100
0001
1000
0100
0010
0001
0100
0001
1000
0100
0010
0001
1000
0010
,
0100
0001
1000
0100
1000
0010
0200
0000
0000
0000
0000
0000
0302
0000
0000
0000
,
1003
0100
0010
0001
0100
0001
0010
0100
1000
0010
0100
0001
0010
0100
1000
0001
,
1000
0010
0100
0001
1000
0100
1000
0010
0100
0001
0010
0100
1000
0001
1000
0010
,
0100
0001
0100
0010
1000
0001
1000
0100
0010
0001
0100
0001
0010
0100
1000
0010
,
0100
0001
0100
0010
1000
0001
0010
0100
0010
0001
1000
0010
1000
0100
0010
0001
,
0100
0010
1000
0100
1000
0010
0100
0001
1000
0100
0010
0001
1000
0010
0100
0001
,
1000
0100
1000
0010
0100
0001
0010
0001
1000
0010
1000
0001
0010
0100
1000
0001
,
1000
0010
0100
0001
1000
0100
1000
0010
0100
0001
0010
0100
1000
0010
0100
0001
,
0100
0010
1000
0001
1000
0100
0010
0001
0100
0001
1000
0100
1000
0010
0100
0001
,
0010
0100
1000
0001
1000
0010
0100
0001
0100
0010
1000
0001
1000
0100
1000
0010
,
0100
0001
0010
0100
1000
0010
1000
0001
0010
0100
1000
0010
1000
0100
0010
0001
,
1000
0100
1000
0010
0100
0001
0010
0100
1000
0010
0100
0001
0010
0100
1000
0010
,
0100
0001
0010
0001
0100
0010
1000
0100
0010
0001
0100
0001
1000
0100
0010
0100
,
1000
0010
0100
0001
0010
0001
1000
0100
1000
0010
0100
0001
1000
0100
0010
0001
,
0100
0001
0010
0100
1000
0010
0100
0001
0010
0001
0100
0010
1000
0100
0010
0001
,
1000
0001
0100
0010
1000
0000
0001
0000
0100
0000
0001
0000
0010
0000
0100
0000
,
1000
0010
1000
0100
0010
0001
0100
0001
1000
0100
0010
0100
1000
0010
0100
0001
,
0010
0001
1000
0010
0100
0001
0100
0010
1000
0100
0010
0001
0100
0001
1000
0010
,
1000
0001
0100
0001
1000
0100
1000
0010
0100
0001
0100
0010
1000
0001
1000
0100
,
0010
0001
0100
0001
1000
0100
0010
0100
1000
0001
0100
0010
1000
0010
0100
0001
,
1000
0100
0010
0001
0100
0001
0010
0100
1000
0010
1000
0001
1000
0100
0010
0001
,
1000
0001
1000
0100
0010
0001
0100
0001
,
1000
0100
1000
0010
0100
0001
0100
0010
,
1000
0100
0010
0001
0100
0001
0010
0100
,
1000
0010
0100
0010
1000
0001
1000
0100
,
0010
0000
0001
0000
0100
0000
0001
0000
1000
0000
0100
0000
1000
0001
1000
0100
,
0010
0001
0100
0001
1000
0000
0100
0000
1000
0010
1000
0001
0400
0300
0004
0003
,
0010
0000
0100
0000
1000
0000
0010
0000
1000
0000
0001
0100
0001
0000
0010
0000
,
0100
1000
0010
1000
0001
0100
0001
0100
,
0010
1000
0001
0010
0100
1000
0010
1000
0001
0100
0010
1000
0001
1000
0100
0010
,
0001
1000
0001
0100
0040
0030
1000
0000
0001
0010
0100
0000
1000
0001
1000
0010
,
0100
0001
1000
0100
0010
0001
1000
0000
0000
0000
0001
0100
0001
1000
0100
0010
,
0001
1000
0010
0100
0010
1000
0001
0010
0100
0000
0000
0000
1000
0001
1000
0100
,
0010
0001
1000
0001
0100
0010
1000
0001
1000
0000
0001
0000
0100
0000
0001
0000
,
0010
0000
0100
0000
1000
0000
0001
0000
1000
0000
0010
0000
0100
0001
1000
0001
,
0010
0100
1000
0001
1000
0010
0100
0000
0001
0100
0001
1000
0200
0300
0020
0030
,
0001
1000
0001
0100
0010
0000
1000
0100
0010
0000
0001
0000
1000
0000
0001
0000
,
0010
0000
0100
0000
1000
0001
1000
0001
0100
0000
0010
0000
1000
0000
0100
0000
,
0010
0000
0001
0000
1000
0000
0001
0000
0100
0001
1000
0001
0010
0100
1000
0001
,
0400
0300
0001
1000
0001
0010
0100
1000
0001
1000
0010
0100
0001
0000
1000
0000
,
0001
0000
0100
0000
0001
0000
0010
0100
1000
0000
0001
0000
0100
0000
0001
0000
,
0020
0030
0100
0000
1000
0000
0010
0000
1000
0000
0100
0000
1000
0000
0001
0000
,
0100
0000
0010
0000
1000
0000
0001
0100
0010
0000
1000
0100
0010
0001
1000
0001
,
0100
0000
0001
0000
0010
0000
0001
0000
1000
0000
0010
0100
0001
0000
1000
0100
,
0010
0000
0001
1000
0004
0000
0000
0000
0000
0000
0000
0003
1000
0100
1000
0001
,
0100
0010
1000
0001
1000
0100
0010
0001
1000
0001
0100
0010
1000
0100
0010
0001
,
1000
0000
0100
0000
1000
0000
0001
0000
0100
0000
0010
0000
1000
0001
1000
0100
,
0010
0001
0100
0001
1000
0000
0001
0000
0040
0030
0400
0300
4000
3000
0001
0000
,
1000
0100
1000
0010
0200
0000
0000
0300
0001
1000
0001
0010
0100
1000
0001
0100
,
0010
1000
0100
0010
0001
0000
1000
0100
1000
0001
0100
0010
1000
0000
0001
0000
,
0100
0000
0001
0000
0010
0100
1000
0001
2000
0000
0000
0000
3001
0000
0100
0000
,
0001
0000
0010
0000
0100
0000
1000
0001
0100
0000
0001
0000
0010
0000
0001
1000
,
0001
0010
0100
0000
1000
0000
0010
1000
0001
1000
0400
0300
0010
0000
0001
0000
,
1000
0100
1000
0001
0400
0300
0010
0000
1000
0000
0100
0010
0001
1000
0004
0003
,
1000
0000
0100
0000
1000
0010
1000
0001
0400
0300
0001
0000
0020
0030
0400
0300
,
1000
0001
1000
0010
0100
0000
0001
0000
1000
0001
1000
0010
0100
0001
0010
0100
,
1000
0000
0001
0000
1000
0000
0100
0000
0010
0000
0001
0100
0001
1000
0100
0000
,
1000
0100
0010
0000
0001
0000
0100
0000
0001
0000
1000
0000
0100
0000
1000
0000
,
0010
0100
0001
1000
0001
0000
0010
0000
0100
1000
0100
1000
0010
0000
0100
0001
,
0100
0000
0000
0001
0000
0000
0010
0000
0000
0000
0000
0000
0100
0000
0000
0000
0000
0000
1000
0000
0000
0001
0000
0000
1000
0000
0000
0010
0000
0000
0100
0000
0000
0000
0000
0000
0001
0000
0000
0000
1000
0000
0000
0000
0100
0000
0000
0000
,
0010
0100
1000
0010
0100
0001
0000
0000
0000
0000
0000
0000
,
2002
0000
0000
0000
,
0000
0000
0000
0000
,
0000
0000
0000
0000
,
0000
3003
0000
0000
;

//---------------dance-single - J. Nero----------------
#NOTES:
     dance-single:
     J. Nero:
     Easy:
     16:
     1.000,1.000,0.041,0.095,1.000,1476.000,6.000,14.000,0.000,0.000:
0001
0000
0100
0000
0000
1000
0000
0001
,
1000
0001
0010
0000
0010
0001
1000
0100
,
0000
2000
0000
3010
0100
0010
1000
0100
,
0010
0000
0001
0100
0001
0010
0100
0000
,
1000
0000
0000
0000
0001
0000
1000
0001
1000
0010
0100
0001
0010
0100
1000
0001
,
1000
0001
0100
0010
0000
1000
0100
1000
,
0001
0000
0010
0100
1000
0000
0001
0100
,
0010
0000
0000
0000
1000
0100
0010
0000
,
0001
0000
1000
0000
0100
0000
1000
0001
0100
0001
0010
0000
0100
0000
1000
0000
,
0010
1000
0100
0010
0001
1000
0001
0100
,
0001
0000
1000
0100
0010
0001
1000
0000
,
0001
0100
0001
0010
0200
0300
1000
0010
,
1000
0100
0010
0001
1000
0100
1000
0010
,
0100
0010
1000
0100
0010
0001
0100
0010
,
1000
0100
1000
0001
0100
0010
1000
0100
0010
0001
0100
0001
,
1000
0000
0010
0000
0100
0000
0000
0000
0001
0000
0010
0000
0100
0000
1000
0001
,
1000
0100
0010
0001
0100
0001
1000
0100
0010
0100
1000
0001
0100
0010
1000
0010
,
0100
0001
1000
0100
0010
0001
1000
0001
0100
0010
1000
0001
0010
0100
0010
0001
,
0100
0010
1000
0010
0100
0001
1000
0100
1000
0000
0001
0000
0100
0000
0010
0000
,
1000
0100
0010
0001
0000
0000
1000
1000
,
0001
0100
0010
0100
0001
0010
0100
1000
,
0001
0100
0001
0000
1000
0000
0100
0000
0010
0000
0001
1000
0001
0100
0010
0000
,
1000
0000
0100
0010
0001
1000
0001
0100
0010
0000
1000
0100
0010
0000
0001
1000
,
0001
0100
0001
0000
0010
0100
1000
0001
1000
0000
0000
0000
0001
0000
0100
0000
,
0010
0000
1000
0000
0100
0000
0010
0000
0100
0000
1000
0000
0010
0000
0100
0001
,
0000
1000
0100
0100
0010
0001
1000
0100
,
1000
0001
1000
0010
0100
0000
0001
0000
0010
0000
0001
0000
0100
0010
1000
0010
,
0100
0000
0001
1000
0001
0010
0100
0000
1000
0000
0010
0000
1000
0000
0100
0000
,
0010
0000
0001
0000
1000
0001
1000
0010
0100
0001
0010
0100
1000
0000
0001
0000
,
1000
0001
1000
0100
0010
0001
0100
0001
,
1000
0100
1000
0001
0100
0010
1000
0100
0010
0001
1000
0000
0001
1000
0001
0100
,
0010
1000
0100
0010
0001
0000
1000
0000
0010
0000
0100
0000
0001
0000
0010
0000
,
0100
0000
1000
0000
0001
1000
0001
0010
0100
0000
1000
0000
0040
0000
0000
0000
,
0000
0000
1030
0000
0001
0000
1000
0000
0100
0000
1000
0000
0001
0100
0001
1000
,
0100
0000
0010
0000
0001
0000
1000
0010
0100
0000
0001
0010
0100
0000
1000
0000
,
0001
0100
0010
1000
0100
0010
0100
1000
,
0010
0000
0100
0001
1000
0000
0001
0100
0010
0000
1000
0100
0010
0000
0001
0100
,
0010
0000
1000
0001
1000
0100
0010
0001
1000
0000
0001
0000
0100
0000
0010
1000
,
0001
1000
0100
0000
0010
0004
4000
0000
0000
0000
3003
0000
0001
0000
1000
0001
,
1000
0010
0100
0000
0001
0000
0010
0000
0100
0000
0010
0000
0001
0000
0100
0000
,
0010
0000
0010
0000
1000
0001
1000
0010
0100
0000
0001
0010
0100
1000
0001
0000
,
1000
0000
0100
0000
1000
0000
1000
0000
0010
0000
0100
0000
0001
1000
0001
0010
,
0100
1000
0001
0000
2000
0000
0000
3000
0001
0000
0001
0000
0100
0000
0010
1000
,
0010
0100
0001
0010
0100
1000
0001
0001
,
1000
0000
0100
1000
0001
0100
0010
0100
0001
0010
0100
1000
0010
0100
0001
0010
,
0001
0010
0100
1000
0004
0000
0000
0000
,
0000
0000
0000
0000
1003
0000
1000
0000
0001
0100
0001
1000
0100
0000
0010
0000
,
0001
1000
0001
1000
0010
0010
0100
0001
,
1000
0000
0100
0000
1000
0000
0010
0000
0100
0001
1000
0001
0010
0000
0010
0000
,
0100
0000
1000
0001
0100
0000
0001
0010
0100
0000
1000
0010
0100
0000
0001
1000
,
0100
0000
1000
0001
0010
0000
0100
0000
1000
0000
0010
0000
1000
0001
1000
0010
,
0400
0000
0304
0000
1003
0000
1000
0000
0100
0010
0001
0000
0100
0000
0001
0000
,
0100
0000
0100
0000
0010
1000
0010
0100
0001
0000
0001
0000
0100
0000
0001
0000
,
0010
0000
0100
0000
1000
0000
0010
0000
0100
0000
0001
0000
1000
0000
1000
0001
,
0100
0010
1000
0000
0001
1000
0001
0000
0040
0030
0100
0000
1000
0000
0010
0000
,
0100
0000
0010
0000
1000
0100
1000
0010
0100
0001
0010
0001
1000
0000
0010
0000
,
1000
0001
1000
0100
0010
0000
0010
0000
0001
0000
1000
0000
0001
0000
1000
0000
,
0200
0000
0000
0000
0000
0000
0310
0001
1000
0000
0001
1000
0001
0100
0040
0000
,
0000
0000
1030
0000
0001
0100
0001
0000
0010
0100
1000
0000
0001
0000
0001
0000
,
1000
0010
0100
0001
0100
0010
1000
0001
1000
0100
0010
0001
1000
0001
0100
0010
,
1000
0100
1000
0001
0100
0001
0010
0100
,
1000
0001
1000
0100
0010
0100
1000
0001
,
0100
0001
0010
0001
1000
0010
0100
0010
,
1000
0001
0010
0100
1000
0001
0100
0010
,
0100
0000
0001
0000
1000
0000
0100
0000
0010
0001
1000
0000
0010
0000
1000
0010
,
0100
0001
0100
0001
1000
0100
1000
0100
,
0010
0001
0100
0001
0100
0010
1000
0100
,
1000
0100
0010
0001
0100
0001
1000
0100
,
0010
0100
1000
0001
0100
0001
1000
0100
,
0010
0000
0001
0000
0100
0000
0010
0000
1000
0001
1000
0100
0010
0001
1000
0010
,
0100
0001
1000
0000
0001
0100
0001
0000
1000
0100
0010
0000
0001
1000
0001
0000
,
1000
0100
0010
0000
0001
1000
0001
0000
0100
0010
1000
0000
0001
0010
0100
0000
,
1000
0001
1000
0000
0010
0100
0001
0000
1000
0100
0010
0000
0001
1000
0001
0000
,
0100
0010
1000
0000
0001
0010
0100
0000
1000
0001
1000
0000
0010
0100
0001
0000
,
1000
0100
0010
0000
0001
1000
0010
0000
0100
0000
0001
0000
0010
0000
0100
0000
,
1000
0001
1000
0000
0001
0100
0010
0000
1000
0001
1000
0000
0100
0010
0001
0000
,
1000
0001
1000
0000
0001
0100
0001
0000
1000
0010
0100
0000
0001
0010
0100
0000
,
1000
0001
1000
0000
0001
0100
0001
0000
1000
0100
0010
0000
0001
1000
0001
0000
,
1000
0100
1000
0000
0100
0010
0001
0000
1000
0001
1000
0000
0001
0000
0100
0000
,
0000
0010
0200
0000
0000
0000
0302
0000
,
1003
0010
1000
0100
0010
0001
1000
0001
0100
0000
0010
0000
1000
0000
0001
0000
,
0010
0000
0100
0000
1000
0100
1000
0010
0100
0001
0010
0100
1000
0000
0010
0000
,
0100
0000
0001
0000
1000
0000
0010
0000
0100
0001
0100
0010
1000
0001
1000
0100
,
0010
0000
0001
0000
1000
0000
0001
0000
0100
0000
0010
0000
1000
0001
1000
0010
,
0100
0001
1000
0100
1000
0010
0100
0001
1000
0100
0010
0001
1000
0010
0100
0001
,
1000
0100
1000
0010
0100
0001
0010
0001
1000
0010
1000
0001
0010
0100
1000
0001
,
1000
0010
0100
0001
1000
0100
1000
0010
0100
0001
0010
0100
1000
0010
0100
0001
,
0100
0010
1000
0001
1000
0100
0010
0001
0100
0001
1000
0100
1000
0010
0100
0001
,
0010
0100
1000
0001
1000
0010
0100
0001
0100
0010
1000
0001
1000
0100
1000
0010
,
0100
0001
0010
0100
1000
0010
1000
0001
0010
0100
1000
0010
1000
0100
0010
0001
,
1000
0100
1000
0010
0100
0001
0010
0100
1000
0010
0100
0001
0010
0100
1000
0010
,
0100
0001
0010
0001
0100
0010
1000
0100
0010
0001
0100
0001
1000
0100
0010
0100
,
1000
0010
0100
0001
0010
0001
1000
0100
1000
0010
0100
0001
1000
0100
0010
0001
,
0100
0001
0010
0100
1000
0010
0100
0001
0010
0001
0100
0010
1000
0100
0010
0001
,
1000
0001
0100
0010
1000
0000
0001
0000
0100
0000
0001
0000
0010
0000
0100
0000
,
1000
0010
1000
0100
0010
0001
0100
0001
1000
0100
0010
0100
1000
0010
0100
0001
,
0010
0001
1000
0010
0100
0001
0100
0010
1000
0100
0010
0001
0100
0001
1000
0010
,
1000
0001
0100
0001
1000
0100
1000
0010
0100
0001
0100
0010
1000
0001
1000
0100
,
0010
0001
0100
0001
1000
0100
0010
0100
1000
0001
0100
0010
1000
0010
0100
0001
,
1000
0100
0010
0001
0100
0001
0010
0100
1000
0010
1000
0001
1000
0100
0010
0001
,
1000
0001
1000
0100
0010
0001
0100
0001
,
1000
0100
1000
0010
0100
0001
0100
0010
,
1000
0100
0010
0001
0100
0001
0010
0100
,
1000
0010
0100
0010
1000
0001
1000
0100
,
0010
0000
0001
0000
0100
0000
0001
0000
1000
0000
0100
0000
1000
0001
1000
0100
,
0010
0001
0100
0001
1000
0000
0100
0000
1000
0010
1000
0001
0400
0300
0004
0003
,
0010
0000
0100
0000
1000
0000
0010
0000
1000
0000
0001
0100
0001
0000
0010
0000
,
0100
1000
0010
1000
0001
0100
0001
0100
,
0010
1000
0001
0010
0100
1000
0010
1000
0001
0100
0010
1000
0001
1000
0100
0010
,
0001
1000
0001
0100
0040
0030
1000
0000
0001
0010
0100
0000
1000
0001
1000
0010
,
0100
0001
1000
0100
0010
0001
1000
0000
0000
0000
0001
0100
0001
1000
0100
0010
,
0001
1000
0010
0100
0010
1000
0001
0010
0100
0000
0000
0000
1000
0001
1000
0100
,
0010
0001
1000
0001
0100
0010
1000
0001
1000
0000
0001
0000
0100
0000
0001
0000
,
0010
0000
0100
0000
1000
0000
0001
0000
1000
0000
0010
0000
0100
0001
1000
0001
,
0010
0100
1000
0001
1000
0010
0100
0000
0001
0100
0001
1000
0200
0300
0020
0030
,
0001
1000
0001
0100
0010
0000
1000
0100
0010
0000
0001
0000
1000
0000
0001
0000
,
0010
0000
0100
0000
1000
0001
1000
0001
0100
0000
0010
0000
1000
0000
0100
0000
,
0010
0000
0001
0000
1000
0000
0001
0000
0100
0001
1000
0001
0010
0100
1000
0001
,
0400
0300
0001
1000
0001
0010
0100
1000
0001
1000
0010
0100
0001
0000
1000
0000
,
0001
0000
0100
0000
0001
0000
0010
0100
1000
0000
0001
0000
0100
0000
0001
0000
,
0020
0030
0100
0000
1000
0000
0010
0000
1000
0000
0100
0000
1000
0000
0001
0000
,
0100
0000
0010
0000
1000
0000
0001
0100
0010
0000
1000
0100
0010
0001
1000
0001
,
0100
0000
0001
0000
0010
0000
0001
0000
1000
0000
0010
0100
0001
0000
1000
0100
,
0010
0000
0001
1000
0004
0000
0000
0000
0000
0000
0000
0003
1000
0100
1000
0001
,
0100
0010
1000
0001
1000
0100
0010
0001
1000
0001
0100
0010
1000
0100
0010
0001
,
1000
0000
0100
0000
1000
0000
0001
0000
0100
0000
0010
0000
1000
0001
1000
0100
,
0010
0001
0100
0001
1000
0000
0001
0000
0040
0030
0400
0300
4000
3000
0001
0000
,
1000
0100
1000
0010
0200
0000
0000
0300
0001
1000
0001
0010
0100
1000
0001
0100
,
0010
1000
0100
0010
0001
0000
1000
0100
1000
0001
0100
0010
1000
0000
0001
0000
,
0100
0000
0001
0000
0010
0100
1000
0001
2000
0000
0000
0000
3001
0000
0100
0000
,
0001
0000
0010
0000
0100
0000
1000
0001
0100
0000
0001
0000
0010
0000
0001
1000
,
0001
0010
0100
0000
1000
0000
0010
1000
0001
1000
0400
0300
0010
0000
0001
0000
,
1000
0100
1000
0001
0400
0300
0010
0000
1000
0000
0100
0010
0001
1000
0004
0003
,
1000
0000
0100
0000
1000
0010
1000
0001
0400
0300
0001
0000
0020
0030
0400
0300
,
1000
0001
1000
0010
0100
0000
0001
0000
1000
0001
1000
0010
0100
0001
0010
0100
,
1000
0000
0001
0000
1000
0000
0100
0000
0010
0000
0001
0100
0001
1000
0100
0000
,
1000
0100
0010
0000
0001
0000
0100
0000
0001
0000
1000
0000
0100
0000
1000
0000
,
0010
0100
0001
1000
0001
0000
0010
0000
0100
1000
0100
1000
0010
0000
0100
0001
,
0100
0000
0000
0001
0000
0000
0010
0000
0000
0000
0000
0000
0100
0000
0000
0000
0000
0000
1000
0000
0000
0001
0000
0000
1000
0000
0000
0010
0000
0000
0100
0000
0000
0000
0000
0000
0001
0000
0000
0000
1000
0000
0000
0000
0100
0000
0000
0000
,
0010
0100
1000
0010
0100
0001
0000
0000
0000
0000
0000
0000
,
2002
0000
0000
0000
,
0000
0000
0000
0000
,
0000
0000
0000
0000
,
0000
3003
0000
0000
;
