#TITLE:Aftershock;
#SUBTITLE:Full Version;
#ARTIST:DM Ashura;
#TITLETRANSLIT:;
#SUBTITLETRANSLIT:;
#ARTISTTRANSLIT:;
#CREDIT:;
#BANNER:Aftershock -bn.jpg;
#BACKGROUND:aftershock -bg.jpg;
#LYRICSPATH:;
#CDTITLE:!StepmaniaFreak Title.png;
#MUSIC:Aftershock.mp3;
#OFFSET:-4.970;
#SAMPLESTART:132.710;
#SAMPLELENGTH:12.600;
#SELECTABLE:YES;
#BPMS:0.000=152.000,20.000=76.000,24.000=152.000,280.000=76.000,288.000=152.000,304.000=38.000,305.000=76.000,306.000=152.000;
#STOPS:306.000=0.220
,306.500=0.180
;
#BGCHANGES:;
// cache tags:
#FIRSTBEAT:3.500;
#LASTBEAT:498.750;
#SONGFILENAME:Songs/StepmaniaFreak's Favorites/Aftershock/Aftershock.sm;
#HASMUSIC:1;
#HASBANNER:1;
#MUSICLENGTH:211.226;
// end cache tags

//---------------dance-single - ----------------
#NOTES:
     dance-single:
     :
     Challenge:
     12:
     1.000,1.000,1.000,0.194,1.000,1596.000,316.000,41.000,0.000,50.000:
0000
0000
0000
0000
0000
0000
0000
1001
,
1010
0000
0001
0000
0100
0000
0001
0000
1000
0000
0001
0000
0010
0000
0001
0100
,
1010
0000
0100
0000
0010
0000
0001
0000
0010
0000
1000
0000
0100
0000
0010
0100
,
0011
0000
0100
0000
0001
0000
0010
1000
0011
0000
0100
0000
0010
0000
1000
0001
,
1100
0000
0000
0000
0101
0000
0000
0000
0011
0000
0000
0000
1100
0000
0000
0000
0010
0000
0001
0000
1000
0000
0100
0000
0010
0001
1000
0100
0010
0001
1000
0100
,
0020
0000
0000
0000
0000
0000
0000
0000
0000
0000
0000
0000
0000
0000
0000
0000
1000
0000
0000
0000
0001
0000
0000
1000
0030
0000
0100
0000
0001
0010
0100
1000
,
0101
0000
0000
0010
1100
0000
0110
0000
0011
0100
0000
0011
0000
0000
1100
0000
,
0011
0000
0000
1000
0101
0000
1100
0000
0000
0011
0000
1100
0001
0010
1100
0000
,
0110
0000
0000
0011
0000
0000
1010
0000
0011
1000
0000
0101
0000
1000
0011
0000
,
1100
0000
0000
0110
0000
0000
1001
0000
1000
0011
0000
0101
0010
0000
1100
0000
,
0102
1000
0100
1003
0012
0103
2001
0100
3010
0100
0001
0010
0100
1000
0100
0010
,
0001
0010
0100
1000
0010
0100
1000
0100
0010
1000
0010
0100
0001
0010
0100
0010
,
2001
0100
0010
3100
0012
1003
0201
1000
0310
0100
0001
0010
0001
0100
0010
0100
,
1000
0100
0001
0010
0100
1000
0001
0100
1000
0100
0010
0001
0010
1000
0001
0010
,
1100
0000
0000
0010
1100
0000
0011
0000
0101
1000
0000
0011
0000
0000
1010
0000
,
0101
0000
0000
1000
0110
0000
0101
0000
0000
1010
0000
0011
1000
0100
1010
0000
,
0011
0000
0000
1010
0000
0000
0011
0000
1100
0010
0000
0101
0000
0010
1100
0000
,
0011
0000
0000
0110
0000
0000
1001
0000
0100
0011
0000
1000
0101
1000
0011
0100
,
0021
1000
0001
1030
0102
0013
2100
0010
3001
0100
0010
0001
0010
1000
0100
0010
,
0001
0010
1000
0010
0001
0100
0010
1000
0001
0010
0001
0100
0010
1000
0100
1000
,
0021
0100
0001
1030
0201
1300
0012
1000
0013
0100
0001
0010
0001
0100
0010
1000
,
0100
0001
0100
1000
0001
0010
1000
0010
0001
1000
0100
1010
0101
0000
1100
0000
,
0012
0000
0000
0000
1100
0000
0000
0000
0110
0000
0000
0000
1100
0000
0010
0003
,
1200
0000
0000
0000
0011
0000
0000
0001
1010
0000
0000
0300
1002
0003
1020
0000
,
0101
0000
0000
0000
1100
0000
0000
0100
1001
0000
0000
0000
1100
0000
0001
0000
,
0101
0000
0000
0000
1100
0000
0000
0100
1001
0000
0000
0030
2100
3000
0012
0003
,
0201
0000
0000
0000
1010
0000
0000
1000
0011
0000
0000
0300
2001
3000
0021
0000
,
1100
0000
0000
0000
1001
0000
0000
1000
0101
0000
0000
0030
0210
0300
2001
0000
,
0110
0000
0000
0000
0101
0000
0000
0001
0110
0000
0000
0000
0011
0000
0100
0000
,
0011
0000
0000
0000
0101
0000
0000
0001
0110
0000
0000
3010
0102
0003
1200
0300
,
1020
0000
0000
0000
1001
0000
0000
0000
0101
0000
0000
0030
1200
0300
1002
0000
,
0110
0000
0000
0000
1100
0000
0000
0100
1010
0003
0201
0300
2010
3000
0021
0000
,
1100
0000
0000
0000
0101
0000
0000
0001
1100
0000
0000
0000
0101
0000
1000
0000
,
0101
0000
0000
0000
1001
0000
0000
1000
0101
0000
0000
0030
2100
3000
0201
0300
,
1002
0000
0000
0000
1010
0000
0000
0010
1100
0000
0000
0003
2010
3000
0120
0000
,
1001
0000
0000
0000
1100
0000
0000
1000
0101
0000
0000
0030
1002
0003
0201
0000
,
1001
0000
0000
0000
0011
0000
0000
0001
1010
0000
0000
0000
1001
0000
0010
0000
,
1001
0000
0000
0000
1010
0000
0000
0010
1001
0000
0000
1000
0011
0000
1000
0300
,
0101
1000
0010
0100
0001
0010
0100
1000
0100
0010
0001
0010
0100
1000
0010
1000
,
0100
1000
0010
0100
0001
0010
0100
1000
0100
0010
0001
0010
0100
1000
0010
1000
,
0100
1000
0010
0100
0001
0010
0100
1000
0100
0010
0001
0010
0100
1000
0010
1000
,
0100
1000
0010
0100
0001
0010
0100
1000
0100
0010
0001
0010
0100
1000
0010
1000
,
0001
0010
0001
0100
0010
1000
0010
0100
1000
0100
0010
0100
0001
0010
0001
0100
,
0010
0001
0100
1000
0001
0010
0100
1000
0010
0001
0010
1000
0010
0100
0001
1000
,
0001
0010
0001
0100
0010
1000
0010
0100
1000
0100
0010
0100
0001
0010
0001
0100
,
1000
0100
0001
0010
1000
0010
0100
0001
0100
0010
0001
1100
0011
0000
1010
0000
,
0011
1000
0010
0100
0001
0010
0100
1000
0100
0010
0001
0010
0100
1000
0010
1000
,
0100
1000
0010
0100
0001
0010
0100
1000
0100
0010
0001
0010
0100
1000
0010
1000
,
0100
1000
0010
0100
0001
0010
0100
1000
0100
0010
0001
0010
0100
1000
0010
1000
,
0100
0010
0001
0010
0100
1000
0100
0010
0001
0100
0010
1000
0100
1000
0010
0100
,
0011
1000
0100
0010
0001
1000
0100
0010
0100
0010
0001
1000
0100
0010
0001
0100
,
0001
0010
0100
1000
0010
0100
1000
0100
0010
0001
0010
1000
0100
0010
0001
0100
,
0010
1000
0010
1000
0001
0100
0001
0010
0100
1000
0010
0100
0001
1000
0100
0010
,
0001
0010
0100
1000
0010
0100
1000
0100
0010
0001
0010
1100
0011
0000
1100
0000
,
0101
1000
0010
0100
0001
0010
0100
1000
0001
0100
0000
0010
1000
0000
0001
0000
,
1000
0010
0100
0001
0010
0001
0100
0010
1000
0100
0000
0001
0010
0000
1000
0000
,
0001
0100
0010
1000
0100
1000
0010
0100
0001
1000
0000
0010
0100
0000
0001
0000
,
1000
0010
0000
0100
0001
0000
1000
0000
0001
0100
0000
0010
1100
0000
0011
0000
,
1100
0010
0100
0001
0010
0100
1000
0100
0001
0010
0000
0001
0100
0000
1000
0000
,
0010
0001
0100
1000
0010
0100
0001
0010
0100
1000
0000
0100
1000
0000
0001
0000
,
0100
0010
0000
1000
0100
0000
1000
0000
0001
0010
0000
0001
1000
0000
0010
0000
,
0100
0001
0000
0010
0001
0000
0010
0000
0100
1000
0010
1100
0011
0000
1010
0000
,
0011
1000
0010
0100
0001
0010
0001
0100
0010
0100
0001
1000
0100
0010
0100
1000
,
0010
0100
0001
1000
0001
0100
0010
0100
0001
0010
0100
1000
0001
0100
0010
1000
,
0010
0100
0001
0100
0010
1000
0010
0100
0001
0010
0001
0100
0010
1000
0001
1000
,
0100
0010
0001
0010
0100
1000
0010
0100
0001
0010
0001
0100
0010
1000
0001
0010
,
0100
1000
0010
0100
0010
1000
0100
0010
0100
1000
0001
0010
0001
1000
0010
0100
,
0001
0010
0001
0100
0010
1000
0100
1000
0010
0100
0010
1000
0100
0010
0100
1000
,
0010
0100
0001
0010
0100
0010
0001
0100
0010
1000
0100
0010
0001
0010
0100
0010
,
0001
1000
0100
0010
0001
0010
0100
1000
0010
0100
0001
1100
0011
0000
1010
0000
,
0101
1000
0100
0001
0100
1000
0010
0001
0010
1000
0010
0100
0001
0100
0010
0001
0100
1000
0100
0001
0100
1000
0001
0100
1000
0100
0001
0010
0100
1000
0010
0100
,
1000
0100
0010
1000
0100
0010
0001
0100
0010
0001
0010
0100
0001
0010
0100
1000
0010
0001
0010
1000
0100
0001
0100
1000
0010
0001
0100
1000
0010
0100
0011
1100
,
0011
0000
1000
0001
0100
0000
0010
1100
0000
0001
1100
0000
0101
0000
1010
0001
,
1100
0000
0001
0100
0010
0000
1000
0101
0000
1000
0011
0000
1100
0000
0101
1000
,
0011
0000
1000
0101
0000
0000
1010
0000
1001
0000
0100
0011
0000
0000
1000
0000
,
0011
0000
0000
0000
1000
0000
0100
0000
0011
0000
0000
0000
1000
0000
0100
0000
0011
0000
1000
0000
0100
0000
0010
0000
0001
0010
0100
1000
0001
0010
0100
1000
,
0202
0000
0000
0000
0000
0000
0000
0000
0000
0000
0000
0000
0000
0000
0000
0000
0000
0000
0000
0000
0000
0000
0000
0000
0000
0000
0000
0000
0000
0000
0000
0000
0000
0000
0000
0000
0000
0000
0000
0000
0000
0000
0000
0000
0000
0000
0000
0000
1303
0000
0000
0000
0000
0000
0010
0000
0000
0000
0000
0000
1000
0000
0000
0000
0010
0000
0000
0000
1000
0000
0000
0000
0010
0000
0000
0000
1000
0000
0000
0000
0010
0000
0000
0000
1000
0000
0000
0000
0010
0000
0000
0000
1000
0000
0000
0000
0010
0000
0000
0000
0000
0000
0000
0000
0000
0000
0000
0000
0000
0000
0000
0000
0000
0000
0000
0000
0000
0000
0000
0000
0101
0000
0000
0000
0000
0000
0000
0000
0000
0000
0000
0000
0000
0000
0000
0000
0000
0000
0000
0000
0000
0000
0000
0000
1100
0000
0000
0000
0000
0000
0000
0000
0000
0000
0000
0000
0010
0000
0000
0000
0000
0000
0000
0000
0000
0000
0000
0000
0100
0000
0000
0000
0000
0000
0000
0000
0000
0000
0000
0000
0001
0000
0000
0000
0000
0000
0000
0000
0000
0000
0000
0000
,
0010
0100
1000
0010
0100
0001
0010
0001
0100
0010
1000
0100
0010
0001
0100
0010
,
0001
0010
0100
0001
0100
0010
1000
0010
0100
0001
0010
0001
0100
1000
0100
0001
,
0010
0001
1000
0100
1000
0001
0010
0100
1000
0001
0010
0100
1000
0010
0100
0001
,
0100
0010
1000
0001
0010
0001
1000
0010
0100
0010
1000
0100
0010
0001
0100
1000
,
0100
0001
0010
1000
0100
0001
0010
0100
1000
0010
0100
0001
0010
1000
0010
0001
,
0100
0010
1000
0100
0010
1000
0100
0001
1000
0010
0100
0001
0010
0100
1000
0100
,
0001
0100
1000
0010
0100
1000
0100
0001
0010
0100
1000
0010
0001
0010
1000
0100
,
0001
0100
1000
0001
0100
0010
1000
0011
1100
0000
0101
0000
1010
0001
0100
0001
,
1100
0010
0100
0001
0010
0100
1000
0010
1100
0001
0010
1000
0010
0001
0100
0010
,
1001
0100
0010
0100
1000
0010
0001
0010
1100
0001
1000
0100
0010
0001
0100
0010
,
0101
0010
1000
0100
0010
1000
0100
0010
1001
0010
0100
0001
0010
0001
1000
0100
,
0011
0100
1000
0010
0001
0100
1000
0010
1100
0001
1000
0001
0100
0010
0100
0001
,
1010
0100
0001
0100
1000
0001
0010
0001
1100
0010
0100
0001
0010
0100
1000
0010
,
1001
0100
0010
0001
0100
1000
0100
0001
1010
0100
1000
0010
0001
0010
1000
0100
,
0011
0100
1000
0001
1000
0010
0100
0001
1010
0001
0100
0010
1000
0010
0001
0010
,
1100
0001
0100
0001
1000
0100
0010
0101
1010
0000
0011
0000
1001
0000
0000
0010
,
1100
0000
0011
0000
0110
1000
0000
0101
0000
0000
1001
0000
0011
0000
0000
1000
,
0101
0000
1100
0000
0000
0110
0000
0011
0100
0010
1100
0000
0101
0000
0000
0011
,
0000
0000
1100
0000
0011
1000
0000
0101
0000
1000
0011
0000
1001
0000
0000
1010
,
0000
0000
0110
0000
1000
0011
0000
1100
0010
0100
0011
0000
1001
0000
0000
0011
,
1000
0000
0110
0000
1001
0010
0000
1100
0000
0100
0011
0000
1100
0000
0001
0010
,
0101
0000
1010
0000
0100
0011
0000
0100
0000
0010
0101
0000
1100
0000
0010
0101
,
0000
0000
1100
0000
0110
0000
0010
0101
0000
0001
1100
0000
0010
0000
0100
0011
,
0000
0010
1100
0000
1000
0000
0101
1000
0001
0100
0011
0000
1010
0000
0000
0010
,
1100
0000
0011
0000
0101
1000
0000
0110
0000
0000
1001
0000
0011
0000
0000
1000
,
0101
0000
1100
0000
0000
1010
0000
0101
0010
0100
1010
0000
0011
0000
0000
0101
,
0000
0000
1010
0000
0011
0100
0000
0011
0000
1000
0101
0000
1100
0000
0000
0101
,
0000
0000
0110
0000
1000
0101
0000
1100
0001
1000
0011
0000
1010
0001
0000
1100
,
0000
0000
0011
0000
0000
1100
0000
0010
1100
1000
0011
0000
1000
0101
0000
1100
,
0000
0000
0011
0000
0000
0110
0000
1000
0101
0001
1100
0000
0001
1010
0000
1001
,
0000
0000
0011
0000
0000
1100
0000
0001
1010
0100
1000
0000
0011
0000
1000
0011
,
0000
0001
1100
0000
0001
1010
0000
1100
0011
0000
0101
1010
0101
1000
0100
0010
,
0001
1000
0100
0010
0001
0100
0010
1000
0100
0001
0100
1000
0010
0100
1000
0010
,
0100
0001
0100
1000
0001
0010
0100
1000
0010
0001
0100
1000
0001
0100
0010
1000
,
0010
0100
1000
0100
0010
1000
0100
0001
0100
0010
0001
1000
0001
0100
0010
0001
,
0010
1000
0100
0010
0001
0100
0010
0001
0100
1000
0010
0100
1000
0001
0100
0010
,
0100
1000
0001
0100
0010
1000
0001
0010
0001
1000
0100
0001
0100
1000
0010
0100
,
1000
0100
0001
0010
0100
1000
0010
0001
0010
1000
0100
0001
0100
1000
0100
0010
,
1000
0100
0001
0100
0010
0001
0010
1000
0100
0010
0001
0100
0010
0001
1000
0100
,
0001
0010
0100
1000
0010
0100
0001
1100
0011
0000
1001
0100
0011
1000
0001
0010
,
0001
1000
0010
0100
0001
1000
0010
0100
0001
0010
0100
0010
0001
1000
0100
0010
,
0001
0010
0100
1000
0001
0010
0100
1000
0001
0100
0010
0100
0001
1000
0010
0100
,
0001
1000
0100
0010
0001
1000
0100
0010
0001
0100
0010
1000
0100
1000
0010
0100
,
0001
0100
0010
1000
0001
0100
0010
1000
0001
1000
0100
1000
0100
0010
0001
0100
,
0010
1000
0100
1000
0010
1000
0100
1000
0010
0100
0001
0010
0001
0100
0010
1000
,
0010
0100
0001
1000
0010
0100
0001
1000
0010
1000
0010
0100
0001
0100
0001
0010
,
0100
1000
0010
0100
0001
0010
0100
1000
0010
0100
0001
0010
0001
0100
0010
1000
,
0001
0100
0010
1000
0100
0010
0001
1100
0011
0000
0011
1100
0000
0000
0000
0000
;
