#TITLE:Made In Innocent;
#SUBTITLE:;
#ARTIST:Onoken;
#TITLETRANSLIT:;
#SUBTITLETRANSLIT:;
#ARTISTTRANSLIT:;
#CREDIT:;
#BANNER:madeininnocent-bn.png;
#BACKGROUND:madeininnocent-bg.png;
#LYRICSPATH:;
#CDTITLE:!mwerpTitle.png;
#MUSIC:made_in_innocent.mp3;
#OFFSET:-0.120;
#SAMPLESTART:16.006;
#SAMPLELENGTH:12.000;
#SELECTABLE:YES;
#BPMS:0.000=60.000,4.000=120.000,116.000=60.000,132.000=120.000,164.000=60.000,168.000=120.000;
#STOPS:;
#BGCHANGES:;
// cache tags:
#FIRSTBEAT:4.000;
#LASTBEAT:199.000;
#SONGFILENAME:Songs/Community Keyboard Megapack - Volume 2/(Mwerp) Made In Innocent/madeininnocent.sm;
#HASMUSIC:1;
#HASBANNER:1;
#MUSICLENGTH:112.788;
// end cache tags

//---------------dance-single - MANIAC----------------
#NOTES:
     dance-single:
     MANIAC:
     Hard:
     11:
     0.727,0.838,0.966,0.293,0.869,432.000,109.000,33.000,0.000,0.000:
0000
0000
0000
0000
,
1001
0000
0000
0100
0000
0000
0000
0000
1000
0000
0000
0010
0100
0000
0000
0010
0000
0000
0000
0000
1000
0001
0000
1000
,
0100
0000
0000
0010
0000
0000
0000
0000
0001
0000
0000
0010
0100
0000
0000
1000
0000
0000
0000
0000
0001
0100
0000
0001
,
1000
0000
0000
0100
0000
0000
0000
0000
1000
0000
0000
0010
0100
0000
0000
0010
0000
0000
0000
0000
1000
0000
0000
1000
,
0001
0000
0001
0010
0000
0010
0100
0000
0100
1000
0000
1000
0010
0000
0010
0100
0000
0000
0000
0000
0001
0000
0000
0100
,
0001
0000
0000
0100
0000
0000
0000
0000
1000
0000
0000
0010
0100
0000
0000
0010
0000
0000
0000
0000
1000
0000
0000
0001
,
0100
0000
0000
0010
0000
0000
0000
0000
1000
0000
0000
0010
0100
0000
0100
0001
0000
0000
0000
0000
0010
0000
0000
0001
,
1000
0000
0000
0100
0000
0000
0000
0000
1000
0000
0000
0010
0100
0000
0000
0010
0000
0000
0000
0000
1000
0000
0000
0001
,
0100
0000
0011
0000
0000
0100
1010
0000
0000
0100
0000
1010
0000
0000
0100
0011
0000
0000
0000
0000
0001
0000
0000
0100
,
1001
0000
0000
0000
0000
0000
0000
0000
0000
1010
0000
0000
0000
0000
0000
0011
0000
0000
0100
0000
0100
1000
0000
1000
,
0110
0000
0000
0000
0000
0000
0000
0000
0000
1100
0000
0000
0000
0000
0000
0101
0000
0000
0001
0000
0001
0010
0000
0010
,
1001
0000
0000
0000
0000
0000
0000
0000
0000
1010
0000
0000
0000
0000
0000
0011
0000
0000
0100
0000
0100
1000
0000
1000
,
0110
0000
0000
0000
0000
0000
0000
0000
0000
1100
0000
0000
0000
0000
0101
0000
0000
0000
0110
0000
0000
0000
0000
0000
,
1001
0000
0000
0000
0000
0000
0000
0000
0000
0000
0000
0000
0101
0000
0000
0000
0000
0000
0000
0000
0000
1100
0000
0000
0000
0000
0000
1100
0000
0000
0000
0000
0000
1100
0000
0000
0000
0000
0000
0000
0001
0000
0010
0000
0000
0000
0100
0000
,
0000
0000
0000
0000
0000
0000
0110
0000
0000
0000
0000
0000
0011
0000
0000
0000
0000
0000
0000
0000
0000
1001
0000
0000
0000
0000
0000
0011
0000
0000
0000
0000
0000
1010
0000
0000
0000
0000
0000
0000
0001
0000
0010
0000
0000
0000
0100
0000
,
1001
0000
0000
0000
0000
0000
0000
0000
0000
0000
0000
0000
1010
0000
0000
0000
0000
0000
0000
0000
0000
0011
0000
0000
0000
0000
0000
0011
0000
0000
0000
0000
0000
0011
0000
0000
0000
0000
0000
0000
1000
0000
0100
0000
0000
0000
0010
0000
,
0000
0000
0000
0000
0000
0000
0110
0000
0000
0000
0000
0000
1100
0000
0000
0000
0000
0000
0000
0000
0000
1001
0000
0000
0000
0000
0000
1100
0000
0000
0000
0000
0000
0101
0000
0000
0000
0000
0000
0000
1000
0000
0100
0000
0000
0000
0010
0000
,
1001
0000
0000
0000
1000
0000
0001
0000
0000
0000
1000
0000
0101
0000
0000
0000
0000
0000
1010
0000
0000
1100
0000
0000
0000
0000
0000
1100
0000
0000
0011
0000
0000
1100
0000
0000
0000
0000
0000
0000
0001
0000
0010
0000
0000
0000
0100
0000
,
0110
0000
0000
0000
0000
0000
0110
0000
0000
0000
0000
0000
0011
0000
0000
0000
0000
0000
1100
0000
0000
1001
0000
0000
0000
0000
0000
0011
0000
0000
0101
0000
0000
1010
0000
0000
0000
0000
0000
0000
0001
0000
0010
0000
0000
0000
0100
0000
,
1001
0000
0000
0000
0000
0000
0000
0000
0000
0000
0000
0000
0101
0000
0000
0000
0000
0000
1010
0000
0000
1100
0000
0000
0000
0000
0000
1100
0000
0000
0011
0000
0000
1100
0000
0000
0000
0000
0000
0000
0001
0000
0010
0000
0000
0000
0100
0000
,
0110
0000
0000
0000
0000
0000
0000
0000
0000
1100
0000
0000
0000
0000
0101
0000
0000
0000
0110
0000
0000
0000
0000
0000
,
1000
0000
0000
0100
0000
0000
0010
0000
0000
0001
0000
0000
0010
0000
0000
0000
0000
0000
0100
0000
0000
0000
0000
0000
1000
0000
0000
0000
0000
0000
0000
0000
0000
0000
0000
0000
0100
0000
0000
0000
0100
0000
1000
0000
0000
0000
1000
0000
,
0001
0000
0000
0010
0000
0000
0001
0000
0000
0010
0000
0000
0100
0000
0000
0000
0000
0000
1000
0000
0000
0000
0000
0000
0000
0000
0000
0000
0000
0000
0100
0000
0000
0010
0000
0000
0001
0000
0000
0000
0001
0000
0010
0000
0000
0000
0010
0000
,
0100
0000
0000
1000
0000
1000
0010
0000
0000
0100
0000
0100
0001
0000
0001
0010
0000
0000
0100
0000
0100
1000
0000
1000
,
0100
0000
0000
1000
0000
1000
0010
0000
0000
0100
0000
0100
0001
0000
0001
0010
0000
0000
0001
0000
0001
0010
0000
0010
,
1001
0000
0000
0000
0000
1000
0000
0000
0000
1010
0000
0000
0000
0000
0000
0011
0000
0000
0100
0000
0100
1000
0000
1000
,
0110
0000
0000
0000
0000
1000
0000
0000
0000
1100
0000
0000
0000
0000
0000
0101
0000
0000
0001
0000
0001
0010
0000
0010
,
1001
0000
0000
0000
0000
1000
0000
0000
0000
1010
0000
0000
0000
0000
0000
0011
0000
0000
0100
0000
0100
1000
0000
1000
,
0110
0000
0000
0000
0000
0000
0000
0000
0000
0000
0000
0000
0000
0000
0000
0000
1000
0000
0000
0000
0000
0000
0000
0000
0001
0000
0000
0000
0000
0000
0000
0000
0000
0000
0000
0000
0000
0000
0000
0000
1000
0000
0000
0000
0000
0000
0000
0000
0010
0000
0000
0000
0000
0000
0000
0000
0000
0000
0000
0000
0000
0000
0000
0000
0000
0000
0000
0000
0000
0000
0000
0000
1100
0000
0000
0000
0000
0000
0000
0000
0010
0000
0000
0000
0000
0000
0000
0000
0000
0000
0000
0000
0000
0000
0000
0000
0000
0000
0000
0000
0000
0000
0000
0000
0000
0000
0000
0000
0000
0000
0000
0000
0101
0000
0000
0000
0000
0000
0000
0000
1000
0000
0000
0000
0000
0000
0000
0000
0000
0000
0000
0000
0000
0000
0000
0000
0000
0000
0000
0000
0000
0000
0000
0000
0110
0000
0000
0000
0000
0000
0000
0000
0000
0000
0000
0000
1000
0000
0000
0000
0000
0000
0001
0000
0000
0000
0000
0000
1000
0000
0000
0000
0000
0000
0000
0000
0100
0000
0000
0000
0000
0000
0000
0000
0010
0000
0000
0000
0000
0000
0000
0000
,
1002
0000
0000
0000
0000
2003
0000
3020
0000
0230
0000
0302
0000
0023
0000
0000
,
0000
0000
0000
0000
0000
0000
0000
0000
0000
0000
0000
0000
0000
0000
0000
0000
0000
0000
0030
0000
0000
0000
0000
0000
0000
0000
0000
0000
0000
0000
0000
0000
0000
0000
0000
0000
0200
0000
0000
0000
0000
0000
0000
0000
0000
0000
0000
0000
0320
0000
0000
0000
0000
0000
0000
0000
0000
0000
0000
0000
0000
0000
0000
0000
0000
0000
0000
0000
0000
0000
0000
0000
0000
0000
0000
0000
0000
0000
0000
0000
0000
0000
0000
0000
0000
0000
0000
0000
0000
0000
0000
0000
0000
0000
0000
0000
0000
0000
0000
0000
0000
0000
0000
0000
0000
0000
0000
0000
0000
0000
0000
0000
0000
0000
0000
0000
0000
0000
0000
0000
0000
0000
0000
0000
0000
0000
0000
0000
0000
0000
0000
0000
0000
0000
0000
0000
0000
0000
0000
0000
0000
0000
0000
0000
0000
0000
0000
0000
0000
0000
0000
0000
0000
0000
0000
0000
0030
0000
0000
0000
0000
0000
0000
0000
0000
0000
0000
0000
0000
0000
0000
0000
0000
0000
1000
0000
0000
0001
0000
0000
1000
0000
0000
0000
0100
0000
0000
0000
0010
0000
0000
0000
,
0002
0000
0000
0000
0000
2003
0000
3020
0000
2030
0000
3200
0000
2300
0000
0000
,
3002
0000
0000
0023
0000
0000
0000
0000
0000
0000
0000
0000
0000
0100
0030
0010
,
2001
0000
0000
0000
0000
0000
0000
0000
0000
0001
0000
0000
0010
0000
0000
0000
0000
0000
0000
0000
0000
0000
0000
0000
0000
0000
0000
0000
0000
0000
0001
0000
0000
0000
0000
0000
0010
0000
0000
3000
0000
0000
1000
0000
0100
0000
0010
0000
,
0002
0000
0000
1000
0010
0000
0000
0000
0000
0000
1000
0000
0000
1000
0000
0003
,
2010
0000
0000
0010
0001
0000
3020
0000
0000
0000
1000
0000
0230
0000
0000
0000
,
0302
0000
0000
0000
0000
0000
0100
0000
1000
0000
0000
0000
0023
0000
0000
0000
1000
0000
0000
0000
0001
0000
0000
0000
0230
0000
0001
0000
0000
0000
0000
0300
,
2001
0000
0000
0000
0000
0000
0000
0000
0000
0001
0000
0000
0010
0000
0000
3000
0000
0000
0001
0000
0010
0000
0100
0000
0020
0000
0000
0000
0000
0000
0001
0000
0000
0000
0000
0000
0100
0000
0000
0000
0000
0000
0000
0000
0000
0000
0000
0000
,
0100
0000
0000
0000
0000
0000
0000
0000
0000
0000
0000
0000
0000
0000
0000
0000
1000
0000
0000
0000
0000
0000
0000
0000
0000
0000
0000
0000
0000
0000
0000
0000
0001
0000
0000
0000
0100
0000
0000
0000
0000
0000
0000
0000
0000
0000
0000
0000
1000
0000
0000
0000
0000
0000
0000
0000
0000
0000
0000
0000
0000
0000
0000
0000
0100
0000
0000
0000
0000
0000
0000
0000
0000
0000
0000
0000
0000
0000
0000
0000
0000
0000
0000
0000
0000
0000
0000
0000
0000
0000
0000
0000
0000
0000
0000
0000
0032
0000
0000
0000
0000
0000
0000
0000
0000
0000
0000
0000
0000
0000
0000
0000
0000
0000
0000
0000
0000
0000
0000
0000
1000
0000
0000
0000
0000
0000
0000
0000
0000
0000
0000
0000
0000
0000
0000
0000
0000
0000
0000
0000
0000
0000
0000
0000
0023
0000
0000
0000
0000
0000
0000
0000
0000
0000
0000
0000
1000
0000
0000
0000
0000
0000
0000
0000
0000
0000
0000
0000
0000
0000
0000
0000
0000
0000
0000
0000
0000
0000
0000
0000
0000
0000
0000
0000
0000
0000
0030
0000
0000
0000
0000
0000
,
1200
0000
0000
0000
0000
0000
0001
0000
0010
0000
0000
0000
1000
0000
0000
0000
0000
0000
0000
0000
0001
0000
0000
0000
0010
0000
0000
0000
0000
0000
0000
0300
,
2001
0000
0000
0000
0000
0000
0000
0000
0000
0001
0000
0000
0010
0000
0000
0000
0000
0000
3000
0000
0000
0000
0010
0100
0001
0000
0100
0000
0010
0000
1000
0000
0001
0000
0100
0000
0020
0000
0000
0000
0000
0000
0000
0000
0000
0000
0000
0000
,
0000
0000
0000
0030
0000
0000
0000
0000
0000
0000
0000
0000
0000
0000
0000
0000
0000
0000
0000
0000
0000
0000
0000
0000
0000
0000
0000
0000
0000
0000
0000
0000
0000
0000
0000
0000
0000
0000
0000
0000
0000
0000
0000
0000
0000
0000
0000
0000
0000
0000
0000
0000
0000
0000
0000
0000
0000
0000
0000
0000
0000
0000
0000
0000
0000
0000
0000
0000
0000
0000
0000
0000
0000
0000
0000
0000
0000
0000
0000
0000
0000
0000
0000
0000
0000
0000
0000
0000
0000
0000
0000
0000
0000
0000
0000
0000
0200
0000
0000
0000
0000
0000
0000
0000
0000
0000
0000
0000
0000
0000
0000
0000
0000
0000
0000
0000
0000
0000
0000
0000
0000
0000
0000
0000
0000
0000
0000
0000
0000
0000
0000
0000
0000
0000
0000
0000
0000
0000
0000
0000
0000
0000
0000
0000
0000
0000
0000
0000
0000
0000
0000
0000
0000
0000
0020
0000
0000
0000
0000
0000
0000
0000
0000
0000
0000
0000
0000
0000
0000
0000
0000
0000
0000
0000
0000
0000
0000
0000
0000
0000
0000
0000
0000
0000
0000
0000
0330
0000
0000
0000
0000
0000
,
1001
0000
0000
0100
0000
0000
0000
0000
0001
1010
0000
0001
0100
0000
0000
0011
0000
0000
0100
0000
0100
1000
0000
1000
,
0110
0000
0000
0010
0000
0000
0000
0000
0001
1100
0000
0010
1000
0000
0000
0101
0000
0000
0001
0000
0001
0010
0000
0010
,
1001
0000
0000
0100
0000
0000
0000
0000
0100
1010
0000
0010
1000
0000
0000
0011
0000
0000
0100
0000
0100
1000
0000
1000
,
0110
0000
0010
0001
0000
0001
0010
0000
0010
1100
0000
0100
1000
0000
0101
1000
0000
0000
0110
0000
0001
0010
0000
0010
,
1001
0000
0000
0100
0000
0000
0000
0000
0001
1010
0000
0001
0100
0000
0000
0011
0000
0000
0100
0000
0100
1000
0000
1000
,
0110
0000
0000
0010
0000
0000
0000
0000
0001
1100
0000
0010
1000
0000
0010
0101
0000
0000
0001
0000
0001
0010
0000
0010
,
1001
0000
0000
0100
0000
0000
0000
0000
0001
1010
0000
0010
1000
0000
0000
0011
0000
0000
0100
0000
0100
1000
0000
1000
,
0110
0000
0000
0000
0000
0000
0000
0000
0000
1100
0000
0000
0000
0000
0101
0000
0000
0000
0110
0000
0000
0000
0000
0000
;
