#TITLE:Sunset Hill Zone Act 1;
#SUBTITLE:Sonic Advance 3;
#ARTIST:Hideaki Kobayashi & Kenichi Tokoi;
#TITLETRANSLIT:;
#SUBTITLETRANSLIT:;
#ARTISTTRANSLIT:;
#CREDIT:owenviau1;
#BANNER:../Banner.png;
#BACKGROUND:../BG.PNG;
#LYRICSPATH:;
#CDTITLE:../CDTitleOV1.png;
#MUSIC:Sunset Hill Zone Act 1.ogg;
#OFFSET:-0.183;
#SAMPLESTART:74.103;
#SAMPLELENGTH:29.999;
#SELECTABLE:YES;
#BPMS:0.000=159.091;
#STOPS:;
#BGCHANGES:;
// cache tags:
#FIRSTBEAT:0.000;
#LASTBEAT:387.000;
#SONGFILENAME:Songs/Index Fusion/Sunset Hill Zone Act 1 - [owenviau1]/Sunset Hill Zone Act 1.sm;
#HASMUSIC:1;
#HASBANNER:1;
#MUSICLENGTH:147.330;
// end cache tags

//---------------dance-single - owenviau1----------------
#NOTES:
     dance-single:
     owenviau1:
     Challenge:
     16:
     1.000,1.000,0.190,1.000,1.000,1178.000,28.000,234.000,8.000,0.000:
1000
0100
1000
0010
0100
0001
1000
0001
0100
0010
0100
0001
1000
0100
0010
0001
,
2000
0000
3010
0000
0100
0000
0002
1003
0001
0000
0010
0100
2000
0000
3001
0000
,
0100
0000
0002
0000
1003
0000
0100
0000
0020
0000
0031
1000
0002
0103
0010
0000
,
2000
0000
3001
0000
1000
0000
0200
0310
0001
0000
1000
0010
0200
0000
0301
0000
,
1000
0010
0100
0001
1000
0010
1000
0100
0010
0001
1000
0010
0100
0001
0100
0010
,
2000
0000
3001
0000
0010
0000
0200
1300
0001
0000
0100
0010
0200
0000
0301
0000
,
2000
0000
3100
0000
0010
0000
0002
0000
1003
0000
0010
0100
0002
1003
0010
0000
,
0200
0000
0301
0000
1000
0000
0002
0103
0010
0000
1000
0001
0100
0000
0010
0000
,
1000
0100
0010
0001
1000
0100
1000
0010
0100
0001
1000
0010
1000
0001
0100
0010
,
1000
0001
0010
0100
1000
0001
0010
0100
2000
0000
3020
0130
0001
1000
0002
0000
,
0023
0000
0000
0000
0130
0000
0000
0000
2000
0000
0000
0000
3020
0000
0000
0000
1030
0000
0000
0000
0002
0000
0023
0030
0200
0300
0000
0000
1000
0000
0020
0030
,
0200
0300
0000
0000
0001
0000
0000
0000
1000
0000
0000
0000
0200
0000
0310
0000
0002
0000
0000
0000
2003
0000
3010
0000
1000
0000
0001
0000
0200
0000
0000
0000
,
0320
0000
0000
0000
0130
0000
0000
0000
0002
0000
0000
0000
2003
0000
0000
0000
3100
0000
0000
0000
0020
0000
0032
0003
2000
3000
0000
0000
0020
0030
0200
0300
,
0002
0003
0000
0000
1000
0000
0000
0000
0010
0000
0000
0000
0100
0000
0001
0000
0200
0000
0000
0000
0320
0000
1030
0000
0001
0000
1000
0000
0200
0000
0000
0000
,
0320
0000
0000
0000
0031
0000
0000
0000
2000
0000
0000
0000
3020
0000
0000
0000
1030
0000
0000
0000
0002
0000
0203
0300
0020
0030
1000
0000
0001
0000
0020
0030
,
0200
0300
0000
0000
1000
0000
0000
0000
0010
0000
0000
0000
2000
0000
3001
0000
0200
0000
0000
0000
0320
0000
0130
0000
0001
0000
1000
0000
0002
0000
0000
0000
,
0023
0000
0130
0000
2000
0000
3002
0000
0103
0010
2000
3001
1000
0100
0010
0000
,
0001
0000
1000
0000
0010
0000
0100
0001
4000
0000
3400
0310
0001
1000
0004
0000
,
0403
0000
0000
0000
0310
0000
0000
0000
0400
0000
0000
0000
0304
0000
0000
0000
1003
0000
0000
0000
0040
0000
0430
0300
0004
0003
1000
0000
0004
0003
0000
0000
,
0010
0000
0100
0000
1000
0000
0004
0103
0040
0000
4030
3001
1000
0010
0400
0000
,
0304
0000
0000
0000
1003
0000
0000
0000
0400
0000
0000
0000
0340
0000
0000
0000
0031
0000
0000
0000
4000
0000
3040
0030
0400
0300
0001
0000
0400
0300
0000
0000
,
0010
0000
1000
0000
0001
0000
1000
0100
4000
0000
3040
0130
0001
1000
0400
0000
,
4300
0000
0000
0000
3010
0000
0000
0000
0400
0000
0000
0000
0304
0000
0000
0000
1003
0000
0000
0000
0040
0000
0430
0300
0004
0003
1000
0000
0004
0003
0000
0000
,
0010
0000
0100
0000
1000
0000
0004
0103
0004
0000
0043
0130
1000
0001
4000
0000
,
3400
0000
0310
0000
0004
0000
4003
0000
3010
0100
0002
0003
2000
3010
2000
0000
,
3001
0010
0100
1000
0001
1000
0010
0100
0001
0100
0010
1000
0001
1000
0100
0010
0001
1000
0100
1000
0001
0100
0010
0100
,
0001
1000
0100
0010
0100
1000
0001
0100
0010
0100
0001
1000
0001
0100
0010
1000
0010
0100
0001
1000
0100
1000
0010
0100
,
0001
1000
0001
0010
0100
1000
0001
0010
0001
0100
0010
1000
0010
0100
0001
1000
0100
1000
0001
0100
0010
0100
0001
1000
,
0010
1000
0001
0100
0001
0010
0100
1000
0100
0010
0001
1000
0100
1000
0001
0100
0010
0100
0001
1000
0010
1000
0100
0010
,
0001
1000
0001
0100
0010
0100
0001
1000
0010
1000
0001
0100
0010
0100
0001
1000
0100
0010
0001
1000
0100
1000
0001
0100
,
0010
0100
0001
1000
0001
0100
0010
1000
0010
0100
0001
1000
0001
0010
0100
1000
0001
0010
0001
1000
0100
1000
0001
0100
,
0001
0000
1000
0000
0010
0000
0100
0000
0001
0000
0100
0000
0010
0000
1000
0000
0001
0000
1000
0000
0100
0000
0010
0000
0001
0000
1000
0000
0100
0000
1000
0000
0001
0000
0100
0000
0010
0000
0100
0000
0001
0000
2000
0000
0000
3000
0000
0000
,
0000
0000
0020
0030
0200
0300
0002
0003
2000
3010
M000
0100
0002
1003
0020
0030
,
2000
0000
3001
0000
0100
0000
0020
0130
0001
0000
1000
0100
2000
0000
3001
0000
,
0100
0000
0002
0000
1003
0000
0100
0000
0020
0000
0031
1000
0002
0103
0010
0000
,
2000
0000
3001
0000
1000
0000
0200
0310
0001
0000
1000
0010
0200
0000
0301
0000
,
1000
0010
0100
0001
1000
0010
1000
0100
0010
0001
1000
0010
0100
0001
0100
0010
,
2000
0000
3001
0000
0010
0000
0200
1300
0001
0000
0100
0010
0200
0000
0301
0000
,
2000
0000
3100
0000
0010
0000
0002
0000
1003
0000
0010
0100
0002
1003
0010
0000
,
0200
0000
0301
0000
1000
0000
0002
0103
0010
0000
1000
0001
0100
0000
0010
0000
,
1000
0100
0010
0001
1000
0100
1000
0010
0100
0001
1000
0010
1000
0001
0100
0010
,
0200
0000
0301
0000
1000
0000
0020
0130
0001
0000
1000
0001
2000
0000
3010
0000
,
0100
0000
0002
0000
1003
0000
0100
0000
0020
0000
0031
1000
0002
0103
0010
0000
,
2000
0000
3001
0000
1000
0000
0200
0310
0001
0000
1000
0010
0200
0000
0301
0000
,
1000
0010
0100
0001
1000
0010
1000
0100
0010
0001
1000
0010
0100
0001
0100
0010
,
2000
0000
3001
0000
0010
0000
0200
1300
0001
0000
0100
0010
0200
0000
0301
0000
,
2000
0000
3100
0000
0010
0000
0002
0000
1003
0000
0010
0100
0002
1003
0010
0000
,
0200
0000
0301
0000
1000
0000
0002
0103
0010
0000
1000
0001
0100
0000
0010
0000
,
1000
0100
0010
0001
1000
0100
1000
0010
0100
0001
1000
0010
1000
0001
0100
0010
,
1000
0100
0010
0001
1000
0100
0010
0001
2000
0000
3020
0130
0001
1000
0002
0000
,
0023
0000
0000
0000
0130
0000
0000
0000
2000
0000
0000
0000
3020
0000
0000
0000
1030
0000
0000
0000
0002
0000
0023
0030
0200
0300
0000
0000
1000
0000
0020
0030
,
0200
0300
0000
0000
0001
0000
0000
0000
1000
0000
0000
0000
0200
0000
0310
0000
0002
0000
0000
0000
2003
0000
3010
0000
1000
0000
0001
0000
0200
0000
0000
0000
,
0320
0000
0000
0000
0130
0000
0000
0000
0002
0000
0000
0000
2003
0000
0000
0000
3100
0000
0000
0000
0020
0000
0032
0003
2000
3000
0000
0000
0020
0030
0200
0300
,
0002
0003
0000
0000
1000
0000
0000
0000
0010
0000
0000
0000
0100
0000
0001
0000
0200
0000
0000
0000
0320
0000
1030
0000
0001
0000
1000
0000
0200
0000
0000
0000
,
0320
0000
0000
0000
0031
0000
0000
0000
2000
0000
0000
0000
3020
0000
0000
0000
1030
0000
0000
0000
0002
0000
0203
0300
0020
0030
1000
0000
0001
0000
0020
0030
,
0200
0300
0000
0000
1000
0000
0000
0000
0010
0000
0000
0000
2000
0000
3001
0000
0200
0000
0000
0000
0320
0000
0130
0000
0001
0000
1000
0000
0002
0000
0000
0000
,
0023
0000
0130
0000
2000
0000
3002
0000
0103
0010
2000
3001
1000
0100
0010
0000
,
0001
0000
1000
0000
0010
0000
0100
0001
4000
0000
3400
0310
0001
1000
0004
0000
,
0403
0000
0000
0000
0310
0000
0000
0000
0400
0000
0000
0000
0304
0000
0000
0000
1003
0000
0000
0000
0040
0000
0430
0300
0004
0003
1000
0000
0004
0003
0000
0000
,
0010
0000
0100
0000
1000
0000
0004
0103
0040
0000
4030
3001
1000
0010
0400
0000
,
0304
0000
0000
0000
1003
0000
0000
0000
0400
0000
0000
0000
0340
0000
0000
0000
0031
0000
0000
0000
4000
0000
3040
0030
0400
0300
0001
0000
0400
0300
0000
0000
,
0010
0000
1000
0000
0001
0000
1000
0100
4000
0000
3040
0130
0001
1000
0400
0000
,
4300
0000
0000
0000
3010
0000
0000
0000
0400
0000
0000
0000
0304
0000
0000
0000
1003
0000
0000
0000
0040
0000
0430
0300
0004
0003
1000
0000
0004
0003
0000
0000
,
0010
0000
0100
0000
1000
0000
0004
0103
0004
0000
0043
0130
1000
0001
4000
0000
,
3400
0000
0310
0000
0004
0000
4003
0000
3010
0100
0002
0003
2000
3010
2000
0000
,
3001
0010
0100
1000
0001
1000
0010
0100
0001
0100
0010
1000
0001
1000
0100
0010
0001
1000
0100
1000
0001
0100
0010
0100
,
0001
1000
0100
0010
0100
1000
0001
0100
0010
0100
0001
1000
0001
0100
0010
1000
0010
0100
0001
1000
0100
1000
0010
0100
,
0001
1000
0001
0010
0100
1000
0001
0010
0001
0100
0010
1000
0010
0100
0001
1000
0100
1000
0001
0100
0010
0100
0001
1000
,
0010
1000
0001
0100
0001
0010
0100
1000
0100
0010
0001
1000
0100
1000
0001
0100
0010
0100
0001
1000
0010
1000
0100
0010
,
0001
1000
0001
0100
0010
0100
0001
1000
0010
1000
0001
0100
0010
0100
0001
1000
0100
0010
0001
1000
0100
1000
0001
0100
,
0010
0100
0001
1000
0001
0100
0010
1000
0010
0100
0001
1000
0001
0010
0100
1000
0001
0010
0001
1000
0100
1000
0001
0100
,
0001
0000
1000
0000
0010
0000
0100
0000
0001
0000
0100
0000
0010
0000
1000
0000
0001
0000
1000
0000
0100
0000
0010
0000
0001
0000
1000
0000
0100
0000
1000
0000
0001
0000
0100
0000
0010
0000
0100
0000
0001
0000
2000
0000
0000
3000
0000
0000
,
0000
0000
0020
0030
0200
0300
0002
0003
2000
3010
M000
0100
0002
1003
0020
0030
,
2000
0000
3001
0000
0100
0000
0020
0130
0001
0000
1000
0100
2000
0000
3001
0000
,
0100
0000
0002
0000
1003
0000
0100
0000
0020
0000
0031
1000
0002
0103
0010
0000
,
2000
0000
3001
0000
1000
0000
0200
0310
0001
0000
1000
0010
0200
0000
0301
0000
,
1000
0010
0100
0001
1000
0010
1000
0100
0010
0001
1000
0010
0100
0001
0100
0010
,
2000
0000
3001
0000
0010
0000
0200
1300
0001
0000
0100
0010
0200
0000
0301
0000
,
2000
0000
3100
0000
0010
0000
0002
0000
1003
0000
0010
0100
0002
1003
0010
0000
,
0200
0000
0301
0000
1000
0000
0002
0103
0010
0000
1000
0001
0100
0000
0010
0000
,
1000
0100
0010
0001
1000
0100
1000
0010
0100
0001
1000
0010
1000
0001
0100
0010
,
0200
0000
0301
0000
1000
0000
0020
0130
0001
0000
1000
0001
2000
0000
3010
0000
,
0100
0000
0002
0000
1003
0000
0100
0000
0020
0000
0031
1000
0002
0103
0010
0000
,
2000
0000
3001
0000
1000
0000
0200
0310
0001
0000
1000
0010
0200
0000
0301
0000
,
1000
0010
0100
0001
1000
0010
1000
0100
0010
0001
1000
0010
0100
0001
0100
0010
,
2000
0000
3001
0000
0010
0000
0200
1300
0001
0000
0100
0010
0200
0000
0301
0000
,
2000
0000
3100
0000
0010
0000
0002
0000
1003
0000
0010
0100
0002
1003
0010
0000
,
0200
0000
0301
0000
1000
0000
0002
0103
0010
0000
1000
0001
0100
0000
0010
0000
,
1000
0100
0010
0001
1000
0100
1000
0010
0100
0001
1000
0010
1000
0001
0100
0010
,
1000
0010
0100
0001
1000
0010
0100
0001
2000
0000
3020
0130
0001
1000
0002
0000
,
0023
0000
0000
0000
0130
0000
0000
0000
2000
0000
0000
0000
3020
0000
0000
0000
1030
0000
0000
0000
0002
0000
0023
0030
0200
0300
0000
0000
1000
0000
0020
0030
,
0200
0300
0000
0000
0001
0000
0000
0000
1000
0000
0000
0000
0200
0000
0310
0000
0002
0000
0000
0000
2003
0000
3010
0000
1000
0000
0001
0000
0200
0000
0000
0000
,
0320
0000
0000
0000
0130
0000
0000
0000
0002
0000
0000
0000
2003
0000
0000
0000
3100
0000
0000
0000
0020
0000
0032
0003
2000
3000
0000
0000
0020
0030
0200
0300
,
0002
0003
0000
0000
1000
0000
0000
0000
0010
0000
0000
0000
0100
0000
0001
0000
0200
0000
0000
0000
0320
0000
1030
0000
0001
0000
1000
0000
0200
0000
0000
0000
,
0320
0000
0000
0000
0031
0000
0000
0000
2000
0000
0000
0000
3020
0000
0000
0000
1030
0000
0000
0000
0002
0000
0203
0300
0020
0030
1000
0000
0001
0000
0020
0030
,
0200
0300
0000
0000
1000
0000
0000
0000
0010
0000
0000
0000
2000
0000
3001
0000
0200
0000
0000
0000
0320
0000
0130
0000
0001
0000
1000
0000
0002
0000
0000
0000
,
0203
0000
0000
0000
032M
0000
2M30
0000
0M00
00M0
3002
0M00
00M3
0000
0000
0000
,
0000
0000
0000
0000
;
