#TITLE:Granite;
#SUBTITLE:;
#ARTIST:Pendulum;
#TITLETRANSLIT:;
#SUBTITLETRANSLIT:;
#ARTISTTRANSLIT:;
#CREDIT:;
#BANNER:granitebn.png;
#BACKGROUND:granitebg.png;
#LYRICSPATH:;
#CDTITLE:;
#MUSIC:granite.ogg;
#OFFSET:0.769;
#SAMPLESTART:196.470;
#SAMPLELENGTH:22.065;
#SELECTABLE:YES;
#BPMS:0.000=174.005;
#STOPS:;
#BGCHANGES:;
// cache tags:
#FIRSTBEAT:12.000;
#LASTBEAT:746.000;
#SONGFILENAME:Songs/Pendulum/Granite/granite.sm;
#HASMUSIC:1;
#HASBANNER:1;
#MUSICLENGTH:257.000;
// end cache tags

//---------------dance-single - I. Pyles----------------
#NOTES:
     dance-single:
     I. Pyles:
     Beginner:
     1:
     0.026,0.036,0.000,0.000,0.000,46.000,0.000,0.000,0.000,0.000:
0000
0000
0000
0000
,
0000
0000
0000
0000
,
0000
0000
0000
0000
,
0010
0000
0000
0000
,
0000
0000
0000
0000
,
0000
0000
0000
0000
,
0000
0000
0000
0000
,
0001
0000
0000
0000
,
0000
0000
0000
0000
,
0000
0000
0000
0000
,
0000
0000
0000
0000
,
1000
0000
0000
0000
,
0000
0000
0000
0000
,
0000
0000
0000
0000
,
0000
0000
0000
0000
,
0001
0000
0000
0000
,
0000
0000
0000
0000
,
0000
0000
0000
0000
,
0000
0000
0000
0000
,
0001
0000
0000
0000
,
0000
0000
0000
0000
,
0000
0000
0000
0000
,
0000
0000
0000
0000
,
0100
0000
0000
0000
,
0000
0000
0000
0000
,
0000
0000
0000
0000
,
0000
0000
0000
0000
,
1000
0000
0000
0000
,
0000
0000
0000
0000
,
0000
0000
0000
0000
,
0000
0000
0000
0000
,
0100
0000
0000
0000
,
0000
0000
0000
0000
,
0000
0000
0000
0000
,
0000
0000
0000
0000
,
0010
0000
0000
0000
,
0000
0000
0000
0000
,
0000
0000
0000
0000
,
0000
0000
0000
0000
,
0100
0000
0000
0000
,
0000
0000
0000
0000
,
0000
0000
0000
0000
,
0000
0000
0000
0000
,
0100
0000
0000
0000
,
0000
0000
0000
0000
,
0000
0000
0000
0000
,
0000
0000
0000
0000
,
0001
0000
0000
0000
,
0000
0000
0000
0000
,
0000
0000
0000
0000
,
0000
0000
0000
0000
,
0010
0000
0000
0000
,
0000
0000
0000
0000
,
0000
0000
0000
0000
,
0000
0000
0000
0000
,
0100
0000
0000
0000
,
0000
0000
0000
0000
,
0000
0000
0000
0000
,
0000
0000
0000
0000
,
0100
0000
0000
0000
,
0000
0000
0000
0000
,
0000
0000
0000
0000
,
0000
0000
0000
0000
,
0001
0000
0000
0000
,
0000
0000
0000
0000
,
0000
0000
0000
0000
,
0000
0000
0000
0000
,
0001
0000
0000
0000
,
0000
0000
0000
0000
,
0000
0000
0000
0000
,
0000
0000
0000
0000
,
0001
0000
0000
0000
,
0000
0000
0000
0000
,
0000
0000
0000
0000
,
0000
0000
0000
0000
,
0100
0000
0000
0000
,
0000
0000
0000
0000
,
0000
0000
0000
0000
,
0000
0000
0000
0000
,
0010
0000
0000
0000
,
0000
0000
0000
0000
,
0000
0000
0000
0000
,
0000
0000
0000
0000
,
1000
0000
0000
0000
,
0000
0000
0000
0000
,
0000
0000
0000
0000
,
0000
0000
0000
0000
,
0001
0000
0000
0000
,
0000
0000
0000
0000
,
0000
0000
0000
0000
,
0000
0000
0000
0000
,
1000
0000
0000
0000
,
0000
0000
0000
0000
,
0000
0000
0000
0000
,
0000
0000
0000
0000
,
0010
0000
0000
0000
,
0000
0000
0000
0000
,
0000
0000
0000
0000
,
0000
0000
0000
0000
,
0001
0000
0000
0000
,
0000
0000
0000
0000
,
0000
0000
0000
0000
,
0000
0000
0000
0000
,
0010
0000
0000
0000
,
0000
0000
0000
0000
,
0000
0000
0000
0000
,
0000
0000
0000
0000
,
1000
0000
0000
0000
,
0000
0000
0000
0000
,
0000
0000
0000
0000
,
0000
0000
0000
0000
,
1000
0000
0000
0000
,
0000
0000
0000
0000
,
0000
0000
0000
0000
,
0000
0000
0000
0000
,
1000
0000
0000
0000
,
0000
0000
0000
0000
,
0000
0000
0000
0000
,
0000
0000
0000
0000
,
1000
0000
0000
0000
,
0000
0000
0000
0000
,
0000
0000
0000
0000
,
0000
0000
0000
0000
,
0010
0000
0000
0000
,
0000
0000
0000
0000
,
0000
0000
0000
0000
,
0000
0000
0000
0000
,
0100
0000
0000
0000
,
0000
0000
0000
0000
,
0000
0000
0000
0000
,
0000
0000
0000
0000
,
0001
0000
0000
0000
,
0000
0000
0000
0000
,
0000
0000
0000
0000
,
0000
0000
0000
0000
,
0100
0000
0000
0000
,
0000
0000
0000
0000
,
0000
0000
0000
0000
,
0000
0000
0000
0000
,
1000
0000
0000
0000
,
0000
0000
0000
0000
,
0000
0000
0000
0000
,
0000
0000
0000
0000
,
1000
0000
0000
0000
,
0000
0000
0000
0000
,
0000
0000
0000
0000
,
0000
0000
0000
0000
,
0010
0000
0000
0000
,
0000
0000
0000
0000
,
0000
0000
0000
0000
,
0000
0000
0000
0000
,
1000
0000
0000
0000
,
0000
0000
0000
0000
,
0000
0000
0000
0000
,
0000
0000
0000
0000
,
0001
0000
0000
0000
,
0000
0000
0000
0000
,
0000
0000
0000
0000
,
0000
0000
0000
0000
,
0010
0000
0000
0000
,
0000
0000
0000
0000
,
0000
0000
0000
0000
,
0000
0000
0000
0000
,
0001
0000
0000
0000
,
0000
0000
0000
0000
,
0000
0000
0000
0000
,
0000
0000
0000
0000
,
0100
0000
0000
0000
,
0000
0000
0000
0000
,
0000
0000
0000
0000
,
0000
0000
0000
0000
,
1000
0000
0000
0000
,
0000
0000
0000
0000
,
0000
0000
0000
0000
,
0000
0000
0000
0000
,
0001
0000
0000
0000
,
0000
0000
0000
0000
,
0000
0000
0000
0000
,
0000
0000
0000
0000
,
1000
0000
0000
0000
,
0000
0000
0000
0000
,
0000
0000
0000
0000
,
0000
0000
0000
0000
,
0010
0000
0000
0000
;

//---------------dance-single - I. Pyles----------------
#NOTES:
     dance-single:
     I. Pyles:
     Easy:
     10:
     0.891,1.000,0.276,1.000,0.093,1156.000,71.000,376.000,26.000,10.000:
0000
0000
0000
0000
,
0000
0000
0000
0000
,
0000
0000
0000
0000
,
1001
0001
0010
0010
0001
1000
0010
0010
,
2000
3020
0230
0320
2030
0000
3002
0000
,
1003
0001
0010
0010
0001
1000
0010
0010
,
2000
3002
0023
0032
2003
0000
0000
0000
,
3001
1000
0100
0100
1000
0001
0100
0100
,
0002
0023
0230
0320
0032
0000
2003
0000
,
3001
1000
0100
0100
1000
0001
0100
0100
,
0001
0010
0100
1000
0001
1000
0001
1000
0001
0010
0100
1000
0001
0000
0000
0000
,
1000
0010
0100
0100
0010
1000
0001
0001
,
2000
3002
0023
0032
2003
0000
3002
0000
,
1003
0010
0100
0100
0010
1000
0001
0001
,
2000
3200
0320
0230
2300
0000
0000
0000
,
3001
0100
0010
0010
0100
0001
1000
1000
,
0002
2003
3020
2030
3002
0000
2003
0000
,
3001
0000
0000
0000
0000
0000
0000
0000
2000
3000
0000
0000
0000
0000
0000
0000
0002
0000
0003
0000
0000
0000
0000
0000
2000
0000
0000
3000
0000
0000
0000
0000
0002
0000
0000
0000
0003
0000
0000
0000
2000
0000
0000
0000
0000
3000
0000
0000
0002
0000
0000
0000
0000
0000
0003
0000
2000
0000
0000
0000
0000
0000
0000
3000
,
0001
0010
0100
1000
0001
1000
0001
1000
0001
0010
0100
1000
0001
0000
0000
0000
,
2002
3003
1001
0001
0200
0000
0320
0000
,
1030
0000
0100
0000
0010
0000
0100
0000
2000
0000
0000
0000
3002
0000
0000
0003
,
2002
3003
1001
0001
0200
0000
0320
0000
,
0130
0001
0010
0100
0020
0000
0000
0030
,
2002
3003
1001
1000
0020
0000
0230
0000
,
0301
0010
0100
0010
0100
0010
0001
1000
,
2002
3003
1001
1000
0020
0000
0230
0000
,
0310
1000
0100
0010
0002
2003
3020
0000
,
2032
3003
1001
0001
0200
0000
0320
0000
,
1030
0000
0100
0000
0010
0000
0100
0000
2000
0000
0000
0000
3002
0000
0000
0003
,
2002
3003
1001
0001
0200
0000
0320
0000
,
0130
0001
0010
0100
0020
0000
0000
0030
,
2002
3003
1001
1000
0020
0000
0230
0000
,
0301
0000
0010
0000
0100
0000
0010
0000
0002
0000
0000
0000
2003
0000
0000
3000
,
2002
3003
1001
1000
0020
0000
0230
0000
,
0301
0100
0100
0100
0000
0001
1001
0000
,
0001
0010
0100
0020
0000
0130
1200
1300
,
0001
0100
0010
0200
0000
0310
1020
1030
,
0001
0010
0100
0020
0000
0130
1200
1300
,
0001
0100
0010
1000
2000
3002
0000
0003
,
1000
0100
0010
0200
0000
0310
0021
0031
,
1000
0010
0100
0020
0000
0130
0201
0301
,
1000
0100
0010
0200
0000
0310
0021
0031
,
1000
0010
0100
0010
1000
0001
2000
0000
,
3020
0000
0230
0000
,
0302
0000
2003
0000
,
3200
0000
0000
0000
0320
0000
0000
0030
,
0001
0100
0010
1000
0001
1000
0001
1000
0001
0100
0010
1000
0001
0000
0000
0000
,
0020
0000
0031
0010
0100
1000
0002
0000
,
1003
0001
0100
0020
0000
0130
0210
0310
,
1000
0001
0010
0200
0000
0310
0120
0130
,
2000
3020
0230
0320
0230
0302
2003
0000
,
3001
1000
0100
0020
0000
0130
0210
0310
,
0001
1000
0010
0200
0000
0310
0120
0130
,
0001
1000
0100
0020
0000
0130
0210
0310
,
0002
0000
1003
0001
0010
0100
2000
0000
,
3020
0000
0230
0000
,
0302
0023
0230
2300
,
3020
0000
0000
0000
0230
0000
0000
0300
,
0001
0100
0010
1000
0001
1000
0001
1000
0001
0100
0010
1000
0001
1000
0001
1000
,
0020
0000
2030
3000
0000
0000
1000
0000
0010
0000
0100
0000
0002
0000
0023
0030
,
0000
0010
0100
1000
0001
0100
0001
0010
,
0200
0000
2300
3000
0000
0000
1000
0000
0010
0000
0100
0000
0002
0000
0023
0030
,
0000
0010
0100
1000
0002
1003
0100
0100
,
0020
0000
0032
0003
0000
0000
0001
0000
0010
0000
0100
0000
2000
0000
3020
0030
,
0000
0010
0100
0001
1000
0100
1000
0010
,
0200
0000
0302
0003
0000
0000
0001
0000
0010
0000
0100
0000
2000
0000
3020
0030
,
0000
0010
0100
0001
2000
3001
0100
0100
,
0020
0000
1000
0000
0000
1030
1001
0001
,
0020
0000
0001
0000
0000
0031
1001
1000
,
0200
0000
1000
0000
0000
1300
1001
1000
,
0020
0000
1000
0000
0000
1030
1001
0001
,
1000
0100
0100
1000
0100
0100
0010
0001
,
1000
0100
0100
1000
0100
0100
0010
0001
,
1000
0010
0010
0100
0002
0000
0103
0002
,
0000
0103
0001
0010
0200
0000
0020
0330
,
M00M
0000
1001
0001
0200
0000
0320
0000
,
1030
0000
0100
0000
0010
0000
0100
0000
2000
0000
0000
0000
3002
0000
0000
0003
,
2002
3003
1001
0001
0200
0000
0320
0000
,
0130
0001
0010
0100
0020
0000
0000
0030
,
2002
3003
1001
1000
0020
0000
0230
0000
,
0301
0010
0100
0010
0100
0010
0001
1000
,
2002
3003
1001
1000
0020
0000
0230
0000
,
0310
1000
0100
0010
0002
2003
3020
0000
,
2032
3003
1001
0001
0200
0000
0320
0000
,
1030
0000
0100
0000
0010
0000
0100
0000
2000
0000
0000
0000
3002
0000
0000
0003
,
2002
3003
1001
0001
0200
0000
0320
0000
,
0130
0001
0010
0100
0020
0000
0000
0030
,
2002
3003
1001
1000
0020
0000
0230
0000
,
0301
0000
0010
0000
0100
0000
0010
0000
0002
0000
0000
0000
2003
0000
0000
3000
,
2002
0000
3003
0000
1001
0000
0001
0000
0020
0000
0000
0000
0230
0000
0000
0300
,
1000
0100
0010
0001
1000
0001
1000
0001
1000
0100
0010
0001
1000
0000
0000
0000
,
0001
0100
0010
0200
0000
0310
1020
1030
,
0001
0010
0100
0020
0000
0130
1200
1300
,
0001
0100
0010
0200
0000
0310
1020
1030
,
0001
0010
0100
1000
2000
3002
0000
0003
,
1000
0010
0100
0020
0000
0130
0201
0301
,
1000
0100
0010
0200
0000
0310
0021
0031
,
1000
0010
0100
0020
0000
0130
0201
0301
,
1000
0100
0010
0100
0010
0001
2000
0000
,
3020
0000
0230
0000
,
0302
0000
2003
0000
,
3200
0000
0000
0000
0320
0000
0000
0030
,
0001
0100
0010
1000
0001
1000
0001
1000
0001
0100
0010
1000
0001
0000
0000
0000
,
0020
0000
0031
0100
0010
1000
0002
0000
,
1003
0001
0010
0200
0000
0310
0120
0130
,
1000
0001
0100
0020
0000
0130
0210
0310
,
2000
3200
0320
0230
0320
0032
2003
0000
,
3001
1000
0010
0200
0000
0310
0120
0130
,
0001
1000
0100
0020
0000
0130
0210
0310
,
0001
1000
0010
0200
0000
0310
0120
0130
,
0001
0010
0100
0010
0001
1000
0010
0100
,
0002
0000
1003
0010
1000
0010
1000
0010
,
2000
0000
3010
1000
0010
1000
0010
0000
,
0200
0000
0301
0100
0001
0100
0001
0100
,
0002
0000
0103
0001
0100
0010
1000
0000
,
0020
0000
1030
0001
1000
0001
1000
0001
,
0010
0001
0010
0001
0010
0001
2000
0000
,
3001
0100
0020
0000
0130
0001
0020
0000
,
0130
1000
0100
1000
0010
0100
0010
0000
,
0120
0000
0230
0300
0000
0000
0100
0000
0000
0000
0000
0000
0002
0000
2003
3000
,
0000
1000
0000
0000
0010
0100
0001
0010
,
0200
0000
2300
3000
0000
0000
1000
0000
0000
0000
0000
0000
0002
0000
0023
0030
,
0000
0000
0010
0000
0000
0000
0010
0000
0002
0003
1000
0000
0100
0000
0100
0000
,
0020
0000
0032
0003
0000
0000
0001
0000
0000
0000
0001
0000
2000
0000
3020
0030
,
0000
0010
0000
0010
1000
0100
0010
0100
,
2000
0000
3002
0003
0000
0000
0001
0000
0000
0000
0001
0000
0200
0000
0320
0030
,
0000
0010
0000
0010
2000
3001
0100
0100
,
0020
0000
2030
3000
0000
0000
1000
0000
0000
0000
1000
0000
0002
0000
0023
0030
,
0000
0010
0000
0010
0001
0100
0010
0100
,
0002
0000
2003
3000
0000
0000
1000
0000
0000
0000
1000
0000
0200
0000
0320
0030
,
0000
0010
0000
0010
0002
1003
0100
0100
,
0020
0000
0032
0003
0000
0000
0001
0000
0000
0000
0001
0000
2000
0000
3020
0030
,
0000
0010
0000
0010
1000
0100
0010
0100
,
2000
0000
3002
0003
0000
0000
0001
0000
0000
0000
0001
0000
0200
0000
0320
0030
,
0000
MMMM
MMMM
MMMM
MMMM
MMMM
MMMM
0000
,
1002
0000
2003
3000
0000
0000
1000
0000
0010
0000
0100
0000
0002
0000
0023
0030
,
0000
0010
0100
1000
0001
0100
0001
0010
,
0200
0000
2300
3000
0000
0000
1000
0000
0010
0000
0100
0000
0002
0000
0023
0030
,
0000
0010
0100
1000
0002
1003
0100
0100
,
0020
0000
0032
0003
0000
0000
0001
0000
0010
0000
0100
0000
2000
0000
3020
0030
,
0000
0010
0100
0001
1000
0100
1000
0010
,
0200
0000
0302
0003
0000
0000
0001
0000
0010
0000
0100
0000
2000
0000
3020
0030
,
0000
0010
0100
0001
2000
3001
0100
0100
,
0002
0000
2003
3000
0000
0000
1000
0000
0100
0000
0010
0000
0002
0000
0203
0300
,
0000
0100
0010
1000
0001
0010
0001
0100
,
0020
0000
2030
3000
0000
0000
1000
0000
0100
0000
0010
0000
0002
0000
0203
0300
,
0000
0100
0010
1000
0002
1003
0010
0010
,
0200
0000
0302
0003
0000
0000
0001
0000
0100
0000
0010
0000
2000
0000
3200
0300
,
0000
0100
0010
0001
1000
0010
1000
0100
,
0020
0000
0032
0003
0000
0000
0001
0000
0100
0000
0010
0000
2000
0000
3200
0300
,
0000
0100
0010
0001
2000
3001
0010
0010
,
0200
0000
1301
1000
0001
0100
0010
0100
,
0002
0000
0023
0000
0031
0100
0010
1000
,
0200
0000
0320
0000
0130
0010
0100
1000
,
0002
0000
0203
0000
0310
1000
0001
1000
,
0020
0000
1031
0001
1000
0010
0100
0010
,
2000
0000
3200
0000
1300
0010
0100
0001
,
0020
0000
0230
0000
0310
0100
0010
0001
,
2000
0000
3020
0000
0130
0001
0020
0000
,
0230
0000
1301
1000
0001
0100
0010
0100
,
0002
0000
0023
0000
0031
0100
0010
1000
,
0200
0000
0320
0000
0130
0010
0100
1000
,
0002
0000
0203
0000
0310
1000
0001
1000
,
0020
0000
1031
0001
1000
0010
0100
0010
,
2000
0000
3200
0000
1300
0010
0100
0001
,
0020
0000
0230
0000
0310
0100
0010
0001
,
1000
0100
0010
0001
1000
0001
1000
0001
1000
0100
0010
0001
1000
0000
0000
0000
,
0020
0000
1031
0001
1000
0010
0100
0010
,
2000
0000
3200
0000
1300
0010
0100
0001
,
0020
0000
0230
0000
0310
0100
0010
0001
,
2000
0000
3020
0000
0130
0001
1000
0001
,
0200
0000
1301
1000
0001
0100
0010
0100
,
0002
0000
0023
0000
0031
0100
0010
1000
,
0200
0000
0320
0000
0130
0010
0100
1000
,
0002
0000
0203
0000
0310
1000
0200
0000
,
0320
0000
1031
0001
1000
0010
0100
0010
,
2000
0000
3200
0000
1300
0010
0100
0001
,
0020
0000
0230
0000
0310
0100
0010
0001
,
2000
0000
3020
0000
0130
0001
1000
0001
,
0200
0000
1301
1000
0001
0100
0010
0100
,
0002
0000
0023
0000
0031
0100
0010
1000
,
0200
0000
0320
0000
0130
0010
0100
1000
,
0001
0010
0100
1000
0001
0010
0100
1000
0001
0000
0000
0000
0110
0000
0000
0000
,
2002
0000
0000
0000
,
3000
0000
0000
0000
,
0000
0000
0000
0000
,
0000
0000
0003
0000
;

//---------------dance-single - I. Pyles----------------
#NOTES:
     dance-single:
     I. Pyles:
     Medium:
     11:
     0.952,1.000,0.276,1.000,0.245,1289.000,71.000,353.000,26.000,10.000:
0000
0000
0000
0000
,
0000
0000
0000
0000
,
0000
0000
0000
0000
,
1001
0001
0010
0010
0001
1000
0010
0010
,
2000
3020
0230
0320
2030
0000
3002
0000
,
1003
0001
0010
0010
0001
1000
0010
0010
,
2000
3002
0023
0032
2003
0000
0000
0000
,
3001
1000
0100
0100
1000
0001
0100
0100
,
0002
0023
0230
0320
0032
0000
2003
0000
,
3001
1000
0100
0100
1000
0001
0100
0100
,
0001
0010
0100
1000
0010
1000
0001
0100
0001
0010
0100
1000
0001
0000
0000
0000
,
1000
0010
0100
0100
0010
1000
0001
0001
,
2000
3002
0023
0032
2003
0000
3002
0000
,
1003
0010
0100
0100
0010
1000
0001
0001
,
2000
3200
0320
0230
2300
0000
0000
0000
,
3001
0100
0010
0010
0100
0001
1000
1000
,
0002
2003
3020
2030
3002
0000
2003
0000
,
3001
0000
0000
0000
0000
0000
0000
0000
2000
3000
0000
0000
0000
0000
0000
0000
0002
0000
0003
0000
0000
0000
0000
0000
2000
0000
0000
3000
0000
0000
0000
0000
0002
0000
0000
0000
0003
0000
0000
0000
2000
0000
0000
0000
0000
3000
0000
0000
0002
0000
0000
0000
0000
0000
0003
0000
2000
0000
0000
0000
0000
0000
0000
3000
,
0001
0010
0100
1000
0010
1000
0001
0100
0001
0010
0100
1000
0001
0000
0000
0000
,
2002
3003
1001
0001
0200
0000
0320
0000
,
1030
0000
0100
0000
0010
0000
0100
0000
2000
0000
0000
0000
3002
0000
0000
0003
,
2002
3003
1001
0001
0200
0000
0320
0000
,
0130
0001
0010
0100
0020
0000
0000
0030
,
2002
3003
1001
1000
0020
0000
0230
0000
,
0301
0010
0100
0010
0100
0010
0001
1000
,
2002
3003
1001
1000
0020
0000
0230
0000
,
0310
1000
0100
0010
0002
2003
3020
0000
,
2032
3003
1001
0001
0200
0000
0320
0000
,
1030
0000
0100
0000
0010
0000
0100
0000
2000
0000
0000
0000
3002
0000
0000
0003
,
2002
3003
1001
0001
0200
0000
0320
0000
,
0130
0001
0010
0100
0020
0000
0000
0030
,
2002
3003
1001
1000
0020
0000
0230
0000
,
0301
0000
0010
0000
0100
0000
0010
0000
0002
0000
0000
0000
2003
0000
0000
3000
,
2002
3003
1001
1000
0020
0000
0230
0000
,
0301
0100
0100
0100
0000
0001
1001
0000
,
0001
0010
0100
0020
0000
0130
1200
1300
,
0001
0100
0010
0200
0000
0310
1020
1030
,
0001
0010
0100
0020
0000
0130
1200
1300
,
0001
0100
0010
1000
2000
3002
0000
0003
,
1000
0100
0010
0200
0000
0310
0021
0031
,
1000
0010
0100
0020
0000
0130
0201
0301
,
1000
0100
0010
0200
0000
0310
0021
0031
,
1000
0000
0010
0000
0100
0000
0010
0000
0010
0000
1000
0000
0001
0010
0100
1000
,
0001
0100
0010
1000
0001
0100
0010
0100
0001
0010
0100
1000
0001
0010
0100
0010
,
0001
1000
0100
0010
0001
1000
0100
1000
0001
1000
0010
0100
0001
1000
0010
1000
,
0001
0010
0100
1000
0010
1000
0001
0100
0001
0010
0100
1000
0010
1000
0001
0100
,
0010
1000
0001
0010
0100
1000
0001
0100
0010
1000
0001
0010
0100
0000
0000
0000
,
0020
0000
0031
0010
0100
1000
0002
0000
,
1003
0001
0100
0020
0000
0130
0210
0310
,
1000
0001
0010
0200
0000
0310
0120
0130
,
2000
3020
0230
0320
0230
0302
2003
0000
,
3001
1000
0100
0020
0000
0130
0210
0310
,
0001
1000
0010
0200
0000
0310
0120
0130
,
0001
1000
0100
0020
0000
0130
0210
0310
,
0002
0000
0000
0000
1003
0000
1000
0000
0010
0000
0100
0000
0001
0010
0100
1000
,
0001
0100
0010
1000
0001
0100
0010
0100
0001
0010
0100
1000
0001
0010
0100
0010
,
0001
1000
0100
0010
0001
1000
0010
1000
0001
1000
0100
0010
0001
1000
0010
1000
,
0001
0010
0100
1000
0001
0010
0100
0010
0001
0100
0010
1000
0001
0100
0010
0100
,
0001
0010
0100
1000
0010
1000
0001
0100
0001
0010
0100
1000
0010
1000
0001
0100
,
0020
0000
2030
3000
0000
0000
1000
0000
0010
0000
0100
0000
0002
0000
0023
0030
,
0000
0010
0100
1000
0001
0100
0001
0010
,
0200
0000
2300
3000
0000
0000
1000
0000
0010
0000
0100
0000
0002
0000
0023
0030
,
0000
0010
0100
1000
0002
1003
0100
0100
,
0020
0000
0032
0003
0000
0000
0001
0000
0010
0000
0100
0000
2000
0000
3020
0030
,
0000
0010
0100
0001
1000
0100
1000
0010
,
0200
0000
0302
0003
0000
0000
0001
0000
0010
0000
0100
0000
2000
0000
3020
0030
,
0000
0010
0100
0001
2000
3001
0100
0100
,
0020
0000
1000
0000
0000
1030
1001
0001
,
0020
0000
0001
0000
0000
0031
1001
1000
,
0200
0000
1000
0000
0000
1300
1001
1000
,
0020
0000
1000
0000
0000
1030
1001
0001
,
1000
0100
0100
1000
0100
0100
0010
0001
,
1000
0100
0100
1000
0100
0100
0010
0001
,
1000
0010
0010
0100
0002
0000
0103
0002
,
0000
0103
0001
0010
0200
0000
0020
0330
,
M00M
0000
1001
0001
0200
0000
0320
0000
,
1030
0000
0100
0000
0010
0000
0100
0000
2000
0000
0000
0000
3002
0000
0000
0003
,
2002
3003
1001
0001
0200
0000
0320
0000
,
0130
0001
0010
0100
0020
0000
0000
0030
,
2002
3003
1001
1000
0020
0000
0230
0000
,
0301
0010
0100
0010
0100
0010
0001
1000
,
2002
3003
1001
1000
0020
0000
0230
0000
,
0310
1000
0100
0010
0002
2003
3020
0000
,
2032
3003
1001
0001
0200
0000
0320
0000
,
1030
0000
0100
0000
0010
0000
0100
0000
2000
0000
0000
0000
3002
0000
0000
0003
,
2002
3003
1001
0001
0200
0000
0320
0000
,
0130
0001
0010
0100
0020
0000
0000
0030
,
2002
3003
1001
1000
0020
0000
0230
0000
,
0301
0000
0010
0000
0100
0000
0010
0000
0002
0000
0000
0000
2003
0000
0000
3000
,
2002
0000
3003
0000
1001
0000
0001
0000
0020
0000
0000
0000
0230
0000
0000
0300
,
1000
0100
0010
0001
0100
0001
1000
0010
1000
0100
0010
0001
1000
0000
0000
0000
,
0001
0100
0010
0200
0000
0310
1020
1030
,
0001
0010
0100
0020
0000
0130
1200
1300
,
0001
0100
0010
0200
0000
0310
1020
1030
,
0001
0010
0100
1000
2000
3002
0000
0003
,
1000
0010
0100
0020
0000
0130
0201
0301
,
1000
0100
0010
0200
0000
0310
0021
0031
,
1000
0010
0100
0020
0000
0130
0201
0301
,
1000
0000
0100
0000
0010
0000
0100
0000
0100
0000
1000
0000
0001
0100
0010
1000
,
0001
0010
0100
1000
0001
0010
0100
0010
0001
0100
0010
1000
0001
0100
0010
0100
,
0001
1000
0010
0100
0001
1000
0010
1000
0001
1000
0100
0010
0001
1000
0100
1000
,
0001
0010
0100
1000
0010
1000
0001
0100
0001
0010
0100
1000
0010
1000
0001
0100
,
0010
1000
0001
0010
0100
1000
0001
0100
0010
1000
0001
0010
0100
0000
0000
0000
,
0020
0000
0031
0100
0010
1000
0002
0000
,
1003
0001
0010
0200
0000
0310
0120
0130
,
1000
0001
0100
0020
0000
0130
0210
0310
,
2000
3200
0320
0230
0320
0032
2003
0000
,
3001
1000
0010
0200
0000
0310
0120
0130
,
0001
1000
0100
0020
0000
0130
0210
0310
,
0001
1000
0010
0200
0000
0310
0120
0130
,
0001
0010
0100
0010
0001
1000
0010
0100
,
0002
0000
1003
0010
1000
0010
1000
0010
,
2000
0000
3010
1000
0010
1000
0010
0000
,
0200
0000
0301
0100
0001
0100
0001
0100
,
0002
0000
0103
0001
0100
0010
1000
0000
,
0020
0000
1030
0001
1000
0001
1000
0001
,
0010
0001
0010
0001
0010
0001
2000
0000
,
3001
0100
0020
0000
0130
0001
0020
0000
,
0130
1000
0100
1000
0010
0100
0010
0000
,
0120
0000
0230
0300
0000
0000
0100
0000
0000
0000
0000
0000
0002
0000
2003
3000
,
0000
1000
0000
0000
0010
0100
0001
0010
,
0200
0000
2300
3000
0000
0000
1000
0000
0000
0000
0000
0000
0002
0000
0023
0030
,
0000
0000
0010
0000
0000
0000
0010
0000
0002
0003
1000
0000
0100
0000
0100
0000
,
0020
0000
0032
0003
0000
0000
0001
0000
0000
0000
0001
0000
2000
0000
3020
0030
,
0000
0010
0000
0010
1000
0100
0010
0100
,
2000
0000
3002
0003
0000
0000
0001
0000
0000
0000
0001
0000
0200
0000
0320
0030
,
0000
0010
0000
0010
2000
3001
0100
0100
,
0020
0000
2030
3000
0000
0000
1000
0000
0000
0000
1000
0000
0002
0000
0023
0030
,
0000
0010
0000
0010
0001
0100
0010
0100
,
0002
0000
2003
3000
0000
0000
1000
0000
0000
0000
1000
0000
0200
0000
0320
0030
,
0000
0010
0000
0010
0002
1003
0100
0100
,
0020
0000
0032
0003
0000
0000
0001
0000
0000
0000
0001
0000
2000
0000
3020
0030
,
0000
0010
0000
0010
1000
0100
0010
0100
,
2000
0000
3002
0003
0000
0000
0001
0000
0000
0000
0001
0000
0200
0000
0320
0030
,
0000
MMMM
MMMM
MMMM
MMMM
MMMM
MMMM
0000
,
1002
0000
2003
3000
0000
0000
1000
0000
0010
0000
0100
0000
0002
0000
0023
0030
,
0000
0010
0100
1000
0001
0100
0001
0010
,
0200
0000
2300
3000
0000
0000
1000
0000
0010
0000
0100
0000
0002
0000
0023
0030
,
0000
0010
0100
1000
0002
1003
0100
0100
,
0020
0000
0032
0003
0000
0000
0001
0000
0010
0000
0100
0000
2000
0000
3020
0030
,
0000
0010
0100
0001
1000
0100
1000
0010
,
0200
0000
0302
0003
0000
0000
0001
0000
0010
0000
0100
0000
2000
0000
3020
0030
,
0000
0010
0100
0001
2000
3001
0100
0100
,
0002
0000
2003
3000
0000
0000
1000
0000
0100
0000
0010
0000
0002
0000
0203
0300
,
0000
0100
0010
1000
0001
0010
0001
0100
,
0020
0000
2030
3000
0000
0000
1000
0000
0100
0000
0010
0000
0002
0000
0203
0300
,
0000
0100
0010
1000
0002
1003
0010
0010
,
0200
0000
0302
0003
0000
0000
0001
0000
0100
0000
0010
0000
2000
0000
3200
0300
,
0000
0100
0010
0001
1000
0010
1000
0100
,
0020
0000
0032
0003
0000
0000
0001
0000
0100
0000
0010
0000
2000
0000
3200
0300
,
0000
0100
0010
0001
2000
3001
0010
0010
,
0200
0000
1301
1000
0001
0100
0010
0100
,
0002
0000
0023
0000
0031
0100
0010
1000
,
0200
0000
0320
0000
0130
0010
0100
1000
,
0002
0000
0203
0000
0310
1000
0001
1000
,
0020
0000
1031
0001
1000
0010
0100
0010
,
2000
0000
3200
0000
1300
0010
0100
0001
,
0020
0000
0230
0000
0310
0100
0010
0001
,
2000
0000
3020
0000
0130
0001
0020
0000
,
0230
0000
1301
1000
0001
0100
0010
0100
,
0002
0000
0023
0000
0031
0100
0010
1000
,
0200
0000
0320
0000
0130
0010
0100
1000
,
0002
0000
0203
0000
0310
1000
0001
1000
,
0020
0000
1031
0001
1000
0010
0100
0010
,
2000
0000
3200
0000
1300
0010
0100
0001
,
0020
0000
0230
0000
0310
0100
0010
0001
,
1000
0100
0010
0001
0100
0001
1000
0010
1000
0100
0010
0001
1000
0000
0000
0000
,
0020
0000
1031
0001
1000
0010
0100
0010
,
2000
0000
3200
0000
1300
0010
0100
0001
,
0020
0000
0230
0000
0310
0100
0010
0001
,
2000
0000
3020
0000
0130
0001
1000
0001
,
0200
0000
1301
1000
0001
0100
0010
0100
,
0002
0000
0023
0000
0031
0100
0010
1000
,
0200
0000
0320
0000
0130
0010
0100
1000
,
0002
0000
0203
0000
0310
1000
0200
0000
,
0320
0000
1031
0001
1000
0010
0100
0010
,
2000
0000
3200
0000
1300
0010
0100
0001
,
0020
0000
0230
0000
0310
0100
0010
0001
,
2000
0000
3020
0000
0130
0001
1000
0001
,
0200
0000
1301
1000
0001
0100
0010
0100
,
0002
0000
0023
0000
0031
0100
0010
1000
,
0200
0000
0320
0000
0130
0010
0100
1000
,
0010
1000
0001
0100
0001
0010
0100
1000
0001
0000
0000
0000
0110
0000
0000
0000
,
2002
0000
0000
0000
,
3000
0000
0000
0000
,
0000
0000
0000
0000
,
0000
0000
0003
0000
;

//---------------dance-single - I. Pyles----------------
#NOTES:
     dance-single:
     I. Pyles:
     Hard:
     13:
     1.000,1.000,0.140,0.942,0.942,1747.000,36.000,242.000,27.000,4.000:
0000
0000
0000
0000
,
0000
0000
0000
0000
,
0000
0000
0000
0000
,
1001
0001
0010
0010
0001
1000
0010
0010
,
2000
3020
0230
0320
2030
0000
3002
0000
,
1003
0001
0010
0010
0001
1000
0010
0010
,
2000
3002
0023
0032
2003
0000
0000
0000
,
3001
1000
0100
0100
1000
0001
0100
0100
,
0002
0023
0230
0320
0032
0000
2003
0000
,
3001
1000
0100
0100
1000
0001
0100
0100
,
0001
0010
0100
1000
0010
1000
0001
0100
0001
0010
0100
1000
0001
0000
0000
0000
,
1000
0010
0100
0100
0010
1000
0001
0001
,
2000
3002
0023
0032
2003
0000
3002
0000
,
1003
0010
0100
0100
0010
1000
0001
0001
,
2000
3200
0320
0230
2300
0000
0000
0000
,
3001
0100
0010
0010
0100
0001
1000
1000
,
0002
2003
3020
2030
3002
0000
2003
0000
,
3001
0000
0000
0000
0000
0000
0000
0000
2000
3000
0000
0000
0000
0000
0000
0000
0002
0000
0003
0000
0000
0000
0000
0000
2000
0000
0000
3000
0000
0000
0000
0000
0002
0000
0000
0000
0003
0000
0000
0000
2000
0000
0000
0000
0000
3000
0000
0000
0002
0000
0000
0000
0000
0000
0003
0000
2000
0000
0000
0000
0000
0000
0000
3000
,
0001
0010
0100
1000
0010
1000
0001
0100
0001
0010
0100
1000
0001
0000
0000
0000
,
1000
0100
0010
0100
1000
0001
0010
0100
1000
0001
1000
0001
0100
0010
1000
0001
,
1000
0100
1000
0001
0100
0010
0100
0001
0010
0100
1000
0001
0100
0010
1000
0001
,
1000
0100
0010
0100
1000
0001
0010
0100
1000
0001
1000
0001
0100
0010
1000
0001
,
0010
0100
1000
0001
0100
0010
1000
0001
0010
0100
0010
0001
1000
0010
0100
0010
,
1000
0100
0010
0100
1000
0001
0010
0100
1000
0001
1000
0001
0100
0010
1000
0001
,
0010
0100
0010
0001
0010
0100
0010
0001
1000
0010
1000
0001
1000
0010
1000
0001
,
0100
0010
0100
0001
0100
0010
0100
0001
1000
0100
0010
0100
1000
0100
0010
0100
,
1000
0001
0100
0001
1000
0001
0100
0001
0100
0010
1000
0100
0010
0100
1000
0001
,
1000
0100
0010
0100
1000
0001
0010
0100
1000
0001
1000
0001
0100
0010
1000
0001
,
1000
0100
1000
0001
0100
0010
0100
0001
0010
0100
1000
0001
0100
0010
1000
0001
,
1000
0100
0010
0100
1000
0001
0010
0100
1000
0001
1000
0001
0100
0010
1000
0001
,
0010
0100
1000
0001
0100
0010
1000
0001
0010
0100
0010
0001
1000
0010
0100
0010
,
1000
0100
0010
0100
1000
0001
0010
0100
1000
0001
1000
0001
0100
0010
1000
0001
,
0100
0010
1000
0001
0010
0100
1000
0001
0100
0010
0100
0001
1000
0100
0010
0001
,
1000
0100
0010
0100
1000
0001
0010
0100
1000
0001
1000
0001
0100
0010
1000
0001
,
0010
0100
0100
0100
0000
1000
1001
0000
,
0001
0010
0100
0020
0000
0130
1200
1300
,
0001
0100
0010
0200
0000
0310
1020
1030
,
0001
0010
0100
0020
0000
0130
1200
1300
,
0001
0100
0010
1000
2000
3002
0000
0003
,
1000
0100
0010
0200
0000
0310
0021
0031
,
1000
0010
0100
0020
0000
0130
0201
0301
,
1000
0100
0010
0200
0000
0310
0021
0031
,
1000
0000
0010
0000
0100
0000
0010
0000
0010
0000
1000
0000
0001
0010
0100
1000
,
0001
0100
0010
1000
0001
0100
0010
0100
0001
0010
0100
1000
0001
0010
0100
0010
,
0001
1000
0100
0010
0001
1000
0100
1000
0001
1000
0010
0100
0001
1000
0010
1000
,
0001
0010
0100
1000
0010
1000
0001
0100
0001
0010
0100
1000
0010
1000
0001
0100
,
0010
1000
0001
0010
0100
1000
0001
0100
0010
1000
0001
0010
0100
0000
0000
0000
,
0020
0000
0031
0010
0100
1000
0002
0000
,
1003
0001
0100
0020
0000
0130
0210
0310
,
1000
0001
0010
0200
0000
0310
0120
0130
,
2000
3020
0230
0320
0230
0302
2003
0000
,
3001
1000
0100
0020
0000
0130
0210
0310
,
0001
1000
0010
0200
0000
0310
0120
0130
,
0001
1000
0100
0020
0000
0130
0210
0310
,
0002
0000
0000
0000
1003
0000
1000
0000
0010
0000
0100
0000
0001
0010
0100
1000
,
0001
0100
0010
1000
0001
0100
0010
0100
0001
0010
0100
1000
0001
0010
0100
0010
,
0001
1000
0100
0010
0001
1000
0010
1000
0001
1000
0100
0010
0001
1000
0010
1000
,
0001
0010
0100
1000
0001
0010
0100
0010
0001
0100
0010
1000
0001
0100
0010
0100
,
0001
0010
0100
1000
0010
1000
0001
0100
0001
0010
0100
1000
0010
1000
0001
0100
,
0020
0000
2030
3000
0000
0000
1000
0000
0010
0000
0100
0000
0002
0000
0023
0030
,
0000
0010
0100
1000
0001
0100
0001
0010
,
0200
0000
2300
3000
0000
0000
1000
0000
0010
0000
0100
0000
0002
0000
0023
0030
,
0000
0010
0100
1000
0002
1003
0100
0100
,
0020
0000
0032
0003
0000
0000
0001
0000
0010
0000
0100
0000
2000
0000
3020
0030
,
0000
0010
0100
0001
1000
0100
1000
0010
,
0200
0000
0302
0003
0000
0000
0001
0000
0010
0000
0100
0000
2000
0000
3020
0030
,
0000
0010
0100
0001
2000
3001
0100
0100
,
0020
0000
1000
0000
0000
1030
1001
0001
,
0020
0000
0001
0000
0000
0031
1001
1000
,
0200
0000
1000
0000
0000
1300
1001
1000
,
0020
0000
1000
0000
0000
1030
1001
0001
,
1000
0100
0100
1000
0100
0100
0010
0001
,
1000
0100
0100
1000
0100
0100
0010
0001
,
1000
0010
0010
0100
0002
0000
0103
0002
,
0000
0103
0001
0010
0200
0000
0020
0330
,
M0MM
0000
0000
0000
1000
0001
0100
0010
1000
0001
1000
0001
0010
0100
1000
0001
,
1000
0010
1000
0001
0010
0100
0010
0001
0100
0010
1000
0001
0010
0100
1000
0001
,
1000
0010
0100
0010
1000
0001
0100
0010
1000
0001
1000
0001
0010
0100
1000
0001
,
0100
0010
1000
0001
0010
0100
1000
0001
0100
0010
0100
0001
1000
0100
0010
0100
,
1000
0010
0100
0010
1000
0001
0100
0010
1000
0001
1000
0001
0010
0100
1000
0001
,
0100
0010
0100
0001
0100
0010
0100
0001
1000
0100
1000
0001
1000
0100
1000
0001
,
0010
0100
0010
0001
0010
0100
0010
0001
1000
0010
0100
0010
1000
0010
0100
0010
,
1000
0001
0010
0001
1000
0001
0010
0001
0010
0100
1000
0010
0100
0010
1000
0001
,
1000
0010
0100
0010
1000
0001
0100
0010
1000
0001
1000
0001
0010
0100
1000
0001
,
1000
0010
1000
0001
0010
0100
0010
0001
0100
0010
1000
0001
0010
0100
1000
0001
,
1000
0010
0100
0010
1000
0001
0100
0010
1000
0001
1000
0001
0010
0100
1000
0001
,
0100
0010
1000
0001
0010
0100
1000
0001
0100
0010
0100
0001
1000
0100
0010
0100
,
1000
0010
0100
0010
1000
0001
0100
0010
1000
0001
1000
0001
0010
0100
1000
0001
,
0010
0100
1000
0001
0100
0010
1000
0001
0010
0100
0010
0001
1000
0010
0100
0001
,
1000
0010
0100
0010
1000
0001
0100
0010
1000
0001
1000
0001
0010
0100
1000
0001
,
1000
0100
0010
0001
0100
0001
1000
0010
1000
0100
0010
0001
1000
0000
0000
0000
,
0001
0100
0010
0200
0000
0310
1020
1030
,
0001
0010
0100
0020
0000
0130
1200
1300
,
0001
0100
0010
0200
0000
0310
1020
1030
,
0001
0010
0100
1000
2000
3002
0000
0003
,
1000
0010
0100
0020
0000
0130
0201
0301
,
1000
0100
0010
0200
0000
0310
0021
0031
,
1000
0010
0100
0020
0000
0130
0201
0301
,
1000
0000
0100
0000
0010
0000
0100
0000
0100
0000
1000
0000
0001
0100
0010
1000
,
0001
0010
0100
1000
0001
0010
0100
0010
0001
0100
0010
1000
0001
0100
0010
0100
,
0001
1000
0010
0100
0001
1000
0010
1000
0001
1000
0100
0010
0001
1000
0100
1000
,
0001
0010
0100
1000
0010
1000
0001
0100
0001
0010
0100
1000
0010
1000
0001
0100
,
0010
1000
0001
0010
0100
1000
0001
0100
0010
1000
0001
0010
0100
0000
0000
0000
,
0020
0000
0031
0100
0010
1000
0002
0000
,
1003
0001
0010
0200
0000
0310
0120
0130
,
1000
0001
0100
0020
0000
0130
0210
0310
,
2000
3200
0320
0230
0320
0032
2003
0000
,
3001
1000
0010
0200
0000
0310
0120
0130
,
0001
1000
0100
0020
0000
0130
0210
0310
,
0001
1000
0010
0200
0000
0310
0120
0130
,
0001
0010
0100
0010
0001
1000
0010
0100
,
0002
0000
1003
0010
1000
0010
1000
0010
,
2000
0000
3010
1000
0010
1000
0010
0000
,
0200
0000
0301
0100
0001
0100
0001
0100
,
0002
0000
0103
0001
0100
0010
1000
0000
,
0020
0000
1030
0001
1000
0001
1000
0001
,
0010
0001
0010
0001
0010
0001
2000
0000
,
3001
0100
0020
0000
0130
0001
0020
0000
,
0130
1000
0100
1000
0010
0100
0010
0000
,
0120
0000
0230
0300
0000
0000
0100
0000
0000
0000
0000
0000
0002
0000
2003
3000
,
0000
1000
0000
0000
0010
0100
0001
0010
,
0200
0000
2300
3000
0000
0000
1000
0000
0000
0000
0000
0000
0002
0000
0023
0030
,
0000
0000
0010
0000
0000
0000
0010
0000
0002
0003
1000
0000
0100
0000
0100
0000
,
0020
0000
0032
0003
0000
0000
0001
0000
0000
0000
0001
0000
2000
0000
3020
0030
,
0000
0010
0000
0010
1000
0100
0010
0100
,
2000
0000
3002
0003
0000
0000
0001
0000
0000
0000
0001
0000
0200
0000
0320
0030
,
0000
0010
0000
0010
2000
3001
0100
0100
,
0020
0000
2030
3000
0000
0000
1000
0000
0000
0000
1000
0000
0002
0000
0023
0030
,
0000
0010
0000
0010
0001
0100
0010
0100
,
0002
0000
2003
3000
0000
0000
1000
0000
0000
0000
1000
0000
0200
0000
0320
0030
,
0000
0010
0000
0010
0002
1003
0100
0100
,
0020
0000
0032
0003
0000
0000
0001
0000
0000
0000
0001
0000
2000
0000
3020
0030
,
0000
0010
0000
0010
1000
0100
0010
0100
,
2000
0000
3002
0003
0000
0000
0001
0000
0000
0000
0001
0000
0200
0000
0320
0030
,
0000
MMMM
MMMM
MMMM
MMMM
MMMM
MMMM
0000
,
1002
0000
2003
3000
0000
0000
1000
0000
0010
0000
0100
0000
0002
0000
0023
0030
,
0000
0010
0100
1000
0001
0100
0001
0010
,
0200
0000
2300
3000
0000
0000
1000
0000
0010
0000
0100
0000
0002
0000
0023
0030
,
0000
0010
0100
1000
0002
1003
0100
0100
,
0020
0000
0032
0003
0000
0000
0001
0000
0010
0000
0100
0000
2000
0000
3020
0030
,
0000
0010
0100
0001
1000
0100
1000
0010
,
0200
0000
0302
0003
0000
0000
0001
0000
0010
0000
0100
0000
2000
0000
3020
0030
,
0000
0010
0100
0001
2000
3001
0100
0100
,
0002
0000
2003
3000
0000
0000
1000
0000
0100
0000
0010
0000
0002
0000
0203
0300
,
0000
0100
0010
1000
0001
0010
0001
0100
,
0020
0000
2030
3000
0000
0000
1000
0000
0100
0000
0010
0000
0002
0000
0203
0300
,
0000
0100
0010
1000
0002
1003
0010
0010
,
0200
0000
0302
0003
0000
0000
0001
0000
0100
0000
0010
0000
2000
0000
3200
0300
,
0000
0100
0010
0001
1000
0010
1000
0100
,
0020
0000
0032
0003
0000
0000
0001
0000
0100
0000
0010
0000
2000
0000
3200
0300
,
0000
0100
0010
0001
2000
3001
0010
0010
,
0200
0000
1301
1000
0001
0100
0010
0100
,
0002
0000
0023
0000
0031
0100
0010
1000
,
0200
0000
0320
0000
0130
0010
0100
1000
,
0002
0000
0203
0000
0310
1000
0001
1000
,
0020
0000
1031
0001
1000
0010
0100
0010
,
2000
0000
3200
0000
1300
0010
0100
0001
,
0020
0000
0230
0000
0310
0100
0010
0001
,
2000
0000
3020
0000
0130
0001
0020
0000
,
0230
0000
1301
1000
0001
0100
0010
0100
,
0002
0000
0023
0000
0031
0100
0010
1000
,
0200
0000
0320
0000
0130
0010
0100
1000
,
0002
0000
0203
0000
0310
1000
0001
1000
,
0020
0000
1031
0001
1000
0010
0100
0010
,
2000
0000
3200
0000
1300
0010
0100
0001
,
0020
0000
0230
0000
0310
0100
0010
0001
,
1000
0100
0010
0001
0100
0001
1000
0010
1000
0100
0010
0001
1000
0000
0000
0000
,
0001
1000
0100
0010
0001
1000
0001
1000
0010
0100
0001
1000
0001
0010
0001
1000
,
0010
0100
0010
1000
0100
0010
0001
1000
0010
0100
0001
1000
0001
0010
0100
0010
,
0001
1000
0100
0010
0001
1000
0001
1000
0010
0100
0001
1000
0100
0010
0001
1000
,
0010
0100
0001
1000
0100
0010
0100
1000
0001
0100
0010
0100
0001
0010
0100
0010
,
0001
1000
0100
0010
0001
1000
0001
1000
0010
0100
0001
1000
0100
0010
0100
1000
,
0001
1000
0100
0010
0001
1000
0001
1000
0010
0100
0001
1000
0001
0010
0001
1000
,
0010
0100
0010
1000
0100
0010
0001
1000
0010
0100
0001
1000
0001
0010
0100
0010
,
0001
1000
0100
0010
0001
1000
0001
1000
0010
0100
0001
1000
0100
0010
0001
1000
,
0001
1000
0100
0010
0001
1000
0001
1000
0010
0100
0001
1000
0001
0010
0001
1000
,
0010
0100
0010
1000
0100
0010
0001
1000
0010
0100
0001
1000
0001
0010
0100
0010
,
0001
1000
0100
0010
0001
1000
0001
1000
0010
0100
0001
1000
0100
0010
0001
1000
,
0010
0100
0001
1000
0100
0010
0100
1000
0001
0100
0010
0100
0001
0010
0100
0010
,
0001
1000
0100
0010
0001
1000
0001
1000
0010
0100
0001
1000
0010
0100
0001
1000
,
0100
0010
0001
1000
0010
0100
0010
1000
0001
0010
0100
1000
0001
0010
0100
0010
,
0001
1000
0100
0010
0001
1000
0001
1000
0010
0100
0001
1000
0001
0010
0100
1000
,
0010
1000
0001
0100
0001
0010
0100
1000
0001
0000
0000
0000
0110
0000
0000
0000
,
2002
0000
0000
0000
,
3000
0000
0000
0000
,
0000
0000
0000
0000
,
0000
0000
0003
0000
;

//---------------dance-single - I. Pyles and J. Nero----------------
#NOTES:
     dance-single:
     I. Pyles and J. Nero:
     Challenge:
     14:
     1.000,1.000,0.121,0.700,1.000,2035.000,31.000,180.000,27.000,0.000:

0000
0000
0000
0000
,
0000
0000
0000
0000
,
0000
0000
0000
0000
,
1001
0001
0010
0010
0001
1000
0010
0010
,
2000
3020
0230
0320
2030
0000
3002
0000
,
1003
0001
0010
0010
0001
1000
0010
0010
,
2000
3002
0023
0032
2003
0000
0000
0000
,
3001
1000
0100
0100
1000
0001
0100
0100
,
0002
0023
0230
0320
0032
0000
2003
0000
,
3001
1000
0100
0100
1000
0001
0100
0100
,
0001
0010
0100
1000
0010
1000
0001
0100
0001
0010
0100
1000
0001
0000
0000
0000
,
1000
0010
0100
0100
0010
1000
0001
0001
,
2000
3002
0023
0032
2003
0000
3002
0000
,
1003
0010
0100
0100
0010
1000
0001
0001
,
2000
3200
0320
0230
2300
0000
0000
0000
,
3001
0100
0010
0010
0100
0001
1000
1000
,
0002
2003
3020
2030
3002
0000
2003
0000
,
3001
0000
0000
0000
0000
0000
0000
0000
2000
3000
0000
0000
0000
0000
0000
0000
0002
0000
0003
0000
0000
0000
0000
0000
2000
0000
0000
3000
0000
0000
0000
0000
0002
0000
0000
0000
0003
0000
0000
0000
2000
0000
0000
0000
0000
3000
0000
0000
0002
0000
0000
0000
0000
0000
0003
0000
2000
0000
0000
0000
0000
0000
0000
3000
,
0001
0010
0100
1000
0010
1000
0001
0100
0001
0010
0100
1000
0001
0000
0000
0000
,
1000
0100
0010
0100
1000
0001
0010
0100
1000
0001
1000
0001
0100
0010
1000
0001
,
1000
0100
1000
0001
0100
0010
0100
0001
0010
0100
1000
0001
0100
0010
1000
0001
,
1000
0100
0010
0100
1000
0001
0010
0100
1000
0001
1000
0001
0100
0010
1000
0001
,
0010
0100
1000
0001
0100
0010
1000
0001
0010
0100
0010
0001
1000
0010
0100
0010
,
1000
0100
0010
0100
1000
0001
0010
0100
1000
0001
1000
0001
0100
0010
1000
0001
,
0010
0100
0010
0001
0010
0100
0010
0001
1000
0010
1000
0001
1000
0010
1000
0001
,
0100
0010
0100
0001
0100
0010
0100
0001
1000
0100
0010
0100
1000
0100
0010
0100
,
1000
0001
0100
0001
1000
0001
0100
0001
0100
0010
1000
0100
0010
0100
1000
0001
,
1000
0100
0010
0100
1000
0001
0010
0100
1000
0001
1000
0001
0100
0010
1000
0001
,
1000
0100
1000
0001
0100
0010
0100
0001
0010
0100
1000
0001
0100
0010
1000
0001
,
1000
0100
0010
0100
1000
0001
0010
0100
1000
0001
1000
0001
0100
0010
1000
0001
,
0010
0100
1000
0001
0100
0010
1000
0001
0010
0100
0010
0001
1000
0010
0100
0010
,
1000
0100
0010
0100
1000
0001
0010
0100
1000
0001
1000
0001
0100
0010
1000
0001
,
0100
0010
1000
0001
0010
0100
1000
0001
0100
0010
0100
0001
1000
0100
0010
0001
,
1000
0100
0010
0100
1000
0001
0010
0100
1000
0001
1000
0001
0100
0010
1000
0001
,
0010
0100
0100
0100
0000
1000
1001
0000
,
0001
0010
0100
0020
0000
0130
1200
1300
,
0001
0100
0010
0200
0000
0310
1020
1030
,
0001
0010
0100
0020
0000
0130
1200
1300
,
0001
0100
0010
1000
2000
3002
0000
0003
,
1000
0100
0010
0200
0000
0310
0021
0031
,
1000
0010
0100
0020
0000
0130
0201
0301
,
1000
0100
0010
0200
0000
0310
0021
0031
,
1000
0000
0010
0000
0100
0000
0010
0000
0010
0000
1000
0000
0001
0010
0100
1000
,
0001
0100
0010
1000
0001
0100
0010
0100
0001
0010
0100
1000
0001
0010
0100
0010
,
0001
1000
0100
0010
0001
1000
0100
1000
0001
1000
0010
0100
0001
1000
0010
1000
,
0001
0010
0100
1000
0010
1000
0001
0100
0001
0010
0100
1000
0010
1000
0001
0100
,
0010
1000
0001
0010
0100
1000
0001
0100
0010
1000
0001
0010
0100
0000
0000
0000
,
0020
0000
0031
0010
0100
1000
0002
0000
,
1003
0001
0100
0020
0000
0130
0210
0310
,
1000
0001
0010
0200
0000
0310
0120
0130
,
2000
3020
0230
0320
0230
0302
2003
0000
,
3001
1000
0100
0020
0000
0130
0210
0310
,
0001
1000
0010
0200
0000
0310
0120
0130
,
0001
1000
0100
0020
0000
0130
0210
0310
,
0002
0000
0000
0000
1003
0000
1000
0000
0010
0000
0100
0000
0001
0010
0100
1000
,
0001
0100
0010
1000
0001
0100
0010
0100
0001
0010
0100
1000
0001
0010
0100
0010
,
0001
1000
0100
0010
0001
1000
0010
1000
0001
1000
0100
0010
0001
1000
0010
1000
,
0001
0010
0100
1000
0001
0010
0100
0010
0001
0100
0010
1000
0001
0100
0010
0100
,
0001
0010
0100
1000
0010
1000
0001
0100
0001
0010
0100
1000
0010
1000
0001
0100
,
0020
0000
2030
3000
0000
0000
1000
0000
0010
0000
0100
0000
0002
0000
0023
0030
,
0000
0010
0100
1000
0001
0100
0001
0010
,
0200
0000
2300
3000
0000
0000
1000
0000
0010
0000
0100
0000
0002
0000
0023
0030
,
0000
0010
0100
1000
0002
1003
0100
0100
,
0020
0000
0032
0003
0000
0000
0001
0000
0010
0000
0100
0000
2000
0000
3020
0030
,
0000
0010
0100
0001
1000
0100
1000
0010
,
0200
0000
0302
0003
0000
0000
0001
0000
0010
0000
0100
0000
2000
0000
3020
0030
,
0000
0010
0100
0001
2000
3001
0100
0100
,
0020
0000
1000
0000
0000
1030
1001
0001
,
0020
0000
0001
0000
0000
0031
1001
1000
,
0200
0000
1000
0000
0000
1300
1001
1000
,
0020
0000
1000
0000
0000
1030
1001
0001
,
1000
0100
0100
1000
0100
0100
0010
0001
,
1000
0100
0100
1000
0100
0100
0010
0001
,
1000
0010
0010
0100
0002
0000
0103
0002
,
0000
0103
0001
0010
0200
0000
0020
0330
,
M0MM
0000
0000
0000
1000
0001
0100
0010
1000
0001
1000
0001
0010
0100
1000
0001
,
1000
0010
1000
0001
0010
0100
0010
0001
0100
0010
1000
0001
0010
0100
1000
0001
,
1000
0010
0100
0010
1000
0001
0100
0010
1000
0001
1000
0001
0010
0100
1000
0001
,
0100
0010
1000
0001
0010
0100
1000
0001
0100
0010
0100
0001
1000
0100
0010
0100
,
1000
0010
0100
0010
1000
0001
0100
0010
1000
0001
1000
0001
0010
0100
1000
0001
,
0100
0010
0100
0001
0100
0010
0100
0001
1000
0100
1000
0001
1000
0100
1000
0001
,
0010
0100
0010
0001
0010
0100
0010
0001
1000
0010
0100
0010
1000
0010
0100
0010
,
1000
0001
0010
0001
1000
0001
0010
0001
0010
0100
1000
0010
0100
0010
1000
0001
,
1000
0010
0100
0010
1000
0001
0100
0010
1000
0001
1000
0001
0010
0100
1000
0001
,
1000
0010
1000
0001
0010
0100
0010
0001
0100
0010
1000
0001
0010
0100
1000
0001
,
1000
0010
0100
0010
1000
0001
0100
0010
1000
0001
1000
0001
0010
0100
1000
0001
,
0100
0010
1000
0001
0010
0100
1000
0001
0100
0010
0100
0001
1000
0100
0010
0100
,
1000
0010
0100
0010
1000
0001
0100
0010
1000
0001
1000
0001
0010
0100
1000
0001
,
0010
0100
1000
0001
0100
0010
1000
0001
0010
0100
0010
0001
1000
0010
0100
0001
,
1000
0010
0100
0010
1000
0001
0100
0010
1000
0001
1000
0001
0010
0100
1000
0001
,
1000
0100
0010
0001
0100
0001
1000
0010
1000
0100
0010
0001
1000
0000
0000
0000
,
0001
0100
0010
0200
0000
0310
1020
1030
,
0001
0010
0100
0020
0000
0130
1200
1300
,
0001
0100
0010
0200
0000
0310
1020
1030
,
0001
0010
0100
1000
2000
3002
0000
0003
,
1000
0010
0100
0020
0000
0130
0201
0301
,
1000
0100
0010
0200
0000
0310
0021
0031
,
1000
0010
0100
0020
0000
0130
0201
0301
,
1000
0000
0100
0000
0010
0000
0100
0000
0100
0000
1000
0000
0001
0100
0010
1000
,
0001
0010
0100
1000
0001
0010
0100
0010
0001
0100
0010
1000
0001
0100
0010
0100
,
0001
1000
0010
0100
0001
1000
0010
1000
0001
1000
0100
0010
0001
1000
0100
1000
,
0001
0010
0100
1000
0010
1000
0001
0100
0001
0010
0100
1000
0010
1000
0001
0100
,
0010
1000
0001
0010
0100
1000
0001
0100
0010
1000
0001
0010
0100
0000
0000
0000
,
0020
0000
0031
0100
0010
1000
0002
0000
,
1003
0001
0010
0200
0000
0310
0120
0130
,
1000
0001
0100
0020
0000
0130
0210
0310
,
2000
3200
0320
0230
0320
0032
2003
0000
,
3001
1000
0010
0200
0000
0310
0120
0130
,
0001
1000
0100
0020
0000
0130
0210
0310
,
0001
1000
0010
0200
0000
0310
0120
0130
,
0001
0010
0100
0010
0001
1000
0010
0100
,
0002
0000
1003
0010
1000
0010
1000
0010
,
2000
0000
3010
1000
0010
1000
0010
0000
,
0200
0000
0301
0100
0001
0100
0001
0100
,
0002
0000
0103
0001
0100
0010
1000
0000
,
0020
0000
1030
0001
1000
0001
1000
0001
,
0010
0001
0010
0001
0010
0001
2000
0000
,
3001
0100
0020
0000
0130
0001
0020
0000
,
0130
1000
0100
1000
0010
0100
0010
0000
,
0120
0000
0230
0300
0000
0000
0100
0000
0000
0000
0000
0000
0002
0000
2003
3000
,
0000
1000
0000
0000
0010
0100
0001
0010
,
0200
0000
2300
3000
0000
0000
1000
0000
0000
0000
0000
0000
0002
0000
0023
0030
,
0000
0000
0010
0000
0000
0000
0010
0000
0002
0003
1000
0000
0100
0000
0100
0000
,
0020
0000
0032
0003
0000
0000
0001
0000
0000
0000
0001
0000
2000
0000
3020
0030
,
0000
0010
0000
0010
1000
0100
0010
0100
,
2000
0000
3002
0003
0000
0000
0001
0000
0000
0000
0001
0000
0200
0000
0320
0030
,
0000
0010
0000
0010
2000
3001
0100
0100
,
0020
0000
2030
3000
0000
0000
1000
0000
0000
0000
1000
0000
0002
0000
0023
0030
,
0000
0010
0000
0010
0001
0100
0010
0100
,
0002
0000
2003
3000
0000
0000
1000
0000
0000
0000
1000
0000
0200
0000
0320
0030
,
0000
0010
0000
0010
0002
1003
0100
0100
,
0020
0000
0032
0003
0000
0000
0001
0000
0000
0000
0001
0000
2000
0000
3020
0030
,
0000
0010
0000
0010
1000
0100
0010
0100
,
2000
0000
3002
0003
0000
0000
0001
0000
0000
0000
0001
0000
0200
0000
0320
0030
,
0000
MMMM
MMMM
MMMM
MMMM
MMMM
MMMM
0000
,
1000
0100
0010
0001
1000
0010
0100
0010
0100
0010
1000
0010
1000
0001
0010
0100
,
1000
0010
0100
0010
0100
0010
1000
0010
1000
0001
0100
0010
0100
0001
0010
0100
,
1000
0010
0100
0001
1000
0100
0010
0100
0010
0100
1000
0100
1000
0001
0100
0010
,
1000
0100
0010
0100
0010
0100
1000
0100
1000
0001
0100
0010
0100
0001
1000
0010
,
1000
0100
0010
0001
1000
0010
0100
0010
0100
0010
1000
0010
1000
0001
0010
0100
,
1000
0010
0100
0010
0100
0010
1000
0010
1000
0001
0100
0010
0100
0001
0010
0100
,
1000
0010
0100
0001
1000
0100
0010
0100
0010
0100
1000
0100
1000
0001
0100
0010
,
1000
0100
0010
0100
0010
0100
1000
0100
1000
0001
0100
0010
0100
0001
1000
0010
,
1000
0100
0010
0001
1000
0010
0100
0010
0100
0010
1000
0010
1000
0001
0010
0100
,
1000
0010
0100
0010
0100
0010
1000
0010
1000
0001
0100
0010
0100
0001
0010
0100
,
1000
0010
0100
0001
1000
0100
0010
0100
0010
0100
1000
0100
1000
0001
0100
0010
,
1000
0100
0010
0100
0010
0100
1000
0100
1000
0001
0100
0010
0100
0001
1000
0010
,
1000
0100
0010
0001
1000
0010
0100
0010
0100
0010
1000
0010
1000
0001
0010
0100
,
1000
0010
0100
0010
0100
0010
1000
0010
1000
0001
0100
0010
0100
0001
0010
0100
,
1000
0010
0100
0001
1000
0100
0010
0100
0010
0100
1000
0100
1000
0001
0100
0010
,
1000
0100
0010
0100
0010
0100
1000
0100
1000
0001
0100
0010
0100
0001
1000
0010
,
0200
0000
0000
0000
0301
1000
0100
0010
0001
1000
0001
1000
0010
0100
0001
1000
,
0001
0010
0001
1000
0010
0100
0010
1000
0100
0010
0001
1000
0010
0100
0001
1000
,
0001
0010
0100
0010
0001
1000
0100
0010
0001
1000
0001
1000
0010
0100
0001
1000
,
0100
0010
0001
1000
0010
0100
0001
1000
0100
0010
0100
1000
0001
0100
0010
0100
,
0001
0010
0100
0010
0001
1000
0100
0010
0001
1000
0001
1000
0010
0100
0001
1000
,
0100
0010
0100
1000
0100
0010
0100
1000
0001
0100
0001
1000
0001
0100
0001
1000
,
0010
0100
0010
1000
0010
0100
0010
1000
0001
0010
0100
0010
0001
0010
0100
0010
,
0001
1000
0010
1000
0001
1000
0010
1000
0010
0100
0001
0010
0100
0010
0001
1000
,
0001
0010
0100
0010
0001
1000
0100
0010
0001
1000
0001
1000
0010
0100
0001
1000
,
0001
0010
0001
1000
0010
0100
0010
1000
0100
0010
0001
1000
0010
0100
0001
1000
,
0001
0010
0100
0010
0001
1000
0100
0010
0001
1000
0001
1000
0010
0100
0001
1000
,
0100
0010
0001
1000
0010
0100
0001
1000
0100
0010
0100
1000
0001
0100
0010
0100
,
0001
0010
0100
0010
0001
1000
0100
0010
0001
1000
0001
1000
0010
0100
0001
1000
,
0010
0100
0001
1000
0100
0010
0001
1000
0010
0100
0010
1000
0001
0010
0100
1000
,
0001
0010
0100
0010
0001
1000
0100
0010
0001
1000
0001
1000
0010
0100
0001
1000
,
0001
0010
0100
1000
0010
1000
0001
0100
0001
0010
0100
1000
0001
0000
0000
0000
,
1000
0001
0010
0100
1000
0001
1000
0001
0100
0010
1000
0001
1000
0100
1000
0001
,
0100
0010
0100
0001
0010
0100
1000
0001
0100
0010
1000
0001
1000
0100
0010
0100
,
1000
0001
0010
0100
1000
0001
1000
0001
0100
0010
1000
0001
0010
0100
1000
0001
,
0100
0010
1000
0001
0010
0100
0010
0001
1000
0010
0100
0010
1000
0100
0010
0100
,
1000
0001
0010
0100
1000
0001
1000
0001
0100
0010
1000
0001
0010
0100
0010
0001
,
1000
0001
0010
0100
1000
0001
1000
0001
0100
0010
1000
0001
1000
0100
1000
0001
,
0100
0010
0100
0001
0010
0100
1000
0001
0100
0010
1000
0001
1000
0100
0010
0100
,
1000
0001
0010
0100
1000
0001
1000
0001
0100
0010
1000
0001
0010
0100
1000
0001
,
1000
0001
0010
0100
1000
0001
1000
0001
0100
0010
1000
0001
1000
0100
1000
0001
,
0100
0010
0100
0001
0010
0100
1000
0001
0100
0010
1000
0001
1000
0100
0010
0100
,
1000
0001
0010
0100
1000
0001
1000
0001
0100
0010
1000
0001
0010
0100
1000
0001
,
0100
0010
1000
0001
0010
0100
0010
0001
1000
0010
0100
0010
1000
0100
0010
0100
,
1000
0001
0010
0100
1000
0001
1000
0001
0100
0010
1000
0001
0100
0010
1000
0001
,
0010
0100
1000
0001
0100
0010
0100
0001
1000
0100
0010
0001
1000
0100
0010
0100
,
1000
0001
0010
0100
1000
0001
1000
0001
0100
0010
1000
0001
1000
0100
0010
0001
,
0100
0001
1000
0010
1000
0100
0010
0001
1000
0000
0000
0000
0110
0000
0000
0000
,
2002
0000
0000
0000
,
3000
0000
0000
0000
,
0000
0000
0000
0000
,
0000
0000
0003
0000
;
