#TITLE:Kind Lady;
#SUBTITLE:(Future Trance Mix);
#ARTIST:System S.F;
#TITLETRANSLIT:;
#SUBTITLETRANSLIT:;
#ARTISTTRANSLIT:;
#CREDIT:;
#BANNER:Kind Lady (Future Trance Lady)-bn.png;
#BACKGROUND:Kind Lady (Future Trance Lady)-bg.png;
#LYRICSPATH:;
#CDTITLE:paranoivm.png;
#MUSIC:Kind Lady (Future Trance Mix).mp3;
#OFFSET:-0.240;
#SAMPLESTART:42.194;
#SAMPLELENGTH:12.000;
#SELECTABLE:YES;
#BPMS:0.000=142.000,4.000=71.000,8.000=142.000,200.000=132.000,200.250=122.000,200.500=112.000,200.750=102.000,201.000=92.000,201.250=82.000,201.500=142.000;
#STOPS:136.000=0.020
,201.500=0.619
;
#BGCHANGES:;
// cache tags:
#FIRSTBEAT:4.000;
#LASTBEAT:331.000;
#SONGFILENAME:Songs/juju steps/Kind Lady (Future Trance Lady)/Kind Lady (Future Trance Mix).sm;
#HASMUSIC:1;
#HASBANNER:1;
#MUSICLENGTH:156.551;
// end cache tags

//---------------dance-single - ----------------
#NOTES:
     dance-single:
     :
     Challenge:
     10:
     0.965,0.925,0.645,0.102,1.000,940.000,101.000,16.000,0.000,0.000:
0000
0000
0000
0000
,
1001
0100
0011
1100
0010
1001
0100
1020
,
0030
0000
0100
0010
0010
0000
1000
0001
0000
0001
0010
0000
0001
0100
0010
1000
,
0000
1000
0100
0000
1100
0000
1000
0100
0000
0100
1000
0001
0000
0001
0010
0001
,
0100
0010
1000
0010
0010
0000
0010
0100
0000
0100
0010
0000
0010
0001
0000
0001
,
0000
1000
0100
0010
1000
0000
1000
0001
0000
0001
0010
0000
0010
0100
1000
0100
,
0000
0100
0001
0100
1000
0000
0100
0000
0000
0101
0010
0000
0010
0001
0000
0001
,
0010
0001
0100
0010
1000
0000
1000
0010
0000
0010
0100
0000
0001
1000
0100
1000
,
0100
1000
0100
0000
1000
0000
0001
0010
0000
0010
0001
0000
1001
0000
1000
0000
,
0000
0101
0010
0000
0010
1000
0000
1010
0000
1000
0001
0010
0000
1001
0000
0001
,
0010
0000
1001
0000
0101
0000
0100
0010
0000
1010
0000
0010
0100
0000
0110
0000
,
0100
0010
1000
0001
0000
0010
0001
0000
0021
0000
0031
0000
1001
1000
0000
1001
,
0001
0000
0101
0000
0100
0010
1000
0000
0010
0000
0100
0000
0001
0000
1000
0000
,
0100
1000
0000
1001
0000
0001
0100
0000
0101
0011
0000
0001
1000
0000
1100
0000
,
1000
0100
1000
0000
1001
0000
0001
0000
0100
0001
1000
0100
0010
0000
0001
0000
,
1000
0001
0100
0000
0101
0000
0100
1000
0100
0010
0100
0001
1000
0100
0020
0000
,
0000
0000
0031
0000
0010
0000
1000
0000
1010
0000
0010
0001
0000
0001
0100
0000
,
0100
1000
0100
0010
0000
1001
0000
0100
0001
0020
0001
0000
0030
0000
0001
1000
,
0100
0000
0100
1000
1001
0000
0001
0100
0000
0110
0000
0010
1000
0010
0100
0001
,
0000
0001
1000
0100
1000
1001
0000
0001
0000
0101
0100
0000
0010
0000
1000
0000
,
0010
0100
0000
0100
0001
0000
2001
0000
0000
3001
0000
0000
1001
0000
0001
0100
,
0000
0100
0010
0000
1000
0000
0010
1000
0001
0100
0001
0000
1001
0000
0001
0000
,
0021
0000
0000
0000
0031
0000
0000
0010
0001
0000
0001
1000
0000
1000
0010
0000
,
0010
1000
0000
1000
1001
0000
0001
0000
0100
0001
1000
0100
0010
0000
0001
0010
,
0000
0010
0001
0000
1001
0000
1000
0000
0010
0100
0000
0100
0000
1000
0001
0000
,
0100
0001
0000
0011
0000
0010
0001
1000
0100
0000
1000
0000
1001
0001
0000
1000
,
0000
0010
1000
0000
1010
0000
0010
0000
0100
0010
0100
0000
0100
0010
0000
0010
,
0100
0000
0100
0001
0000
0001
1000
0000
0000
1000
0000
0000
1001
0001
0000
0100
,
0001
0000
0000
0001
0000
0000
1000
0000
0000
0100
1001
0000
1100
0000
0000
0001
,
0000
0000
0010
0000
0021
0000
0001
0000
0000
0000
0031
0000
1001
0000
0000
0101
,
0000
0000
0110
0000
0100
0000
0010
1000
0000
1000
0010
0000
0100
0000
1001
0000
,
0000
0101
0000
0000
0100
0010
0000
1010
0000
0010
0100
0000
0100
0002
1000
0103
,
0000
0001
1000
0020
0001
0000
0000
0000
0031
0000
0000
1001
0000
0000
0000
0001
,
0000
0100
0000
0101
0000
0010
0000
1000
0020
0000
1030
0000
1002
0000
0000
0000
,
0103
1000
0100
0000
0010
0000
1000
0010
0000
1000
0010
0000
1000
0001
0100
0001
,
0000
0001
0010
0000
0011
0000
0001
0010
0000
0001
0010
0000
0001
1000
0100
1000
,
0001
0010
0001
0000
0101
0000
0100
1000
0000
1000
0000
0100
0010
1000
0010
0000
,
0010
0100
0001
0000
0001
1000
0100
0010
0000
0010
0001
0000
0010
1000
0010
0000
,
0001
0100
0010
0000
0011
0000
0010
1000
0000
1000
0010
0000
0100
1000
0001
0010
,
0000
0010
1000
0000
1010
0000
1000
0001
0000
0001
0010
0000
0010
0100
1000
0100
,
0010
0100
0001
0000
0100
0000
0010
0100
0000
1100
0000
0100
1000
0001
0010
0001
,
0000
0001
0010
0000
0011
0001
0100
0010
0000
1010
0010
0000
0110
0010
0000
0010
,
1000
0010
0100
0010
0001
0010
0100
0010
1000
0100
0010
0100
0001
0100
0010
0100
,
1000
0010
0100
0001
0010
0100
1000
0010
0100
0001
0010
0001
0100
0010
1000
0100
,
1000
0010
0100
0010
0110
0000
0010
1000
0000
1000
0001
0000
0011
0000
0001
0010
,
0001
0100
0001
1000
0100
1000
0001
0001
0000
0011
0001
0000
0011
0001
0000
0001
,
1000
0100
1000
0010
0100
0000
0010
0001
0000
0001
1000
0000
1000
0100
0010
1000
,
0000
1000
0100
0000
0010
1000
0001
0010
0000
0010
0001
0000
1001
0000
0100
1000
,
0001
0100
0001
0010
0011
0000
0001
0010
0000
0011
0000
0010
0001
1000
0100
0010
,
0001
0010
0001
0000
0001
0100
0010
0001
0000
0001
1000
0000
1000
0100
0010
1000
,
2002
0000
0000
0000
0000
0000
3003
0000
1000
0000
0010
0000
1001
0000
1000
0100
,
0000
0100
1000
0000
1001
0000
0001
0100
0000
0100
0001
0000
1001
0000
0001
0010
,
0000
0010
0001
0000
1001
0000
1000
0010
0000
0010
1000
0000
1010
0000
1000
0010
,
0000
0010
0001
0000
0011
0000
0001
0010
0000
0010
1000
0000
1010
0000
1000
0100
,
0000
0100
0001
0000
0101
0000
0001
0100
0000
0100
1000
0000
1001
0000
0001
1000
,
0000
1000
0010
0000
0110
0000
0100
1000
0000
1000
0100
0000
0110
0000
0100
0001
,
0000
0001
0010
0000
0011
0000
0010
0001
0000
0001
0010
0000
0010
0001
0000
1001
,
0000
1000
0000
0010
1000
0000
1001
0000
0100
0001
0000
0001
1000
0000
1000
0100
,
0000
0100
1000
0000
0001
0010
0001
0020
0000
0000
0030
0001
1000
0000
1010
0000
,
1000
0010
0000
0010
1000
0000
1001
0000
0001
0000
0000
0100
0001
0000
1001
0000
,
1000
0100
0000
0100
1000
0100
1000
0001
0010
0000
0000
0010
0001
0000
0011
0000
,
0010
0001
0000
0001
0010
0000
0011
0000
0010
0001
0000
0001
1000
0000
1000
0000
,
0010
1000
0001
1000
0100
1000
0001
0010
0001
0000
0001
0010
0000
0010
0001
0000
,
1001
0000
1010
0000
0110
0000
0101
0000
0100
0001
0000
0001
0100
0000
0101
0000
,
0110
0000
1100
0000
0110
0000
0100
0001
0000
0001
1000
0000
1000
0100
0000
0100
,
1000
0100
0010
0001
0000
0001
0010
0001
0000
0001
1000
0100
0010
0001
0000
0001
,
0100
0010
1000
0010
0100
0001
1000
0100
0010
0001
1000
0100
0010
0001
1000
0100
,
0010
0000
0001
0000
1001
0000
1000
0000
0010
1000
0001
0010
0001
1000
0100
1000
,
0010
0100
0001
1000
0100
0010
0001
1000
0100
1000
0010
0100
0001
1000
0001
0010
,
0001
1000
0100
1000
0001
0010
0001
0100
1000
0100
0010
0001
1000
0001
0010
0100
,
0010
1000
0001
0010
0100
1000
0100
0010
0100
0001
0100
0010
0001
0010
0100
0010
,
1000
0010
0001
0010
0001
0100
0010
1000
0010
0100
0010
0001
0010
0100
0010
0010
,
0100
0010
0100
0010
0100
1000
0100
0010
1000
0001
0010
0001
0100
0001
1000
0100
,
1000
0010
0100
0001
0010
0100
1000
0010
1000
0100
1000
0010
1000
0100
1000
0010
,
0100
0001
0010
0001
0100
0010
0001
0010
0100
0010
1000
0001
0010
0001
0100
0001
,
1000
0100
1000
0010
0101
0001
1000
0100
1000
0010
0100
0001
1100
0100
1000
0010
,
0100
0001
0010
0001
0100
0010
0100
1000
0100
0010
0100
0010
1000
0100
0001
0100
,
1000
0100
0001
0100
1000
0100
0010
0001
0010
1000
0010
0001
0100
1000
0100
0010
,
0000
0010
1000
0010
0100
0001
1000
0100
1000
0001
0010
0001
0100
0001
1000
0100
,
1000
0010
0100
0001
0010
0001
0100
0010
1000
0100
0010
0001
0100
0010
1000
0010
,
0100
0010
0001
0010
0100
0001
1000
0100
1000
0100
1000
0001
0010
0001
0100
0001
,
1000
0100
1000
0010
0101
0001
1000
0100
1000
0010
0100
0010
0000
0010
0100
0000
,
0100
0010
0000
0010
1000
0001
0010
0100
2002
0000
0000
0000
3003
0000
0000
0000
;
