#TITLE:Dreadnought;
#SUBTITLE:;
#ARTIST:Paraoka;
#TITLETRANSLIT:;
#SUBTITLETRANSLIT:;
#ARTISTTRANSLIT:;
#CREDIT:;
#BANNER:../Jawn - ban.png;
#BACKGROUND:../Jawn - bg.png;
#LYRICSPATH:;
#CDTITLE:;
#MUSIC:Dreadnought.ogg;
#OFFSET:0.009;
#SAMPLESTART:37.831;
#SAMPLELENGTH:12.000;
#SELECTABLE:YES;
#BPMS:0.000=215.000;
#STOPS:;
#BGCHANGES:;
// cache tags:
#FIRSTBEAT:0.000;
#LASTBEAT:416.000;
#SONGFILENAME:Songs/Jimmy Jawns/Dreadnought - [Aoreo]/Dreadnought.sm;
#HASMUSIC:1;
#HASBANNER:1;
#MUSICLENGTH:119.046;
// end cache tags

//---------------dance-single - J. Nero (warmup)----------------
#NOTES:
     dance-single:
     J. Nero (warmup):
     Challenge:
     15:
     1.000,1.000,0.109,0.395,1.000,1013.000,13.000,47.000,0.000,0.000:
1000
0100
1000
0001
0010
0100
1000
0001
,
0100
0010
0100
0001
1000
0100
0010
0001
,
1000
0010
0100
0000
0001
0010
0100
1000
,
0000
0000
0001
0000
0100
0000
0001
0000
1000
0000
0000
0000
0001
1000
0100
0010
,
0001
1000
0100
1000
0010
0100
0001
0010
,
0100
1000
0001
0000
1000
1000
0001
0000
,
0100
0010
0100
0001
1000
0100
0010
0001
,
1000
0010
0100
0000
0001
0001
1000
0000
,
0100
0010
0001
1000
0010
0100
0010
1000
,
0001
0000
1000
0000
0010
0000
0000
0000
1000
0000
0001
0000
1000
0010
1000
0100
,
0010
0001
1000
0001
0100
0010
0100
0001
,
1000
0000
0100
0000
0010
0001
1000
0010
1000
0010
0100
0001
1000
0100
0010
0001
,
1000
0000
0001
0100
0001
0100
0010
0000
1000
0100
1000
0100
0010
0000
0001
0000
,
1000
0100
0010
0001
0100
0001
1000
0010
0100
0010
1000
0001
0010
0100
1000
0001
,
1000
0100
0010
0100
1000
0000
0010
0100
,
0000
0100
0000
0001
2000
0000
3000
0000
,
0001
0001
1000
0100
0020
0030
0100
1000
,
0000
0000
1100
0100
1000
0010
0100
0001
,
0100
0100
0001
0010
0100
0000
1000
0001
,
0000
1000
0010
1000
0100
0010
0001
0000
,
1000
0001
0101
0000
0100
0010
1010
0000
,
1000
0100
1000
0001
0010
0000
0220
0330
,
0100
1000
0010
0100
0010
1000
0100
0010
,
0100
0000
1000
0000
0010
0000
0100
0000
0001
1000
0001
0010
0100
1000
0001
1000
,
0010
0100
0001
1000
0100
0010
0100
1000
,
0001
0000
1001
0000
1100
0100
1000
0001
,
0100
0010
0100
0001
1000
0100
0010
0001
,
1000
0000
0001
0000
0100
0000
0001
0000
0010
0000
0100
0000
1000
0000
0010
0100
,
0010
1000
0010
0100
0010
1000
0100
0010
,
0001
0000
0100
0000
0001
0000
1000
0000
0001
0100
0001
1000
0100
0010
0001
1000
,
0010
0100
0000
0000
0001
1000
0000
0000
,
0001
0000
0100
0000
0000
0000
0000
0000
0010
0000
1000
0000
0001
0100
0001
1000
,
0100
0010
0100
1000
0001
0100
0010
0100
,
0001
0000
1000
0000
0100
0000
0010
0000
0001
1000
0001
0010
0100
1000
0001
0100
,
0010
1000
0000
0000
0001
1000
0000
0000
,
0100
0000
0010
0000
0000
0000
0000
0000
0001
0000
1000
0000
0001
0010
0100
1000
,
0001
0100
0010
0100
0001
1000
0100
0010
,
0001
1000
0100
0010
0001
1000
0010
0100
0010
1000
0001
0010
0100
1000
0001
0100
,
0001
1000
0100
0010
0100
1000
0010
0100
,
0010
0000
1000
0000
0100
0000
0010
0000
0001
1000
0001
0010
0100
1000
0001
0000
,
1000
0100
0010
0100
1000
0001
0100
0010
,
0100
0000
0001
0000
1000
0000
0001
0000
0010
0100
1000
0001
1000
0010
0100
0000
,
0001
0000
1000
0000
0100
0000
0010
0000
0100
1000
0001
0100
0001
0000
1000
0000
,
0001
0000
0100
0000
0010
0000
0100
0000
0001
0000
1000
0000
0100
0010
0001
1000
,
0001
0100
0010
0100
0001
1000
0100
1000
0001
0100
0001
1000
0010
0100
0010
1000
,
0001
1000
0100
0010
0001
1000
0100
1000
0001
0100
0010
0100
0001
1000
0001
0010
,
0100
1000
0001
0100
0001
1000
0010
0100
0010
1000
0001
1000
0100
0010
0001
1000
,
0001
0100
0001
1000
0010
0100
0010
1000
0001
0100
0001
0100
0010
1000
0001
1000
,
0100
0010
0001
1000
0100
1000
0001
0010
0100
0010
0001
1000
0001
0100
0010
0100
,
0001
1000
0001
0100
0010
0100
0001
1000
0100
1000
0001
1000
0010
0100
0010
1000
,
0001
0010
0001
1000
0100
1000
0100
0010
0001
1000
0100
1000
0001
0100
0001
1000
,
0010
1000
0001
1000
0010
0100
0010
1000
0001
0100
0001
1000
0100
0010
0001
1000
,
0100
1000
0001
0100
0001
0100
0010
1000
0001
0100
0001
1000
0010
0100
0010
1000
,
0001
0000
0100
0000
0001
0000
0020
0000
0000
0000
0130
0000
1000
0001
1000
0010
,
0100
0001
1000
0001
0010
0100
1000
0001
1000
0010
0100
0010
1000
0001
0100
0001
,
0100
0010
1000
0001
1000
0100
1000
0001
0010
0001
1000
0100
0010
0001
1000
0100
,
0010
0100
1000
0001
1000
0010
0100
0010
1000
0001
0100
0001
1000
0010
1000
0001
,
0200
0300
0202
0303
2002
3003
2020
3030
,
0010
1000
0010
0100
0001
1000
0001
0010
0100
1000
0001
0100
0001
1000
0100
0010
,
0001
1000
0001
0100
0010
0100
0001
1000
0001
0010
0100
1000
0001
0100
0001
1000
,
0001
0100
0010
0100
0001
0100
0010
1000
,
0001
0100
0001
0010
0001
0100
0001
1000
,
0100
0010
0001
1000
0001
0100
0010
1000
0001
1000
0100
0010
0001
1000
0010
0100
,
0001
1000
0001
0000
0000
0000
0000
0000
,
1000
0000
0001
0100
0001
0000
1000
0100
,
0000
0100
0000
0010
0001
1000
0010
0100
,
0010
0000
1000
0000
0001
0000
0000
0000
1000
0100
0010
0001
1000
0000
0001
0000
,
0100
0000
0010
0000
0200
0000
0300
0000
0000
0000
0202
0000
0303
0000
0001
1000
,
0100
0000
0010
0100
1000
0001
0100
0010
,
0000
0010
0000
1000
0001
1000
0100
0010
,
0001
0000
1000
0000
0001
0000
0000
0000
1000
0100
1000
0001
0100
0000
0010
0000
,
1000
0000
0001
0000
0020
0000
0030
0000
0000
0000
0220
0000
0330
0000
0100
1000
,
0001
0100
0010
1000
0001
0100
0001
1000
,
0000
1000
0000
0001
0100
0001
0010
0100
,
1000
0000
0010
0000
0100
0000
0000
0000
0001
0100
0001
1000
0100
0000
0010
0000
,
0001
0000
1000
0000
0020
0000
0030
0000
0000
0000
2020
0000
3030
0000
1000
0001
,
0100
0001
0010
0100
1000
0001
0100
0010
,
0100
0000
0001
0000
1000
0010
1000
0001
0010
0000
0100
0000
1000
0000
0001
0000
,
0200
0300
0001
2000
3000
0200
0320
0032
,
0003
0000
0000
0000
2000
0000
3001
0100
0001
1000
0100
0010
0001
1000
0001
0100
,
0010
1000
0001
1000
0100
0010
0100
1000
,
0001
0000
0100
0000
0010
0000
0100
0000
0001
1000
0001
0010
0100
1000
0001
0100
,
0010
1000
0010
0100
0001
1000
0100
0010
,
0001
0000
1000
0000
0010
0000
0100
0000
0001
0000
1000
0100
0010
0000
0001
0000
,
1000
0010
0100
0010
1000
0100
1000
0001
,
0010
0100
1000
0001
0100
0001
0010
0100
,
1000
0001
1000
0010
0100
0010
1000
0001
,
0100
0001
1000
0010
0100
0001
1000
0001
1000
0100
1000
0001
0010
0100
1000
0001
,
1000
0010
0100
0010
1000
0001
0100
0001
0100
0010
1000
0001
1000
0100
1000
0001
,
0100
0001
1000
0010
0100
0010
1000
0001
0100
0001
1000
0001
0100
0010
0100
0001
,
1000
0001
0010
0100
1000
0001
1000
0010
0100
0010
1000
0001
1000
0100
0010
0001
,
1000
0100
1000
0001
1000
0010
0100
0010
1000
0001
0100
0001
0100
0010
1000
0010
,
0100
0001
1000
0001
1000
0010
0100
0001
1000
0001
0010
0100
1000
0001
1000
0010
,
0100
0010
1000
0001
0100
0001
1000
0001
0100
0010
0100
0001
1000
0100
0010
0001
,
1000
0000
0001
0100
0001
1000
0100
0000
0000
0000
0010
0000
0000
0000
0001
0000
,
0000
0000
1000
0000
0010
0000
0000
0000
1000
0000
0001
0100
0001
1000
0100
0010
,
0002
2003
3010
0100
0010
1000
0001
0010
,
0200
2300
3010
0100
0010
1000
0100
0010
,
0002
2003
3010
0100
0010
1000
0001
0100
,
0000
0000
0001
0000
1000
0000
0001
0000
0100
0000
0001
0000
0010
0100
1000
0001
,
0200
0320
1030
0100
0010
0100
1000
0001
,
0200
0000
0302
0000
0013
0000
0100
0000
1000
0000
0001
0100
0001
1000
0100
0010
,
0002
0003
0000
0000
0020
0030
0000
0000
0200
0300
0000
0000
2000
3000
0000
0000
,
0002
0003
0200
0300
0020
0030
2000
3000
0000
0000
0000
0000
2002
0000
0000
0000
,
3003
0000
0000
0000
;
