#TITLE:Era;
#SUBTITLE:(Big Beat 2nd style mix);
#ARTIST:TaQ (Remixed by NVLM_ZK);
#TITLETRANSLIT:;
#SUBTITLETRANSLIT:;
#ARTISTTRANSLIT:;
#CREDIT:;
#BANNER:Era (Big Beat 2nd style mix).png;
#BACKGROUND:Era (Big Beat 2nd style mix)-bg.png;
#LYRICSPATH:;
#CDTITLE:NVLM-cdtitle.png;
#MUSIC:Era (Big Beat 2nd style mix).mp3;
#OFFSET:-2.216;
#SAMPLESTART:18.180;
#SAMPLELENGTH:12.000;
#SELECTABLE:YES;
#BPMS:0.000=126.300;
#STOPS:;
#BGCHANGES:;
// cache tags:
#FIRSTBEAT:0.000;
#LASTBEAT:199.500;
#SONGFILENAME:Songs/toune 8/Era (Big Beat 2nd style mix)/Era (Big Beat 2nd style mix).sm;
#HASMUSIC:1;
#HASBANNER:1;
#MUSICLENGTH:97.384;
// end cache tags

//---------------dance-single - ----------------
#NOTES:
     dance-single:
     :
     Hard:
     9:
     0.628,0.666,0.380,0.154,0.565,376.000,37.000,15.000,0.000,0.000:  // measure 1
1000
0100
0000
1000
0100
0000
0010
0000
0000
0000
0001
0000
0010
0000
0100
0000
,  // measure 2
1000
0010
0000
1000
0010
0000
0100
0000
0000
0000
0001
0000
0010
0000
0100
0000
,  // measure 3
1000
0010
0000
1000
0010
0000
0100
0000
0000
0000
0001
0000
0010
0000
0100
0000
,  // measure 4
1000
0220
0000
0000
0000
0000
0000
0000
,  // measure 5
0330
0000
0000
0000
0001
1000
0000
0001
1000
0000
0100
0000
0000
0000
0010
0000
,  // measure 6
0001
0000
0100
0000
0010
1000
0000
0010
1000
0000
0100
0000
0000
0000
0010
0000
,  // measure 7
0001
0000
1000
0000
0010
0100
0000
0010
0100
0000
0001
0000
0000
0000
0010
0000
,  // measure 8
0100
1000
0010
0220
0000
0000
0000
0000
,  // measure 9
0000
0330
0000
1001
0000
0101
0000
0010
,  // measure 10
1000
0100
0000
2000
0000
0100
0000
0010
,  // measure 11
0010
3010
0010
0000
0110
0000
0101
0000
,  // measure 12
1001
0000
0100
0000
0010
1000
1001
0000
,  // measure 13
0100
0010
1000
0100
0010
0001
1001
0000
,  // measure 14
0010
0100
0001
0010
0100
1000
1010
0000
,  // measure 15
0010
0100
0101
0000
1000
0010
0110
0000
,  // measure 16
0001
0001
0011
0000
2002
0000
0000
0000
,  // measure 17
0000
0000
0000
0000
3003
0000
0000
0000
0100
0010
0000
0010
0001
0000
0000
0000
,  // measure 18
1000
0000
0010
0000
0100
0000
0001
0000
0010
0100
0000
0100
1000
0000
0000
0000
,  // measure 19
0010
0000
0100
0000
0001
0000
1000
0000
0100
0010
0000
0100
0010
0000
0000
0000
,  // measure 20
0001
0000
0100
0000
1000
0000
0100
0000
0010
1000
0000
1000
0001
0100
0000
0100
,  // measure 21
0010
1000
0000
0010
1000
0010
0000
0001
0200
0000
0000
0000
0001
0000
0000
0000
,  // measure 22
1300
0010
1010
0000
0002
0000
0100
0000
,  // measure 23
0013
1000
1100
0000
2000
0000
0001
0000
,  // measure 24
3010
0100
1100
0000
0020
0000
0001
0000
,  // measure 25
1030
0000
0100
0000
0110
0000
0000
0000
0001
0000
0000
0001
1000
0000
0000
1000
,  // measure 26
0100
0000
0000
0100
0010
0000
0000
0010
0001
0000
0000
0001
0100
0000
0000
0100
,  // measure 27
1000
0000
0000
1000
0100
0000
0000
0100
0010
0000
0000
0010
1000
0000
0000
1000
,  // measure 28
0001
0000
0000
0001
0010
0000
0000
0010
0100
0000
1000
0100
0000
0100
0001
0000
,  // measure 29
0001
0100
0000
0100
1000
0000
1000
0100
0000
0000
0000
0000
0001
0000
0000
0001
,  // measure 30
1000
0000
0000
1000
0010
0000
0000
0010
0001
0000
0000
0001
0010
0000
0000
0010
,  // measure 31
0100
0000
0000
0100
1000
0000
0000
1000
0010
0000
0000
0010
0100
0000
0000
0100
,  // measure 32
0001
0000
0000
0001
1000
0000
0000
1000
0100
0000
0000
0100
0010
0001
0000
0001
,  // measure 33
0100
0001
0000
0001
1000
0001
0000
0010
0100
1000
0000
1100
0000
0000
0001
0010
,  // measure 34
0001
0010
0001
0000
0100
0000
0010
1000
0000
0000
1100
0000
0000
0000
0100
0010
,  // measure 35
0100
0010
0100
0000
1000
0000
0001
0100
0000
0000
0110
0000
0000
0000
1000
0100
,  // measure 36
1000
0100
1000
0000
0001
0000
0010
0100
0000
0000
1100
0000
0000
0000
1000
0000
,  // measure 37
1000
0000
0100
0000
0001
0000
0100
0000
1000
0000
1010
0000
0000
0000
0001
0100
,  // measure 38
0001
0100
0010
0000
1000
0000
0100
0010
0000
0000
0011
0000
0000
0000
0100
1000
,  // measure 39
0100
1000
0001
0000
1000
0000
0100
0010
0000
0000
1010
0000
0000
0000
0001
0100
,  // measure 40
0001
1000
0100
0000
0010
0000
0001
0100
0000
0000
1100
0000
0000
0000
1000
0001
,  // measure 41
1000
0001
1000
0001
1000
0000
0220
0000
0000
0000
0000
0000
0330
0000
1000
0100
,  // measure 42
1000
0100
1000
0000
0001
0000
0010
0100
0010
0100
1000
0000
0100
0000
0010
0001
,  // measure 43
0010
0001
1000
0000
0001
0000
0100
0010
0100
0010
1000
0000
1000
0000
0001
0010
,  // measure 44
0001
0010
0100
0000
1000
0000
0010
0100
0010
0100
0001
0000
1000
0000
1100
0000
,  // measure 45
0000
0000
1001
0000
0000
0000
0011
0000
0000
0000
0110
0000
0000
0000
1000
0100
,  // measure 46
1000
0100
1000
0000
0001
0000
0010
0100
0010
0100
1000
0000
0001
0000
0100
0010
,  // measure 47
0100
0010
1000
0000
0010
0000
0100
1000
0100
1000
0001
0000
1000
0000
0100
0010
,  // measure 48
0100
0010
0001
0000
0010
1000
0010
1000
0100
0000
1000
0000
0001
0100
0001
0100
,  // measure 49
0010
1010
1001
1100
0000
0011
0101
2002
,  // measure 50
0000
0000
0000
0000
0000
0000
0000
3003
;

//---------------dance-single - ----------------
#NOTES:
     dance-single:
     :
     Easy:
     4:
     0.271,0.307,0.164,0.329,0.000,137.000,16.000,32.000,0.000,0.000:  // measure 1
2000
3000
0001
0001
,  // measure 2
0020
0030
0100
0100
,  // measure 3
2000
3000
0001
0010
,  // measure 4
0000
0220
0000
0000
0000
0000
0000
0000
,  // measure 5
0330
0002
0003
0010
,  // measure 6
0100
2000
3000
0010
,  // measure 7
0100
0002
0003
0010
,  // measure 8
0100
0000
0000
2002
0000
0000
0000
0000
,  // measure 9
0000
3003
0000
0020
0000
0000
0000
0000
,  // measure 10
0000
0000
0200
0030
0000
0000
0000
0000
,  // measure 11
0000
2300
0000
0000
,  // measure 12
0000
3100
0010
0001
,  // measure 13
0100
0000
0010
0001
,  // measure 14
1000
0001
0010
0100
,  // measure 15
1000
1000
1000
0100
,  // measure 16
0010
0001
2002
0000
,  // measure 17
0000
3003
0200
0300
,  // measure 18
1000
0100
0020
0030
,  // measure 19
0001
0010
0200
0300
,  // measure 20
1000
0100
0020
0000
,  // measure 21
0000
0000
0230
0000
,  // measure 22
0300
0000
0002
0000
,  // measure 23
0003
0000
2000
0000
,  // measure 24
3000
0000
0020
0000
,  // measure 25
0030
0000
0002
0000
,  // measure 26
0003
0000
0100
0010
,  // measure 27
1000
1000
0001
0100
,  // measure 28
0001
0000
0100
0000
0000
2002
0000
0000
,  // measure 29
0000
0000
3003
0010
,  // measure 30
0100
0010
0100
0001
,  // measure 31
0010
0001
0010
0100
,  // measure 32
1000
0100
1000
0020
,  // measure 33
0000
0000
0000
0000
0000
0000
0030
0001
,  // measure 34
0000
0001
0000
0010
0000
1100
0000
1000
,  // measure 35
0000
0100
0000
0010
0000
0011
0000
0001
,  // measure 36
0000
1000
0000
0010
0000
0110
0000
1000
,  // measure 37
0000
0100
0000
0010
0000
1001
0000
0001
,  // measure 38
0000
0100
0000
1000
0000
1001
0000
0010
,  // measure 39
0000
0010
0000
0100
0000
1001
0000
0001
,  // measure 40
0000
0010
0100
1000
0000
1010
0000
2002
,  // measure 41
0000
0000
0000
0000
0000
0000
3003
0010
,  // measure 42
0000
0010
0000
0100
0000
0100
0000
0001
,  // measure 43
0000
0001
0000
1000
0000
1000
0000
0100
,  // measure 44
0000
0100
0000
0010
0000
0010
0000
0002
,  // measure 45
0000
0000
0000
0000
0000
0000
0003
0010
,  // measure 46
0000
0010
0000
0100
0000
0100
0000
1000
,  // measure 47
0000
1000
0000
0010
0000
0010
0000
0100
,  // measure 48
0000
0100
0000
0001
0000
0001
0000
0100
,  // measure 49
0000
1010
0000
1100
0000
0011
0000
2002
,  // measure 50
0000
0000
0000
0000
0000
0000
0000
3003
;

//---------------dance-single - ----------------
#NOTES:
     dance-single:
     :
     Challenge:
     11:
     1.000,1.000,1.000,0.072,1.000,655.000,178.000,7.000,0.000,0.000:  // measure 1
1010
0100
0001
1000
0100
0010
0110
0000
0000
1000
0001
0100
0010
0001
0100
0001
,  // measure 2
1000
0010
0100
1000
0010
1000
1100
0000
0000
0100
0001
1000
0010
0001
0100
0100
,  // measure 3
1000
0010
0001
1000
0010
0001
0101
0000
0000
1000
0001
0100
0010
0001
0100
0010
,  // measure 4
1000
0000
0001
0000
0100
0010
0100
0000
0001
0000
0010
0000
0100
0000
1000
0000
0001
0000
0100
0000
0010
1000
0010
0000
1000
0000
0100
0000
0010
0000
0001
0000
,  // measure 5
0100
0110
0110
0000
0001
1000
0100
0001
1000
0010
0110
0000
0000
0100
0010
1000
,  // measure 6
0001
0010
0100
0001
0010
1000
0100
0010
1000
0001
0101
0000
0000
1000
0010
0100
,  // measure 7
0001
0001
1000
0100
0010
0100
1000
0010
0100
0010
1001
0000
0000
0100
0010
0001
,  // measure 8
0100
0010
1000
0100
0010
0001
0101
0000
1001
1001
1001
0000
1100
0000
1100
0010
,  // measure 9
0100
0010
0100
0010
0100
0010
1001
0001
0011
0001
0101
0000
0000
0100
0010
0001
,  // measure 10
1000
0010
0100
1000
0001
0100
2010
0000
0010
0000
0100
0000
0100
0000
0010
0001
,  // measure 11
0010
0100
3010
0100
0010
0000
1000
0100
0110
0000
1001
0000
0101
0000
0110
0000
,  // measure 12
1001
0100
0010
1000
0100
1000
0001
0100
0010
0001
1000
0010
1001
1001
1001
0000
,  // measure 13
1100
0000
0010
0000
1000
0001
0100
0010
0011
0000
0101
0000
1001
0000
1100
0000
,  // measure 14
1010
0110
0101
0011
0110
1100
1010
0101
,  // measure 15
0011
0110
0101
1100
1010
0011
0110
1100
,  // measure 16
1001
0000
0101
0000
0011
0000
0110
0000
1100
0010
0001
1100
0010
0001
1100
0010
,  // measure 17
0001
1100
0010
0001
1100
0010
0001
1100
1100
0010
1000
0010
0101
0000
1000
0001
,  // measure 18
1000
0100
0010
0001
0100
1000
0001
0010
0010
0100
1000
0001
1001
0000
0000
0100
,  // measure 19
0010
1000
0100
0010
0001
0100
1000
0100
0010
0010
0001
0100
1010
0000
0000
1000
,  // measure 20
0001
0010
0100
0001
1000
0010
0100
0001
0110
0110
1000
0100
0011
0011
0100
1000
,  // measure 21
1001
0001
0100
0010
1100
1100
0010
0001
0201
1000
0001
0000
0001
0000
1000
0000
,  // measure 22
1300
0000
1010
0000
1010
1010
0000
0000
0102
1000
0100
0000
0100
0000
0010
0000
,  // measure 23
0013
0000
1000
0000
1100
1100
0000
0000
2001
0100
0001
0000
0001
0000
0010
0000
,  // measure 24
3010
0000
0100
0000
1100
1100
0000
0000
0120
1000
0100
0000
0001
0000
1000
0000
,  // measure 25
1030
0000
0100
0001
0110
0000
0101
0000
1001
1001
0010
0100
1000
0100
0001
0010
,  // measure 26
1000
0010
0100
0001
1000
0100
0001
0100
0010
1000
0100
0010
0010
0001
0001
0100
,  // measure 27
1000
0010
0100
0001
0010
1000
0010
0100
0001
1000
0100
0010
1000
0001
0010
0100
,  // measure 28
1000
0010
0100
0001
0001
1000
0100
0001
0010
0100
1000
0000
1100
1100
0001
0010
,  // measure 29
0101
0101
0010
1100
1100
0000
1000
0100
0010
1001
0000
0000
1001
0100
0010
1000
,  // measure 30
0001
0010
0100
0001
0100
1000
0010
0100
0001
1000
0100
0010
1000
0001
0010
0100
,  // measure 31
1000
0010
0100
0001
1000
0100
0010
0100
0001
0010
1000
0010
0100
0001
1000
0100
,  // measure 32
0010
1000
0001
0010
0100
1000
0010
0100
0001
1000
0100
0010
0011
0011
0100
1000
,  // measure 33
0110
0110
0001
1000
1100
0001
0100
0010
1100
0001
1100
1100
1100
0000
0001
0010
,  // measure 34
0100
0010
1001
0000
0100
0000
0010
1000
0100
1000
1100
0000
1001
0000
0100
0010
,  // measure 35
1000
0010
0110
0000
1000
0000
0001
0100
0010
1000
0110
0000
0101
0000
1000
0100
,  // measure 36
0010
0100
1100
0000
0001
0000
0010
0100
0010
1000
1100
0000
0101
0000
1010
0000
,  // measure 37
1100
0000
0110
0000
0011
0000
0100
0010
1000
0001
1010
1010
1010
0000
1001
0100
,  // measure 38
0001
0100
0110
0000
1000
0000
0100
0010
0100
0001
0011
0000
0110
0000
1000
1000
,  // measure 39
0100
1000
0011
0000
1000
0000
0100
0010
0001
1000
1010
0000
0110
0000
0001
0100
,  // measure 40
0001
1000
1100
0000
0010
0000
0001
0100
0001
1000
1100
0000
0110
0000
1001
0001
,  // measure 41
0010
0001
0100
0001
1001
0000
0110
0000
0000
0101
0000
0000
1001
0000
1100
0010
,  // measure 42
0001
1100
0010
0001
0100
0010
1000
1001
0010
0100
1000
0010
0101
0001
1000
0100
,  // measure 43
0010
0001
1001
0010
0100
1000
1010
0100
0001
1000
1100
0010
0001
0100
1000
0010
,  // measure 44
0100
0001
1001
0100
0010
0001
1100
1000
0010
0100
0101
0010
1000
0100
1100
1100
,  // measure 45
1100
0000
1001
1001
1001
0000
0011
0011
0011
0000
0110
0110
0110
0000
1001
0100
,  // measure 46
0010
0100
1001
0010
0100
0010
1001
0100
0010
0100
1001
0010
0100
0010
1001
1000
,  // measure 47
0100
0010
0001
0100
1000
0010
0110
0100
0001
1000
0100
0001
0100
1000
0010
0100
,  // measure 48
0001
1000
1100
0010
0001
0100
0110
1000
0001
0010
1100
1000
0010
0100
0001
1000
,  // measure 49
1100
1100
1100
1100
1100
1100
1100
1100
0011
0011
0011
0011
0011
0011
2002
0000
,  // measure 50
0000
0000
0000
0000
0000
0000
0000
3003
;

//---------------dance-single - ----------------
#NOTES:
     dance-single:
     :
     Medium:
     7:
     0.434,0.435,0.380,0.175,0.021,242.000,37.000,17.000,0.000,0.000:  // measure 1
1000
0100
0020
0031
,  // measure 2
0100
1000
0020
0130
,  // measure 3
0001
1000
0200
0310
,  // measure 4
0001
2002
0000
0000
0000
0000
0000
0000
,  // measure 5
3003
0000
0010
0000
0100
0100
0000
0010
,  // measure 6
0001
0000
0100
0000
0010
0100
0000
0001
,  // measure 7
0100
0000
1000
0000
0100
0100
0000
0010
,  // measure 8
0010
0000
0001
2002
0000
0000
0000
0000
,  // measure 9
0000
3003
0000
0010
0000
1001
0000
0010
,  // measure 10
0000
1100
0000
0001
0000
0110
0000
0010
,  // measure 11
1000
1010
0001
0101
,  // measure 12
1000
1100
0100
0110
,  // measure 13
0010
0011
0001
0101
,  // measure 14
0100
0110
0010
1010
,  // measure 15
1000
1001
0001
0101
,  // measure 16
0100
0110
2002
0000
,  // measure 17
0000
3003
0100
0010
,  // measure 18
0001
0101
1000
0010
,  // measure 19
0100
0101
1000
0010
,  // measure 20
0100
0000
0001
0000
1000
0100
0010
0001
,  // measure 21
0100
0010
1000
0001
0200
0000
0010
0000
,  // measure 22
0300
0010
0002
0100
,  // measure 23
0003
0100
2000
0010
,  // measure 24
3000
0010
0002
0100
,  // measure 25
0003
0000
0100
0000
1000
0100
0010
0001
,  // measure 26
0010
0100
1000
0000
0010
0100
0001
1000
,  // measure 27
0010
0100
0001
0000
1000
0100
0010
0001
,  // measure 28
1000
0100
0010
0000
0001
1001
0000
1100
,  // measure 29
0000
0110
0000
0011
0000
0000
1000
0100
,  // measure 30
0001
0100
1000
0010
0100
0000
0001
0010
,  // measure 31
0100
1000
0010
0100
0001
0000
1000
0100
,  // measure 32
1000
0001
0100
0010
0010
0000
0001
0100
,  // measure 33
1000
0000
0100
0000
0010
0000
0000
0000
1100
0000
0000
1100
0000
0000
0001
0000
,  // measure 34
0010
0100
1000
1000
0000
0010
0000
0100
,  // measure 35
0001
1000
0100
0100
0000
0010
0000
0001
,  // measure 36
0010
0100
1000
0010
0000
0100
0000
1001
,  // measure 37
0000
0101
0000
0010
1000
1010
0000
0001
,  // measure 38
0010
0100
1000
1000
0000
0001
0000
0100
,  // measure 39
0001
0100
1000
1000
0000
0010
0000
0100
,  // measure 40
0001
0000
0010
0000
0100
0000
1000
0000
0000
0000
0010
0000
0000
0000
1000
0001
,  // measure 41
1000
0001
1000
0001
1000
0000
2002
0000
0000
0000
3003
0000
0000
0000
1000
0000
,  // measure 42
1000
1000
0000
0100
0100
0100
0000
0010
,  // measure 43
0010
0010
0000
0001
0001
0100
0000
1000
,  // measure 44
1000
0100
0000
0010
0010
0001
0000
1100
,  // measure 45
0000
1001
0000
0011
0000
0110
0000
1000
,  // measure 46
1000
0001
0000
0010
0010
0100
0000
1000
,  // measure 47
1000
0010
0000
0100
0100
0001
0000
0010
,  // measure 48
0010
0100
0000
1000
1000
0010
0000
0100
,  // measure 49
0001
1001
0000
1100
0000
0110
0000
0022
,  // measure 50
0000
0000
0000
0000
0000
0000
0000
0033
;

//---------------dance-double - ----------------
#NOTES:
     dance-double:
     :
     Hard:
     8:
     0.491,0.435,0.411,0.185,0.000,277.000,40.000,18.000,0.000,0.000:  // measure 1
10000000
01000000
00100000
00010000
00001000
00000100
00000010
00000000
,  // measure 2
00000001
00000010
00000100
00001000
00010000
00100000
01000000
00000000
,  // measure 3
10000000
01000000
00100000
00010000
00001000
00000100
00000010
00000001
,  // measure 4
00000000
00022000
00000000
00000000
00000000
00000000
00000000
00000000
,  // measure 5
00033000
00000000
00010000
00100000
01000000
01000000
00000000
10000000
,  // measure 6
00100000
00010000
00001000
00000100
00000010
00000010
00000000
00000001
,  // measure 7
00000100
00001000
00010000
00100000
00010000
00001000
00000000
01000000
,  // measure 8
00100000
10000000
00010000
00220000
00000000
00000000
00000000
00000000
,  // measure 9
00000000
00330000
00000000
10000000
00000000
01100000
00000000
00010000
,  // measure 10
00000000
00011000
00000000
00000100
00000000
00000011
00000000
00000100
,  // measure 11
00001000
00010000
00100000
00000000
01100000
00000000
11000000
00000000
,  // measure 12
10010000
11000000
01100000
00110000
,  // measure 13
00011000
00001000
00000100
00000000
00001000
00010000
00010010
00000000
,  // measure 14
00001000
00001000
00001000
00001000
00010000
00100000
01100000
00000000
,  // measure 15
10000000
01000000
01100000
00000000
00010000
00001000
00001100
00000000
,  // measure 16
00000010
00000010
00000011
00000000
00002002
00000000
00000000
00000000
,  // measure 17
00000000
00000000
00003003
00000000
00000001
00000010
00000100
00000000
,  // measure 18
00001000
00010000
00100000
01000000
00100000
00010000
00001000
00000000
,  // measure 19
00000100
00000010
00000001
00000100
00001000
00010000
00100000
00000000
,  // measure 20
01000000
10000000
00010000
01000000
01001000
00000000
00011000
00000000
,  // measure 21
00010100
00001100
00002000
00010000
,  // measure 22
00013000
00010000
00200000
01000000
,  // measure 23
01300000
01000000
20000000
00010000
,  // measure 24
30010000
00010000
00200000
00001000
,  // measure 25
00301000
00000000
00001000
00000000
00010000
00001000
00000100
00000010
,  // measure 26
00000001
00000100
00001000
00010000
00100000
10000000
01000000
00100000
,  // measure 27
01000000
10000000
00010000
01000000
00001000
00010000
00000100
00001000
,  // measure 28
00000010
00000100
00000001
00000010
00000100
00001100
00000000
00011000
,  // measure 29
00000000
00202000
00000000
00000000
00303000
00000000
01000000
00001000
,  // measure 30
00010000
00100000
01000000
10000000
00100000
01000000
00001000
00010000
,  // measure 31
00000100
00001000
00000010
00000100
00000001
00000010
00001000
00010000
,  // measure 32
00100000
10000000
01000000
00100000
00010000
00001000
00022000
00000000
,  // measure 33
00000000
00000000
00000000
00000000
00000000
00033000
00000000
00100000
,  // measure 34
00010000
00001000
00000100
00000010
00000000
00000011
00000000
00000001
,  // measure 35
00000100
00001000
00010000
00100000
00000000
01100000
00000000
10000000
,  // measure 36
00010000
01000000
00001000
00010000
00000000
00010100
00000000
00000100
,  // measure 37
00000010
00000001
00000100
00001000
00010000
00110000
00000000
01000000
,  // measure 38
10000000
00010000
01000000
00001000
00000000
00011000
00000000
00010000
,  // measure 39
00000100
00001000
00000010
00000100
00000000
00000101
00000000
00000001
,  // measure 40
00000010
00000100
00001000
00010000
00000000
00110000
00000000
02200000
,  // measure 41
00000000
00000000
00000000
00000000
00000000
00000000
03300000
10000000
,  // measure 42
10000000
00010000
00100000
00001000
00010000
00000100
00000000
00001000
,  // measure 43
00000100
00000010
00000001
00000100
00001000
00010000
00000000
00100000
,  // measure 44
01000000
10000000
00100000
01000000
00001000
00010000
00000000
00011000
,  // measure 45
00000000
10010000
00000000
10100000
00000000
01100000
00000000
10000000
,  // measure 46
01000000
00100000
00010000
01000000
00001000
00010000
00000000
00000010
,  // measure 47
00001000
00000100
00010000
00001000
00100000
00010000
00000000
01000000
,  // measure 48
00100000
10000000
01000000
00100000
00010000
00001000
00000000
00000110
,  // measure 49
00000000
00000001
00000100
00001000
00010000
00100000
01000000
20020000
,  // measure 50
00000000
00000000
00000000
00000000
00000000
00000000
00000000
30030000
;

//---------------dance-double - ----------------
#NOTES:
     dance-double:
     :
     Challenge:
     9:
     0.645,0.589,0.667,0.062,0.175,369.000,65.000,6.000,0.000,0.000:  // measure 1
11000000
01000000
00100000
00010000
00001000
00000100
00000010
00000011
,  // measure 2
00000001
00000010
00000100
00001000
00010000
00100000
01000000
11000000
,  // measure 3
10000000
01000000
00100000
00010000
00001000
00000100
00000010
00000001
,  // measure 4
00000100
00000000
00001000
00010000
00001000
00010000
00001000
00010000
00001000
00010000
00001000
00010000
00001000
00010000
00001000
00010000
,  // measure 5
00000000
00000000
00010000
00100000
01000000
10000000
01000000
10000000
,  // measure 6
00100000
00010000
00001000
00000100
00000010
00000001
00000100
00000001
,  // measure 7
00000100
00001000
00010000
00100000
00010000
00001000
00010000
01000000
,  // measure 8
00100000
00000000
10000000
00000000
00010000
00000000
00100000
00001000
00100000
00001000
00100000
00001000
00100000
00001000
00100000
00001000
,  // measure 9
00100000
00001000
00000000
00000000
00000000
00000000
11000000
00000000
00000000
00000000
01100000
00000000
00000000
00000000
00110000
00000000
,  // measure 10
00000000
00011000
00000000
00001100
00000000
00000011
00000000
00001100
,  // measure 11
00001000
00010000
00100000
00000000
01100000
00000000
11000000
00000000
,  // measure 12
10010000
11000000
01100000
00110000
,  // measure 13
00011000
00001000
00000100
00000000
00001000
00010000
00010010
00000000
,  // measure 14
00001100
00001100
00011000
00011000
00010000
00100000
01100000
00000000
,  // measure 15
10000000
01000000
01100000
00000000
00010000
00001000
00001100
00000000
,  // measure 16
00000010
00000000
00000010
00000000
00000011
00000000
00000000
00000000
00001000
00000001
00001000
00000001
00001000
00000001
00001000
00000001
,  // measure 17
00001000
00000001
00001000
00000001
00000000
00000000
00000000
00000000
00000011
00000000
00000010
00000000
00000100
00000000
00001000
00000000
,  // measure 18
00001000
00010000
00100000
01000000
00100000
00010000
00001000
00001100
,  // measure 19
00000100
00000010
00000001
00000100
00001000
00010000
00100000
01100000
,  // measure 20
01000000
10000000
00010000
01000000
01001000
00000000
00011000
00000000
,  // measure 21
00010100
00001100
00012000
00010000
,  // measure 22
00013000
00010000
00010000
00000000
00210000
00000000
01000000
00000000
,  // measure 23
01300000
01000000
01000000
00000000
20100000
00000000
00010000
00000000
,  // measure 24
30010000
00010000
00010000
00000000
00210000
00000000
00001000
00000000
,  // measure 25
00301000
00001000
00001000
00000000
00011000
00001000
00000100
00000010
,  // measure 26
00000001
00000100
00001000
00010000
00100000
10000000
01000000
00100000
,  // measure 27
01000000
10000000
00010000
01000000
00001000
00010000
00000100
00001000
,  // measure 28
00000010
00000100
00000001
00000010
00000100
00001100
00010000
00011000
,  // measure 29
00001000
00000000
00100000
00001000
00100000
00001000
00100000
00001000
00100000
00001000
00000000
00000000
01001000
00000000
00001000
00000000
,  // measure 30
00010000
00100000
01000000
10000000
00100000
01000000
00001000
00010000
,  // measure 31
00000100
00001000
00000010
00000100
00000001
00000010
00001000
00010000
,  // measure 32
00100000
00000000
10000000
00000000
01000000
00000000
00100000
00000000
00010000
00000000
00001000
00000000
00010000
00000100
00010000
00000100
,  // measure 33
00010000
00000100
00010000
00000100
00010000
00000100
00010000
00000100
00010000
00000100
00000000
00000000
00000000
00000000
00110000
00000000
,  // measure 34
00010000
00001000
00000100
00000010
00000001
00000011
00000000
00000001
,  // measure 35
00000100
00001000
00010000
00100000
01000000
01100000
00000000
10000000
,  // measure 36
00010000
01000000
00001000
00010000
00000100
00010100
00000000
00000100
,  // measure 37
00000010
00000001
00000100
00001000
00010000
00110000
00000000
01000000
,  // measure 38
10000000
00010000
01000000
00001000
00010000
00011000
00000000
00010000
,  // measure 39
00000100
00001000
00000010
00000100
00000001
00000101
00000000
00000001
,  // measure 40
00000010
00000000
00000100
00000000
00001000
00000000
00010000
00000000
00100000
00000000
00110000
00000000
00000000
00000000
01000000
00100000
,  // measure 41
01000000
00100000
01000000
00100000
01000000
00000000
11000000
00000000
00000000
10010000
00000000
00000000
10010000
00000000
11000000
00000000
,  // measure 42
10000000
00010000
00100000
00001000
00010000
00000100
00001100
00001000
,  // measure 43
00000100
00000010
00000001
00000100
00001000
00010000
00110000
00100000
,  // measure 44
01000000
10000000
00100000
01000000
00001000
00010000
00011000
00011000
,  // measure 45
00000000
10010000
00000000
10100000
00000000
01100000
00000000
10010000
,  // measure 46
01000000
00100000
00010000
01000000
00001000
00010000
00010010
00000010
,  // measure 47
00001000
00000100
00010000
00001000
00100000
00010000
01010000
01000000
,  // measure 48
00100000
10000000
01000000
00100000
00010000
00001000
00000100
00000110
,  // measure 49
00000010
00000001
00000100
00001000
00010000
00100000
01000000
20020000
,  // measure 50
00000000
00000000
00000000
00000000
00000000
00000000
00000000
30030000
;
