#TITLE:Panda Hero;
#SUBTITLE:;
#ARTIST:Hachi;
#TITLETRANSLIT:;
#SUBTITLETRANSLIT:;
#ARTISTTRANSLIT:;
#CREDIT:M.L-INS;
#BANNER:../Tachyon DIVA.png;
#BACKGROUND:../Tachyon DIVA-bg.png;
#LYRICSPATH:;
#CDTITLE:;
#MUSIC:Panda Hero.ogg;
#OFFSET:-0.040;
#SAMPLESTART:100.000;
#SAMPLELENGTH:12.000;
#SELECTABLE:YES;
#BPMS:0.000=190.003;
#STOPS:;
#BGCHANGES:;
// cache tags:
#FIRSTBEAT:4.000;
#LASTBEAT:459.000;
#SONGFILENAME:Songs/Tachyon DIVA/p_q[[[M.L-INS]/Panda Hero.sm;
#HASMUSIC:1;
#HASBANNER:1;
#MUSICLENGTH:147.446;
// end cache tags

//---------------dance-single - Blank----------------
#NOTES:
     dance-single:
     Blank:
     Challenge:
     12:
     1.000,1.000,0.136,1.000,0.712,906.000,20.000,176.000,52.000,36.000:
0000
0000
0000
0000
,
00M0
0M00
00M0
0000
000M
0M00
000M
0000
,
M000
00M0
M000
00M0
0M00
000M
0M00
0000
,
00M0
0M00
M000
0000
0M00
00M0
000M
0000
,
M000
000M
0M00
00M0
M000
00M0
0400
0000
,
0301
0000
0000
0010
0100
0000
1000
0000
0100
0000
0000
0010
0001
0000
0100
0000
,
0010
0000
0000
0000
0000
0000
1000
0000
0001
0000
0000
0000
0010
0000
0000
0000
0100
0000
0000
0000
1000
0001
1000
0001
1000
0000
0000
0000
0100
0000
0000
0000
,
0010
0000
0000
0001
0010
0000
0100
0000
1000
0000
0000
1000
0010
0000
0100
0000
,
0001
0000
1000
0010
1000
0000
0100
0000
0010
0000
0001
0100
0001
0000
0010
0000
,
0100
0000
0000
0010
0100
0000
0010
0000
0001
0000
0000
1000
0100
0000
1000
0000
,
0001
0000
0000
0000
0000
0000
0100
0000
0001
0000
0000
0000
0010
0000
0000
0000
0001
0000
0000
0000
0100
0001
0100
0001
0100
0000
0000
0000
0001
0000
0000
0000
,
0100
0000
0000
0010
1000
0000
0100
0000
0010
0000
0000
0001
0100
0000
0010
0000
,
1000
0000
0000
0000
0000
0000
0000
0000
0000
0000
0000
0000
0000
0000
0000
0000
0000
0000
0000
0000
0000
0000
0000
0000
0001
0000
0000
0000
0000
0000
1000
0000
0000
0000
0000
0000
0001
0000
0000
0000
0000
0000
1000
0000
0000
0000
0000
0000
0001
0000
0000
0000
0000
0000
0000
0000
0000
0000
0000
0000
0000
0000
0000
0000
0000
0000
0000
0000
0000
0000
0000
0000
0200
0000
0000
0000
0000
0000
0000
0000
0000
0000
0000
0000
0000
0000
0000
0000
0000
0000
0000
0000
0000
0000
0000
0300
0110
0000
0000
0000
0000
0000
0000
0000
0000
0000
0000
0000
0000
0000
0000
0000
0000
0000
0000
0000
0000
0000
0000
0000
0110
0000
0000
0000
0000
0000
0000
0000
0000
0000
0000
0000
0000
0000
0000
0000
0000
0000
0000
0000
0000
0000
0000
0000
0110
0000
0000
0000
0000
0000
0000
0000
0000
0000
0000
0000
0000
0000
0000
0000
0000
0000
0000
0000
0000
0000
0000
0000
M0MM
0000
0000
0000
0000
0000
0000
0000
0000
0000
0000
0000
0000
0000
0000
0000
0000
0000
0000
0000
0000
0000
0000
0000
,
1000
0000
0000
0001
0100
0000
0010
0000
1000
0000
0100
0010
0001
0000
1000
0000
,
0010
0000
0000
0100
0001
0000
0010
0000
0100
0000
1000
0010
0100
0000
0001
0000
,
1000
0000
0000
0100
0010
0000
0001
0000
1000
0000
0010
0100
0001
0000
0100
0000
,
0010
0000
0000
1000
0100
0000
0010
0000
0001
0000
0100
0000
0010
1000
0100
0000
,
2000
0000
0000
0000
0020
0000
0000
0000
0200
0000
0000
0001
0000
0000
0002
0000
,
0020
0000
0000
0000
0000
0000
0000
0000
0000
0000
0000
0000
0000
0000
0000
0000
0000
0000
0000
0000
0000
0000
0000
3000
2000
0000
0000
0000
0000
0000
0000
0000
0000
0000
0000
0000
0000
0000
0000
0000
0000
0000
0000
0000
0000
0000
0000
0300
0200
0000
0000
0000
0000
0000
0000
0000
0000
0000
0000
0000
0000
0000
0000
0000
0000
0000
0000
0000
0000
0000
0030
3000
2020
0000
0000
0000
0000
0000
0000
0000
0000
0000
0000
0000
0000
0000
0000
0000
0000
0000
0000
0000
0000
0000
0000
0003
0002
0000
0000
0000
0000
0000
0000
0000
0000
0000
0000
0000
0000
0000
0000
0000
0000
0000
0000
0000
0000
0000
0000
0000
0000
0000
0000
0000
0000
0000
0000
0000
0000
0000
0000
0000
0000
0000
0000
0000
0000
0000
0000
0000
0000
0000
0000
3030
2020
0000
0000
0000
0000
0000
0000
0000
0000
0000
0000
0000
0000
0000
0000
0000
0000
0000
0000
0000
0000
0000
0000
0000
0000
0000
0000
0000
0000
0000
0000
0000
0000
0000
0000
0000
0000
0000
0000
0000
0000
0000
0000
0000
0000
0000
0000
0300
,
3233
0000
0301
0020
0000
1030
0200
0000
,
0301
0000
0010
0001
0010
0000
0100
1000
0100
0000
1000
0000
0020
0000
0000
0000
,
1030
0000
0000
0001
0100
0001
0100
0000
0000
0010
0000
0000
1000
0000
0000
0100
0000
0000
0010
0000
0000
0001
0000
0000
,
1000
0000
0000
0100
0010
0100
0010
0000
0000
0001
0000
0000
1000
0000
0000
0010
0000
0000
0100
0000
0000
0001
0000
0000
,
0100
0000
0000
0001
0010
0001
0010
0000
0000
0100
0000
0000
1000
0000
0000
0010
0000
0000
0100
0000
0000
0001
0100
0001
,
0100
0000
0000
0010
0000
0000
1000
0000
0000
0100
0000
0000
0010
0000
0000
0100
1000
0100
1000
0000
0000
0001
0000
0000
,
0002
0000
0100
0000
0000
0000
0010
0000
0020
0000
0000
1000
0000
0000
2000
0000
,
0200
0000
0000
0000
0000
0000
0000
0000
0000
0000
0000
0000
0000
0000
0000
0000
0000
0000
0000
0000
0000
0000
0000
0003
0002
0000
0000
0000
0000
0000
0000
0000
0000
0000
0000
0000
0000
0000
0000
0000
0000
0000
0000
0000
0000
0000
0000
0030
0020
0000
0000
0000
0000
0000
0000
0000
0000
0000
0000
0000
0000
0000
0000
0000
0000
0000
0000
0000
0000
0000
0300
0003
0202
0000
0000
0000
0000
0000
0000
0000
0000
0000
0000
0000
0000
0000
0000
0000
0000
0000
0000
0000
0000
0000
0000
0000
0000
0000
0000
0000
0000
0000
0000
0000
0000
0000
0000
0000
0000
0000
0000
0000
0000
0000
0000
0000
0000
0000
0000
0000
0000
0000
0000
0000
0000
0000
0000
0000
0000
0000
0000
0000
0000
0000
0000
0000
0000
0000
0000
0000
0000
0000
0000
0303
0202
0000
0000
0000
0000
0000
0000
0000
0000
0000
0000
0000
0000
0000
0000
0000
0000
0000
0000
0000
0000
0000
0000
0000
0000
0000
0000
0000
0000
0000
0000
0000
0000
0000
0000
0000
0000
0000
0000
0000
0000
0000
0000
0000
0000
0000
0000
0030
,
3323
0000
1030
0200
0000
0301
0020
0000
,
M230
03M2
2M03
302M
,
1030
0000
0000
0001
0100
0000
0010
0000
1000
0000
0100
0010
0001
0000
0100
0000
,
0010
0000
0000
0000
0000
0000
1000
0000
0100
0000
0000
0000
0010
0000
0000
0000
0001
0000
0000
0000
0100
0001
0100
0001
0100
0000
0000
0000
0010
0000
0000
0000
,
1000
0000
0000
0001
0100
0000
0010
0000
1000
0000
0001
0010
0100
0000
0010
0000
,
0001
0000
0000
0000
0000
0000
1000
0000
0010
0000
0000
0000
0100
0000
0000
0000
0001
0000
0000
0000
1000
0100
1000
0100
1000
0000
0000
0000
0001
0000
0000
0000
,
0100
0000
0000
0010
1000
0000
0100
0000
0010
0000
0001
0100
0010
0000
1000
0000
,
0001
0000
0000
0000
0000
0000
0100
0000
0010
0000
0000
0000
1000
0000
0000
0000
0001
0000
0000
0000
0010
0100
0010
0100
0010
0000
0000
0000
0001
0000
0000
0000
,
1000
0000
0000
0010
0100
0000
0001
0000
1000
0000
0100
0010
0001
0000
1000
0000
,
0010
0000
0000
0100
0001
0000
0010
0000
0100
0000
2002
0000
0040
0000
0000
0000
,
3033
0000
0000
1000
0010
0000
0100
0000
0001
0000
0010
0100
1000
0000
0001
0000
,
0100
0000
0000
0010
1000
0000
0100
0000
0010
0000
0001
0100
0010
0000
1000
0000
,
0001
0000
0000
0010
0100
0000
1000
0000
0001
0000
0100
0010
1000
0000
0010
0000
,
0100
0000
0000
0001
0010
0000
0100
0000
1000
0000
0010
0000
0100
0001
0010
0000
,
0002
0000
0000
0000
0000
0000
0000
0000
0020
0000
0000
1000
0000
0000
2000
0000
,
0200
0000
0000
0000
0000
0000
0000
0000
0000
0000
0000
0000
0000
0000
0000
0000
0000
0000
0000
0000
0000
0000
0000
0003
0002
0000
0000
0000
0000
0000
0000
0000
0000
0000
0000
0000
0000
0000
0000
0000
0000
0000
0000
0000
0000
0000
0000
0030
0020
0000
0000
0000
0000
0000
0000
0000
0000
0000
0000
0000
0000
0000
0000
0000
0000
0000
0000
0000
0000
0000
0300
0003
0202
0000
0000
0000
0000
0000
0000
0000
0000
0000
0000
0000
0000
0000
0000
0000
0000
0000
0000
0000
0000
0000
0000
3000
2000
0000
0000
0000
0000
0000
0000
0000
0000
0000
0000
0000
0000
0000
0000
0000
0000
0000
0000
0000
0000
0000
0000
0000
0000
0000
0000
0000
0000
0000
0000
0000
0000
0000
0000
0000
0000
0000
0000
0000
0000
0000
0000
0000
0000
0000
0000
0303
0202
0000
0000
0000
0000
0000
0000
0000
0000
0000
0000
0000
0000
0000
0000
0000
0000
0000
0000
0000
0000
0000
0000
0000
0000
0000
0000
0000
0000
0000
0000
0000
0000
0000
0000
0000
0000
0000
0000
0000
0000
0000
0000
0000
0000
0000
0000
0030
,
3323
0000
1030
0200
0000
0301
0020
0000
,
1030
0000
0100
1000
0100
0000
0010
0001
0010
0000
0001
0000
0200
0000
0000
0000
,
0301
0000
0000
1000
0010
1000
0010
0000
0000
0100
0000
0000
0001
0000
0000
0010
0000
0000
0100
0000
0000
1000
0000
0000
,
0001
0000
0000
0010
0100
0010
0100
0000
0000
1000
0000
0000
0001
0000
0000
0100
0000
0000
0010
0000
0000
1000
0000
0000
,
0010
0000
0000
1000
0100
1000
0100
0000
0000
0010
0000
0000
0001
0000
0000
0100
0000
0000
0010
0000
0000
1000
0010
1000
,
0010
0000
0000
0100
0000
0000
0001
0000
0000
0010
0000
0000
0100
0000
0000
0010
0001
0010
0001
0000
0000
1000
0000
0000
,
2000
0000
0010
0000
0000
0000
0100
0000
0200
0000
0000
0001
0000
0000
0002
0000
,
0020
0000
0000
0000
0000
0000
0000
0000
0000
0000
0000
0000
0000
0000
0000
0000
0000
0000
0000
0000
0000
0000
0000
3000
2000
0000
0000
0000
0000
0000
0000
0000
0000
0000
0000
0000
0000
0000
0000
0000
0000
0000
0000
0000
0000
0000
0000
0300
0200
0000
0000
0000
0000
0000
0000
0000
0000
0000
0000
0000
0000
0000
0000
0000
0000
0000
0000
0000
0000
0000
0030
3000
2020
0000
0000
0000
0000
0000
0000
0000
0000
0000
0000
0000
0000
0000
0000
0000
0000
0000
0000
0000
0000
0000
0000
0000
0000
0000
0000
0000
0000
0000
0000
0000
0000
0000
0000
0000
0000
0000
0000
0000
0000
0000
0000
0000
0000
0000
0000
0000
0000
0000
0000
0000
0000
0000
0000
0000
0000
0000
0000
0000
0000
0000
0000
0000
0000
0000
0000
0000
0000
0000
0000
3030
2020
0000
0000
0000
0000
0000
0000
0000
0000
0000
0000
0000
0000
0000
0000
0000
0000
0000
0000
0000
0000
0000
0000
0000
0000
0000
0000
0000
0000
0000
0000
0000
0000
0000
0000
0000
0000
0000
0000
0000
0000
0000
0000
0000
0000
0000
0000
0300
,
3233
0000
0301
0020
0000
1030
0200
0000
,
0302
0000
0000
2003
0000
0000
3020
0000
0000
0230
0000
0000
0301
0000
0010
0000
0100
0000
2000
0000
0000
0000
3000
0000
,
0001
0010
0000
0000
0000
0000
0000
0000
0010
0100
0000
0000
0000
0000
0000
0000
0100
2000
0000
0000
0000
0000
0001
3000
0100
0000
0000
0000
0010
0000
0000
0000
,
1000
0000
0100
0001
0100
0000
1000
0000
0010
0000
0100
1000
0100
0000
0001
0000
,
2000
3002
0023
0032
0203
0320
2030
3200
,
0320
0032
0203
0320
2030
0000
3001
0000
,
1000
0100
0000
0000
0000
0000
0000
0000
0100
0010
0000
0000
0000
0000
0000
0000
0010
0002
0000
0000
0000
0000
1000
0003
0010
0000
0000
0000
0100
0000
0000
0000
,
0001
0000
0010
1000
0010
0000
0001
0000
0100
0000
0010
0001
0010
0000
1000
0000
,
0002
2003
3200
2300
3020
0230
0302
0023
,
0230
2300
3002
1003
,
0100
0001
0000
0000
0000
0000
0000
0000
0001
1000
0000
0000
0000
0000
0000
0000
1000
0020
0000
0000
0000
0000
1000
0030
0100
0000
0000
0000
1000
0000
0000
0000
,
0010
0000
1000
0100
1000
0000
0010
0000
0100
0000
0001
0010
0001
0000
0100
0000
,
0020
0230
0302
0203
2300
3002
0023
2030
,
3002
0203
2300
3002
0023
0000
0130
0000
,
0010
1000
0000
0000
0000
0000
0000
0000
1000
0001
0000
0000
0000
0000
0000
0000
0001
0200
0000
0000
0000
0000
0001
0300
0010
0000
0000
0000
0001
0000
0000
0000
,
0100
0000
0001
1000
0001
0000
0100
0000
1000
0000
0001
0100
0001
0000
0010
0000
,
0200
0320
2030
3020
0032
2003
3200
0302
,
2003
0000
3020
0000
0032
0000
0000
0000
1003
0100
1000
0100
0010
0001
0010
0001
,
1000
0000
0000
0100
0010
0000
0001
0000
1000
0000
0010
0100
0001
0000
1000
0000
,
0010
0000
0000
0000
0000
0000
0100
0000
0001
0000
0000
0000
0010
0000
0000
0000
0100
0000
0000
0000
1000
0001
1000
0001
1000
0000
0000
0000
0100
0000
0000
0000
,
0010
0000
0000
1000
0001
0000
0010
0000
0100
0000
1000
0001
0010
0000
0100
0000
,
1000
0000
0000
0000
0000
0000
0001
0000
0010
0000
0000
0000
0100
0000
0000
0000
1000
0000
0000
0000
0010
0100
0010
0100
0010
0000
0000
0000
1000
0000
0000
0000
,
0001
0000
0000
1000
0010
0000
0100
0000
0001
0000
1000
0100
0010
0000
0001
0000
,
0100
0000
0000
0000
0000
0000
0010
0000
1000
0000
0000
0000
0001
0000
0000
0000
0100
0000
0000
0000
0001
1000
0001
1000
0001
0000
0000
0000
0010
0000
0000
0000
,
0100
0000
0000
1000
0001
0000
0010
0000
0001
0000
1000
0010
0100
0000
0001
0000
,
0100
0000
0000
0000
0010
0000
0001
0000
0010
0000
0000
0000
0100
0000
0000
0000
0110
0000
0000
0000
0011
0000
0000
0000
2020
0000
0000
0000
0000
0000
0000
3030
,
0000
0000
0000
0000
,
0001
0010
0001
0000
1000
0000
0010
0010
0000
0000
0100
0000
0001
0000
0010
0000
,
0100
1000
0100
0000
0010
0000
0001
0001
0000
0000
1000
0000
0100
0000
0010
0000
,
0001
0010
0001
0000
0100
0000
0010
0010
0000
0000
1000
0000
0010
0000
0100
0000
,
0001
0010
0001
0000
1000
0000
0100
0100
0000
0000
0010
0000
0001
0000
0100
0000
,
0001
1000
0001
0000
0100
0000
0010
0010
0000
0000
1000
0000
0100
0000
0010
0000
,
0001
0100
0010
0000
1000
0000
0010
0010
0000
0000
1000
0000
0100
0000
0010
0000
,
0001
0100
0010
0000
1000
0000
0001
0001
0000
0000
0010
0000
0100
0000
1000
0000
,
0100
0010
0001
0000
1000
0000
0010
0010
0000
0000
1000
0000
0001
0000
0010
0000
,
0001
0010
0001
0000
1000
0000
0010
0100
0010
0000
1000
0000
0001
0001
0100
0010
,
1000
0000
0100
0000
0010
0001
0010
0000
0100
0000
1000
1000
0100
0010
0001
0000
,
1000
0010
1000
0000
0100
0000
0010
0001
0010
0000
0100
0000
1000
0010
1000
0000
,
0100
0010
0100
0000
1000
0000
0001
0010
0001
0000
1000
1000
0010
0100
0001
0010
,
0100
1000
0100
0000
0010
0000
0001
1000
0001
0000
0100
0100
0010
1000
0001
0000
,
0010
0100
1000
0000
0010
0000
0100
0001
1000
0000
0001
0001
1000
0010
1000
0000
,
0001
0001
0010
0000
0100
0000
1000
1000
0010
0000
0100
0000
0001
0001
1000
0000
,
1100
0101
0101
2002
0000
0010
0010
0040
,
0000
0000
0000
0000
3M03
0000
0000
0000
0000
0000
0000
0030
1000
0000
1000
0001
,
1000
0100
0000
0000
0000
0000
0000
0000
0100
0010
0000
0000
0000
0000
0000
0000
0010
0002
0000
0000
0000
0000
1000
0003
0010
0000
0000
0000
0100
0000
0000
0000
,
0001
0000
0010
1000
0010
0000
0001
0000
0100
0000
0010
0001
0010
0000
1000
0000
,
0002
2003
3200
2300
3020
0230
0302
0023
,
0230
2300
3020
0230
0302
0000
10M3
0000
,
0001
0010
0000
0000
0000
0000
0000
0000
0010
0100
0000
0000
0000
0000
0000
0000
0100
2000
0000
0000
0000
0000
0001
3000
0100
0000
0000
0000
0010
0000
0000
0000
,
1000
0000
0100
0001
0100
0000
1000
0000
0010
0000
0100
1000
0100
0000
0001
0000
,
2000
3002
0023
0032
0203
0320
2030
3200
,
0320
0032
2003
3M01
,
0010
1000
0000
0000
0000
0000
0000
0000
1000
0001
0000
0000
0000
0000
0000
0000
0001
0200
0000
0000
0000
0000
0001
0300
0010
0000
0000
0000
0001
0000
0000
0000
,
0100
0000
0001
0010
0001
0000
0100
0000
0010
0000
1000
0100
1000
0000
0010
0000
,
0200
0320
2030
3020
0032
2003
3200
0302
,
2003
3020
0032
2003
3200
0000
M310
0000
,
0100
0001
0000
0000
0000
0000
0000
0000
0001
1000
0000
0000
0000
0000
0000
0000
1000
0020
0000
0000
0000
0000
1000
0030
0100
0000
0000
0000
1000
0000
0000
0000
,
0010
0000
1000
0001
1000
0000
0010
0000
0001
0000
1000
0010
1000
0000
0100
0000
,
0020
0230
0302
0203
2300
3002
0023
2030
,
3002
0000
0203
0000
2300
0000
0000
0000
3001
0100
0001
0100
0010
1000
0010
1000
,
000M
000M
000M
000M
,
0M00
0M00
0M00
0M00
,
00M0
00M0
00M0
00M0
,
M000
M000
M000
M000
;
