#TITLE:Center of the Universe;
#SUBTITLE:;
#ARTIST:Kamelot;
#TITLETRANSLIT:;
#SUBTITLETRANSLIT:;
#ARTISTTRANSLIT:;
#CREDIT:;
#BANNER:CotUban.png;
#BACKGROUND:CotUbg.jpg;
#LYRICSPATH:;
#CDTITLE:!ObsTitle.png;
#MUSIC:02_Center of the Universe.mp3;
#OFFSET:-0.386;
#SAMPLESTART:83.254;
#SAMPLELENGTH:12.000;
#SELECTABLE:YES;
#BPMS:0.000=170.000,113.000=85.000,121.000=170.000,473.000=56.600,505.000=170.000;
#STOPS:;
#BGCHANGES:;
// cache tags:
#FIRSTBEAT:0.000;
#LASTBEAT:539.000;
#SONGFILENAME:Songs/Fresh Flock of Fantastic Files F4/(Observer) Center Of The Universe/Universe.sm;
#HASMUSIC:1;
#HASBANNER:1;
#MUSICLENGTH:218.984;
// end cache tags

//---------------dance-single - ----------------
#NOTES:
     dance-single:
     :
     Challenge:
     12:
     1.000,1.000,0.863,0.370,1.000,1366.000,189.000,81.000,0.000,0.000:
1001
0000
0100
0010
0001
0000
0010
0000
1000
0000
0010
0000
0101
0000
0100
0010
,
0100
0000
1000
0000
0100
0000
0010
0000
1100
0000
0010
0001
0100
0000
0010
0000
,
0100
1000
0011
0000
0110
0000
1100
0000
,
1001
0000
0010
0100
0001
0000
0010
0000
1000
0000
0010
0000
0101
0000
1000
0010
,
0100
0000
1000
0000
0100
0000
0010
0000
1100
0000
0001
0010
0100
0000
0010
0000
,
0100
0000
0001
0000
1100
0000
0000
0000
0110
0000
0000
0000
0001
0010
0100
1000
,
0001
0010
0100
1000
0011
0000
1000
0100
1000
0000
0100
0010
0100
0000
0001
0010
,
0001
0000
0010
0100
0010
0000
1000
0100
0001
0000
0001
0010
0100
1000
0100
0010
,
0001
0000
0100
0010
0100
0000
0001
0010
0100
0000
1000
0100
1000
0000
0100
0010
,
0001
0000
1000
0010
0100
0000
0001
0100
0010
0000
1000
0100
0010
0001
0010
0100
,
1000
0000
0010
0001
0010
0000
1000
0100
1000
0000
0100
0010
0100
0000
0001
0010
,
1000
0000
0010
0001
0010
0000
1000
0100
0001
0000
1000
0010
0100
0001
1000
0100
,
0010
0000
0100
0010
2001
0000
0000
0000
3200
0000
0000
0000
0000
0000
0000
0000
,
0310
0000
0110
0000
1000
0100
0010
0100
1000
0100
0010
0001
0010
0100
0010
0001
,
2100
0000
0000
0000
3100
0000
0001
0100
1000
0000
1000
0100
0001
0000
0001
0010
,
1000
0000
1000
0010
0001
0000
0100
1000
0100
0000
0001
0010
0100
0010
0100
1000
,
0100
0000
0001
0100
0001
0000
1000
0010
1000
0000
0100
0010
0100
0000
0001
0010
,
0001
0000
0100
1000
0010
0000
0100
0001
0010
0000
1000
0100
0010
0100
0010
0001
,
0010
0000
1000
0100
0010
0000
0001
0010
0100
0000
0001
0010
0100
0010
0001
0010
,
1000
0000
0001
0010
0001
0000
1000
0100
1000
0000
1000
0100
0010
0100
1000
0100
,
0001
0000
0100
1000
0010
0000
1000
0100
0001
0000
0100
0010
0100
0010
1001
0000
,
0110
1010
0101
1100
0011
0110
1100
1010
,
0110
1001
1100
0010
0001
1000
0020
0130
,
1001
0010
0001
0010
2000
3010
0101
0001
,
0100
0001
0200
1300
1010
0000
0110
0000
,
0101
0000
1100
0001
0010
0100
2000
3100
,
0011
0100
1000
0100
0020
0031
0110
1000
,
0100
0010
0002
0013
1001
0000
0110
0000
,
1100
0000
1001
0100
0000
0100
0000
0010
,
0000
0010
0000
1000
0000
1000
0000
0001
,
0000
0100
0010
0100
1001
0000
0101
0000
0101
0000
1001
0000
1010
0000
1010
0000
,
1001
0110
0110
1001
0101
0101
1010
0202
,
0000
0000
0303
0000
1001
0000
1000
0100
0010
0000
0001
0010
0100
0000
1000
0100
,
0001
0000
0001
0010
1000
0000
0100
0010
0100
0000
0001
0100
0001
0000
1000
0010
,
0100
0000
0001
0100
0010
0000
1000
0100
1000
0000
0001
0010
0100
0000
0010
0100
,
0010
0000
0100
1000
0010
0000
0100
0010
1000
0000
0010
0100
0001
0000
1000
0100
,
0001
0100
1001
1100
1100
1001
0011
0011
,
0110
1010
1010
0101
1001
1001
0110
0202
,
0303
0000
0100
0010
1001
0000
1000
0100
1000
0000
0011
0000
0000
0000
1000
0001
,
1000
0000
1000
0010
1000
0000
0001
0100
0001
0000
0110
0000
0000
0000
0001
0010
,
0001
0000
0100
1000
0100
0000
0010
0100
0010
0000
1001
0000
0000
0000
1000
0010
,
1000
0000
1000
0100
0001
0010
0100
1000
0001
0100
0010
1000
0001
0010
0100
0010
,
0001
0010
1000
0010
0001
0010
0100
1000
0010
0100
0001
0100
1000
0100
0010
0001
,
1000
0010
0100
0001
1000
0100
1000
0010
1000
0100
1000
0001
0020
0000
2030
0000
,
3000
0000
0000
0000
1001
0000
0100
0001
0100
0000
1100
0000
0000
0000
0010
1000
,
0010
0000
0100
0010
0100
0000
0001
0100
0001
0000
1001
0000
0000
0000
0010
0100
,
0010
0000
0001
0010
0001
0000
1000
0100
1000
0000
0101
0000
0000
0000
1000
0010
,
1000
0000
0001
0010
1000
0100
0010
0001
1000
0010
0100
0001
1000
0100
0010
0100
,
1000
0100
0001
0100
1000
0001
0100
0010
1000
0001
0100
0010
1000
0100
0010
0001
,
0010
0100
0010
0001
1000
0100
0010
0001
0100
0010
0100
0010
0001
0010
0100
1000
,
0100
0010
0100
0010
2002
0000
0000
0000
0000
0000
0000
0000
0000
0000
3003
0000
,
2000
3000
0220
0000
0000
0000
0330
0000
,
1100
0000
2002
0000
0000
0000
0000
3003
,
0002
0003
0220
0000
0000
0000
0000
0330
,
0000
0000
1010
0000
0101
0000
0220
0330
,
0100
0000
0010
0000
2002
0000
3003
0000
0000
0000
0000
0000
0001
0010
0100
1000
,
0001
0010
0100
1000
0001
0010
0100
1000
0001
0100
0010
1000
0001
0100
0010
1000
,
0001
0100
0001
0010
0001
0100
0001
0010
0001
0100
0010
1000
0010
0100
0010
1000
,
0010
0100
0010
1000
0001
0100
0010
1000
0001
0100
0010
1000
0100
0010
0100
0001
,
0100
0010
0100
0001
1000
0100
0010
0001
0010
0100
0010
0001
0010
0100
1000
0100
,
0001
0010
0100
1000
0010
0100
0010
0100
0001
0010
0100
1000
0001
0100
0010
1000
,
0001
0010
0001
0010
0100
0010
0100
0010
0100
1000
0100
1000
0100
0010
0100
0010
,
0100
0010
0001
0010
1100
0000
1001
0000
1001
0000
0110
0000
0011
0000
0011
0000
,
1100
1010
1010
0101
1001
1001
0110
1100
,
1100
0000
0011
0000
1000
0100
0010
0001
1000
0100
0010
0100
1000
0100
0010
0001
,
1000
0010
0100
0001
0100
0010
0001
0010
0100
1000
0001
0100
0010
0001
0100
0010
,
1000
0100
0010
0001
1000
0010
0100
0001
1000
0100
1000
0010
1000
0100
1000
0010
,
1000
0100
0010
0001
0010
0100
0010
1000
0001
0100
0010
1000
0001
0100
0010
1000
,
0001
0010
0100
1000
0011
0000
0100
0000
1010
0000
0001
0000
1100
0000
0010
0000
,
1001
0100
1010
0000
1100
0011
0000
0101
,
0000
0220
0000
0000
0000
0000
0330
0000
,
0000
0000
1100
1010
0000
0110
0000
1100
,
0000
0000
0000
0000
1000
0100
0010
0100
1000
0000
0000
0000
0100
0010
0100
0010
,
0100
0000
0001
0010
0100
1000
0000
0000
0010
0100
0010
0100
0000
0000
1000
0100
,
0010
0001
0000
0000
0010
0100
0010
0100
0022
0000
0033
0000
2020
0000
3030
0000
,
2200
0000
3300
0000
1000
0100
0010
0001
1000
0100
0010
0001
1000
0010
0100
0001
,
1000
0010
0100
0001
1000
0100
0010
0001
0100
0010
0100
0010
1000
0001
0100
0010
,
1000
0001
0100
0010
0001
0010
0100
1000
0001
0010
0100
1000
0001
0100
0010
1000
,
0001
0100
0010
0100
1001
0000
0000
0000
0101
0000
0000
0000
0110
0000
0000
0000
,
1100
0000
0002
0203
0300
0220
0000
0000
,
0000
0000
0330
0000
1001
0000
0100
0001
0100
0000
0011
0000
0000
0000
0001
1000
,
0001
0000
0100
1000
0100
0000
0010
1000
0010
0000
0001
0010
1000
0100
0010
0001
,
1000
0010
0100
0001
1000
0100
1000
0010
1000
0100
1000
0010
0001
0010
0100
1000
,
0001
0010
0100
0010
0001
0010
0100
1000
0100
0010
0100
0001
0020
0000
0230
0000
,
0000
0000
0300
0000
1001
0000
0001
0100
0001
0000
0110
0000
0000
0000
1000
0100
,
1000
0000
1000
0001
1000
0000
0100
0010
0100
0000
0101
0000
0000
0000
0010
0001
,
0010
0000
0010
1000
0010
0000
0100
1000
0100
0000
1001
0000
0000
0000
0010
0100
,
0010
0000
1000
0100
0001
0010
0100
1000
0001
0100
0010
1000
0001
0100
0001
0010
,
0001
0100
0001
0010
1000
0100
0001
0100
1000
0010
0100
0001
1000
0100
0010
0001
,
1000
0100
0010
0100
0001
0010
0100
1000
0001
0100
0010
1000
0001
0100
0010
0100
,
1000
0100
0001
0000
2002
0000
0000
0000
0000
0000
0000
0000
0000
0000
3003
0000
,
0200
0300
2020
0000
0000
0000
0000
3030
,
0002
0003
2200
0000
0000
0000
0000
3300
,
0020
0030
2002
0000
0000
0000
0000
0000
,
3003
1100
0110
0011
,
0100
0000
0010
0000
2002
0000
3003
0000
0000
0000
0000
0000
1000
0100
0010
0001
,
1000
0100
0010
0001
1000
0100
0010
0100
1000
0100
0001
0100
1000
0100
1000
0010
,
1000
0100
1000
0010
0001
0010
0100
1000
0001
0100
0010
1000
0001
0010
0001
0100
,
0001
0010
0001
0100
1000
0010
0100
0001
1000
0010
0100
0001
0010
0100
0010
1000
,
0010
0100
0010
1000
0001
0100
0010
1000
0001
0100
0010
1000
0001
0010
0100
1000
,
0100
0010
0100
1000
0010
0100
0010
1000
0100
0010
0100
0001
0100
0010
0100
0001
,
1000
0100
0010
0001
1000
0010
0100
0001
1000
0010
0100
0001
1000
0100
1000
0010
,
1000
0100
0010
0100
1001
0000
1100
0000
1100
0000
1001
0000
0101
0000
0101
0000
,
0220
0330
1100
1010
1010
1001
0101
0101
,
0110
0000
1100
0000
0001
0010
0100
1000
0001
0100
0010
1000
0001
0100
0010
1000
,
0001
0100
0001
0010
0001
0100
0001
0010
0001
0010
0100
1000
0010
0100
0010
0100
,
1000
0001
0100
0010
1000
0001
0100
0010
1000
0100
0010
0001
1000
0010
0100
0001
,
0100
0010
0100
0010
1000
0100
0010
0100
1000
0010
0100
0010
0100
1000
0010
0100
,
0011
1000
0010
0000
0110
0000
0011
0000
,
1100
0000
1001
0000
1000
1000
0000
0100
,
0000
0020
0000
0000
0000
0000
0030
0000
,
0000
0000
0110
1001
0000
1010
0000
0101
,
0000
0000
1001
0000
1000
0100
0010
0100
1000
0000
0000
0000
0001
0010
0100
0010
,
0001
0000
1000
0100
0010
0001
0000
0000
0010
0100
0010
0100
0000
0000
0001
0010
,
0100
1000
0000
0000
0100
0010
0100
0010
2200
0000
3300
0000
0220
0000
0330
0000
,
0022
0000
0033
0000
1000
0100
0001
0100
1000
0000
0000
0000
0001
0010
1000
0010
,
0001
0000
1000
0010
0100
0001
0000
0000
0001
0100
0010
1000
0000
0000
0001
0010
,
0100
1000
0000
0000
0010
0100
0010
0100
2002
0000
3003
0000
2200
0000
3300
0000
,
0202
0000
0000
0303
0000
0000
1001
0000
0000
0010
0000
0100
0010
0000
0001
0000
0010
0000
1000
0000
0000
0101
0000
0010
,
0100
0000
1000
0000
0100
0000
0001
0000
0000
0110
0000
1000
0010
0000
0000
0100
0000
0000
0011
0000
0000
0100
0000
0000
,
1100
0000
0000
0001
0000
0000
0110
0000
0000
1000
0000
0100
0010
0000
0001
0000
0100
0000
0010
0000
0000
1100
0000
0010
,
0100
0000
0001
0000
0010
0000
0100
0000
0000
1001
0000
0100
0010
0000
0000
0001
0000
0000
0100
0000
0000
1010
0000
0000
,
0001
0000
0000
0000
0010
0000
0000
0000
0100
0000
0000
0000
1001
0000
0000
0000
0000
0000
0010
0000
0000
0000
0001
0010
0100
0000
0000
0000
0001
0000
0000
0100
0010
0000
0000
0000
0100
0000
0000
0000
0000
0000
0010
0000
0000
0000
0100
0000
,
0001
0000
0010
0000
1000
0000
0010
0000
0000
1000
0000
0100
0010
0000
0001
0000
0010
0000
0100
0000
0000
0010
0000
0100
,
0010
0000
0000
0000
0001
0000
1000
0000
0100
0000
1000
0000
0011
0000
0000
0000
0000
0000
0010
0000
0000
0000
0100
0010
0001
0000
0000
0000
1000
0000
0000
0000
0010
0000
0000
0000
1000
0100
0000
0000
0000
0000
0101
0000
0000
0000
0010
0000
,
1000
0000
0000
0000
0001
0010
0000
0000
1000
0000
0000
0000
0100
0000
0000
0000
0000
0000
0010
0000
0000
0000
0001
0000
0100
0000
0000
0000
1000
0000
0000
0000
0010
0000
0000
0000
1100
0000
0000
0000
0000
0000
0010
0000
0000
0000
0001
0000
,
1000
0100
0010
0001
0010
0100
1001
0000
0000
0100
0000
0000
1000
0000
0000
0100
0000
0000
1000
0000
0000
0010
0000
0000
,
1100
0001
0100
0001
0100
0010
0101
0010
,
1000
0010
1000
0100
0001
0010
0100
1000
,
0200
0300
1001
0100
0010
0100
0001
0100
,
0011
0011
0100
1000
0100
0001
1100
0010
,
0100
1000
0001
0100
0010
0100
1000
0001
,
2002
3003
0200
0000
0000
0000
0000
0000
,
0302
0000
0000
2003
,
0000
0000
0000
0000
3020
0000
0230
0300
2002
0000
0000
0000
3003
0000
0000
0000
;

//---------------dance-single - ----------------
#NOTES:
     dance-single:
     :
     Hard:
     10:
     0.798,1.000,0.840,0.557,0.368,918.000,184.000,122.000,0.000,0.000:
1001
0010
0001
0010
1000
0010
0101
0010
,
0100
1000
0100
0010
1100
0010
0100
0010
,
0100
1000
0011
0000
0110
0000
1100
0000
,
1001
0010
0001
0010
1000
0010
0101
0010
,
0100
1000
0100
0010
1100
0010
0100
0010
,
0100
0001
1100
0000
0110
0000
0011
0000
,
0110
2100
3100
0102
,
0103
2010
3010
0012
,
0013
2002
0000
0000
,
0000
0000
3003
0000
,
0100
0010
1002
0000
1003
0000
2001
0000
,
3001
0120
0130
0210
,
0310
2001
3200
0000
,
0310
0000
0100
0000
1000
0100
0010
0001
0010
0100
1000
0100
0010
0001
0010
0100
,
2001
3001
1002
1003
,
1020
1030
0201
0301
,
0101
2200
0000
0000
,
0000
0000
3300
0000
,
1000
0001
2100
0000
3100
0000
0102
0000
,
0103
2010
3010
0201
,
0301
0000
2002
0000
0000
0000
3003
1000
,
0100
0001
0100
1000
0010
0100
0001
0010
,
1000
0010
1001
0100
1000
0100
0001
0100
,
1001
0010
0001
0010
1000
0010
0101
0001
,
0100
0001
0100
1000
2020
3030
0220
0330
,
0202
0303
1100
0001
0010
0100
1000
0100
,
0011
0100
1000
0100
0010
0001
0110
1000
,
0100
0010
0001
0010
2002
3003
0220
0330
,
2200
3300
1001
0100
0000
0100
0000
0010
,
0000
0010
0000
1000
0000
1000
0000
0001
,
0000
0100
0010
0100
1001
0000
0100
0000
0100
0000
0101
0000
0001
0000
0001
0000
,
0011
0010
0010
1010
1000
1000
1001
0220
,
0000
0000
0330
0000
1001
0000
1000
0100
0010
0000
0001
0010
0100
0000
1000
0100
,
0001
0000
0001
0010
1000
0000
0100
0010
0100
0000
0001
0100
0001
0000
1000
0010
,
0100
0000
0001
0100
0010
0000
1000
0100
1000
0000
0001
0010
0100
0000
0010
0100
,
0010
0000
0100
1000
0010
0000
0100
0010
1000
0000
0010
0100
0001
0000
1000
0100
,
0001
0010
1100
0100
0100
0110
0010
0010
,
1010
1000
1000
1001
0001
0001
0101
2020
,
3030
0000
0000
0000
1001
0000
0100
0010
0100
0000
0011
0000
0000
0000
1000
0100
,
0001
0000
1000
0100
1000
0000
0001
0010
1000
0000
0110
0000
0000
0000
0001
0010
,
0001
0000
0100
1000
0100
0000
0010
0100
1000
0000
1001
0000
0000
0000
1000
0100
,
0010
0000
1000
0100
0001
0000
0100
0000
0010
0000
1000
0000
0001
0000
0100
0000
,
0001
0010
1000
0100
0010
0001
0010
0100
,
0010
0001
0010
1000
0010
0001
0020
2030
,
3000
0000
0000
0000
1001
0000
0100
0010
0001
0000
1100
0000
0000
0000
0010
0100
,
1000
0000
1000
0100
0001
0000
0100
1000
0010
0000
0101
0000
0000
0000
0100
0010
,
0100
0000
0001
0010
0001
0000
1000
0100
1000
0000
0110
0000
0000
0000
0010
0001
,
0100
0000
1000
0100
0010
0000
0001
0000
0010
0000
0100
0000
1000
0000
0100
0000
,
0001
0100
0010
1000
0010
0100
0001
0100
,
0001
0010
1000
0100
1000
0010
0100
0001
,
0100
0010
2002
0000
0000
0000
0000
3003
,
2000
3000
0220
0000
0000
0000
0330
0000
,
1100
0000
2002
0000
0000
0000
0000
3003
,
0002
0003
0220
0000
0000
0000
0000
0330
,
0000
0000
0011
0000
0110
0000
2000
3000
,
0100
0010
2002
3003
0000
0000
1001
0000
,
0010
0100
1001
0010
0100
1000
0001
0100
,
0010
1000
0001
0010
0100
0010
0001
0100
,
0010
0100
2002
3003
0200
0320
0000
0000
,
0000
0030
0000
0000
,
0100
0010
1001
0010
1000
0010
0001
0100
,
0010
1000
0010
1000
0100
0010
0001
1000
,
0100
1000
0011
0010
0010
0110
0100
0100
,
2200
3300
1100
0100
0100
0110
0010
0010
,
0011
0001
0001
0010
0100
1000
0100
0010
,
1000
0100
0001
0100
1000
0010
0100
0001
,
0100
0000
0000
0000
0000
0000
0010
0000
0000
0000
0000
0000
2000
0000
0000
0000
0000
0000
0000
0000
3200
0000
0000
0000
0300
0000
0000
0020
0000
0000
0000
0000
0000
0000
0000
0000
0000
0000
0000
0000
0000
0000
0000
0000
0000
0000
0000
0000
,
0000
0030
1100
0011
,
0110
0100
1001
0000
0101
0000
1100
0000
,
1010
0000
1001
0000
0100
0010
0000
0101
,
0000
0220
0000
0000
0000
0000
0330
0000
,
0000
0000
1000
0100
0000
0010
0000
1100
,
0000
0000
0000
0000
1000
0100
0010
0100
1000
0000
0000
0000
0100
0010
0100
0010
,
0100
0000
0001
0010
0100
1000
0000
0000
0010
0100
0010
0100
0000
0000
1000
0100
,
0010
0001
0000
0000
0010
0100
0010
0100
2002
0000
3003
0000
2200
0000
3300
0000
,
0220
0000
0330
0000
1000
0100
0010
0001
1000
0100
0010
0001
1000
0010
0100
0001
,
1000
0010
0100
0001
1000
0100
0010
0001
0100
0010
0100
0010
1000
0001
0100
0010
,
1000
0001
0100
0010
0001
0010
0100
1000
0001
0010
0100
1000
0001
0100
0010
1000
,
0001
0100
0010
0100
1001
0000
0000
0000
0101
0000
0000
0000
0110
0000
0000
0000
,
1100
0000
0002
0203
0300
0220
0000
0000
,
0000
0000
0330
0000
1001
0000
0100
0010
0100
0000
0011
0000
0000
0000
0001
0010
,
1000
0000
1000
0100
0001
0000
0100
0010
0100
0000
0010
0000
0100
0000
0001
0000
,
0010
1000
1100
0100
0110
0010
0011
0010
,
1010
1000
1001
0100
0010
0100
0020
0230
,
0000
0000
0300
0000
1001
0000
0010
0100
1000
0000
0110
0000
0000
0000
0001
0100
,
0010
0000
1000
0100
0011
0000
1000
0100
1000
0000
0101
0000
0000
0000
0001
0010
,
1100
0000
0010
0100
0010
0000
1000
0100
0011
0000
1100
0000
0000
0000
0100
0010
,
1001
0000
0010
0100
0001
0000
0100
0000
0010
0000
1000
0000
0100
0000
0001
0000
,
0100
0010
1001
0001
0101
0100
1100
1000
,
1010
0010
0011
0001
0101
0010
1100
0001
,
0110
1000
2002
0000
0000
0000
0000
3003
,
0200
0300
2020
0000
0000
0000
0000
3030
,
0002
0003
2200
0000
0000
0000
0000
3300
,
0020
0030
2002
0000
0000
0000
0000
0000
,
3003
1100
0110
0011
,
0100
0010
2002
0000
3003
0000
1000
0100
,
0001
0010
0100
1000
0001
0100
0010
1000
,
0001
0100
0010
1000
0001
0100
1000
0010
,
1000
0100
0002
0000
0023
0230
0000
0000
,
0300
0101
0011
1010
,
1100
0010
0001
0010
1000
0010
0100
0001
,
1000
0100
0010
0001
0100
1000
0020
0000
,
0230
0000
0000
0300
2002
0000
0000
0000
,
0000
3003
0101
0110
,
0100
0010
1001
0100
0010
0001
0010
1000
,
0010
0001
0100
0010
1000
0010
0100
0001
,
0010
0000
0000
0000
0000
0000
0100
0000
0000
0000
0000
0000
2000
0000
0000
0000
0000
0000
3000
0000
0200
0000
0000
0000
0300
0000
0000
0020
0000
0000
0000
0000
0000
0000
0000
0000
0000
0000
0000
0000
0000
0000
0000
0000
0000
0030
0000
0000
,
0000
0110
0101
1010
,
1100
1000
0110
0011
,
1100
0000
1001
0000
1000
1000
0000
0100
,
0000
0020
0000
0000
0000
0000
0030
0000
,
0000
0000
0110
1001
0000
1010
0000
0101
,
0000
0000
1001
0000
1000
0100
0010
0100
1000
0000
0000
0000
0001
0010
0100
0010
,
0001
0000
1000
0100
0010
0001
0000
0000
0010
0100
0010
0100
0000
0000
0001
0010
,
0100
1000
0000
0000
0100
0010
0100
0010
2200
0000
3300
0000
0220
0000
0330
0000
,
0022
0000
0033
0000
1000
0100
0001
0100
1000
0000
0000
0000
0001
0010
1000
0010
,
0001
0000
1000
0010
0100
0001
0000
0000
0001
0100
0010
1000
0000
0000
0001
0010
,
0100
1000
0000
0000
0010
0100
0010
0100
2002
0000
3003
0000
2200
0000
3300
0000
,
0202
0000
0000
0303
0000
0000
1001
0000
0000
0010
0000
0100
0010
0000
0001
0000
0010
0000
1000
0000
0000
0101
0000
0010
,
0100
0000
1000
0000
0100
0000
0001
0000
0000
0110
0000
1000
0010
0000
0000
0100
0000
0000
0011
0000
0000
0100
0000
0000
,
1100
0000
0000
0001
0000
0000
0110
0000
0000
1000
0000
0100
0010
0000
0001
0000
0100
0000
0010
0000
0000
1100
0000
0010
,
0100
0000
0001
0000
0010
0000
0100
0000
0000
1001
0000
0100
0010
0000
0000
0001
0000
0000
0100
0000
0000
1010
0000
0000
,
0001
0000
0010
0000
0100
0000
1001
0000
0000
0010
0000
0001
0010
0000
0001
0000
0010
0000
0100
0000
0000
0010
0000
0100
,
0001
0000
0010
0000
1000
0000
0010
0000
0000
1000
0000
0100
0010
0000
0001
0000
0010
0000
0100
0000
0000
0010
0000
0100
,
0010
0000
0001
1000
0100
1000
0011
0000
0000
0010
0000
0100
0010
0000
1000
0000
0010
0000
1100
0000
0000
0101
0000
0010
,
0100
0000
0001
0000
1000
0000
0100
0000
0000
0010
0000
0001
0100
0000
1000
0000
0010
0000
1100
0000
0000
0010
0000
0001
,
1000
0100
0010
0001
0010
0100
1001
0000
0000
0000
0000
0000
1000
0000
0000
0100
0000
0000
1000
0000
0000
0010
0000
0000
,
1100
0000
0001
0100
0001
0010
0101
0000
,
1000
0010
1000
0100
0001
0010
0100
1000
,
0200
0300
1001
0000
1000
0100
0010
0001
,
0110
0110
0001
0100
0001
0010
1001
0100
,
1000
0001
0100
0010
1000
0010
0100
0001
,
2000
3000
0200
0000
0000
0000
0000
0000
,
0302
0000
0000
2003
,
0000
0000
3020
0230
0320
0030
0000
0000
;
