#TITLE:Dough-Nut Town's Map;
#SUBTITLE:;
#ARTIST:Plus-Tech Squeeze Box;
#TITLETRANSLIT:;
#SUBTITLETRANSLIT:;
#ARTISTTRANSLIT:;
#CREDIT:;
#BANNER:townmap.png;
#BACKGROUND:townmap-bg.png;
#LYRICSPATH:;
#CDTITLE:!fsTitle.png;
#MUSIC:townmap.mp3;
#OFFSET:-0.965;
#SAMPLESTART:45.046;
#SAMPLELENGTH:11.940;
#SELECTABLE:YES;
#BPMS:0.000=135.999,134.000=33.999,142.000=135.999,194.000=67.999,196.000=135.999,300.000=67.999,304.000=135.999,326.000=67.999,327.000=135.999,401.000=149.499;
#STOPS:;
#BGCHANGES:;
// cache tags:
#FIRSTBEAT:2.000;
#LASTBEAT:366.000;
#SONGFILENAME:Songs/Bemani.se Megapack/(fsFreak) Dough Nut Towns Map/steps.sm;
#HASMUSIC:1;
#HASBANNER:1;
#MUSICLENGTH:195.401;
// end cache tags

//---------------dance-single - fsFreak----------------
#NOTES:
     dance-single:
     fsFreak:
     Hard:
     11:
     0.781,0.773,0.113,0.051,0.975,1036.000,22.000,10.000,18.000,0.000:
0000
0000
1000
0001
,
0020
0000
0000
0030
0001
1000
0001
0010
,
0100
0000
0010
0001
0000
1000
0010
0000
0100
0000
0001
0000
1000
0000
0100
0010
,
0000
0010
0001
0000
1000
0000
0010
0000
0100
0000
0001
0000
1000
0000
0100
1000
,
0000
1000
0010
0000
0100
0000
0001
0000
0010
0000
0100
0000
1000
0010
1000
0010
,
1000
0000
0100
0000
1000
0000
0001
0000
0010
0000
0100
0000
1000
0000
0010
0100
,
0000
0100
0001
0000
1000
0000
0100
0000
0010
0000
0001
0000
0100
0000
0010
1000
,
0000
1000
0100
0000
1000
0000
0001
0000
0010
0000
0001
0000
0100
0000
0010
1000
,
0100
0000
0010
0000
0001
0000
0100
0000
0010
0000
1000
0000
0100
0010
0001
0010
,
0001
0010
00M1
1M00
,
0001
0010
0000
0001
0000
0000
0000
0000
M010
0000
0000
0000
0M01
0000
0000
0000
,
1000
0010
0000
1000
0000
0000
0100
0000
1000
0000
0001
0000
0010
0000
0000
0000
,
0M01
1000
0100
0000
1000
0001
0010
0100
,
1000
0001
1100
0011
,
1010
0000
0000
0000
0101
0000
0000
0000
1000
0000
0000
1000
0100
0000
0000
0010
,
0001
0000
0000
0000
0110
0000
0000
0010
0100
0000
1000
0010
0100
0000
0001
1000
,
0000
0100
0000
0010
0001
0000
1000
0001
0010
0100
1000
0010
0100
0001
1000
0100
,
1000
0000
1001
0000
0011
0000
0011
0000
0100
0000
1000
0000
0010
0000
1000
0001
,
0000
0100
0010
0000
1000
0000
0100
0000
0010
0000
0001
0000
0100
0000
0010
0100
,
0010
0100
0010
0000
1000
0000
0001
0000
0010
0000
0100
0000
1000
0000
0010
0100
,
0000
0100
0001
0000
1000
0000
0100
0000
0010
0000
0001
0000
0010
0000
0100
0000
,
0010
0001
0010
0100
1000
0010
0100
0001
1000
0000
0100
0000
1000
0000
0001
0010
,
0000
0010
0100
0000
0010
0000
0001
0000
1000
0000
0010
0000
0100
0000
0001
1000
,
0100
1000
0010
0000
1000
0000
0100
0000
0010
0000
0001
0000
0100
0000
0001
0100
,
0000
0100
0010
0000
1000
0000
0100
0000
0011
0000
1100
0000
0110
0000
1001
0000
,
0110
0000
1000
0000
0001
0000
1000
0000
1000
0100
0010
0001
1000
0100
0010
0001
,
0010
0100
1000
0100
0010
0100
1000
0100
0010
0001
0100
0001
0010
0100
0010
0001
,
0010
0100
1000
0100
0010
0100
0010
0001
1000
0100
0010
0001
0010
0001
0100
0010
,
1000
0100
0010
0100
1000
0100
0010
0100
1000
0010
0100
0001
0010
0100
1000
0010
,
0100
0001
0010
0001
0100
0001
0010
0001
1000
0100
1000
0100
0010
0100
1000
0001
,
0100
0000
0000
0000
0001
0000
1000
0100
1000
0000
0000
0000
0010
0000
0000
0000
,
1000
0000
0000
0000
0001
0000
0010
0001
0010
0000
0001
0000
0010
0000
0100
0000
,
1000
0010
0100
0001
1000
0100
0010
0001
0100
0010
1000
0100
0010
0001
0100
0010
,
1000
0100
1000
0010
1000
0100
1000
0010
2000
0000
0100
0100
0000
0000
0010
0000
,
0010
0000
0010
0000
0001
0000
0010
0000
0001
0000
0010
0000
0001
0010
0001
0010
,
0100
0010
0001
0010
0100
0010
0001
0000
3100
0000
1000
0000
0001
0010
0100
0000
,
0010
0000
0001
1000
0000
0010
0100
0000
0001
0000
1000
0000
0100
0000
1000
0010
,
0000
0010
1000
0000
0100
0000
1000
0000
0001
0000
0010
0000
0100
0000
1000
0010
,
1000
0010
1000
0000
0100
0000
1000
0000
0001
0000
0010
0000
0100
1000
0010
1000
,
0100
0000
1000
0000
0001
1000
0001
1000
0001
0000
1000
0000
0100
0000
0010
0000
,
0001
0000
0100
0010
0000
1000
0100
0000
1000
0000
0001
0000
1000
0000
0100
0010
,
0100
0010
0001
0000
0010
0000
0100
0000
1000
0000
0010
0000
0100
0000
0001
1000
,
0000
1000
0100
0000
1000
0000
0010
0000
0100
0001
1000
0100
0010
0001
0100
0010
,
1000
0100
0010
0001
0200
0000
0000
0000
0301
0000
1000
0000
0100
0000
0010
0001
,
0100
0000
0010
0000
1000
0000
0100
0000
1000
0000
0010
0000
1000
0000
0100
1000
,
0010
1000
0100
1000
1001
0000
0011
0000
,
1001
0000
0000
1000
0001
0010
0100
0100
,
1000
0000
1000
0000
1000
0100
0010
0001
,
0100
0000
0000
0010
0000
0000
1000
0000
0000
0100
0000
0000
2000
0000
3000
0200
0000
0000
0000
0300
0000
0000
0000
0000
,
1000
0010
1000
0000
0001
0010
0001
0000
,
0100
0010
1000
0100
0010
0001
0100
0010
1000
0000
1100
0000
0110
0000
0011
0000
,
1000
0001
0010
0100
1000
0010
1000
0100
0010
0001
0100
0010
1000
0100
0010
0001
,
0100
0010
1000
0100
1000
0010
1000
0100
1000
0001
0010
0001
0100
0010
0100
0010
,
0100
0010
1000
0100
0010
0001
0100
0010
1000
0100
1000
0001
1000
0001
0100
0010
,
0100
0010
0100
0010
1000
0100
1000
0001
0010
0100
1000
0001
0100
0010
1000
0100
,
1000
0001
1000
0010
0100
0001
1000
0001
1000
0100
1000
0010
0100
0001
1000
0100
,
0010
0001
0100
0010
1000
0100
1000
0010
1000
0100
1000
0010
1000
0001
0100
0001
,
0010
0001
0010
0100
0010
0001
0010
0100
0010
0001
0100
0010
1000
0100
0010
0001
,
0100
0010
1000
0100
1000
0010
1000
0001
0010
0001
0100
0001
0100
0010
1000
0100
,
1000
0000
0001
0000
1000
0000
0001
0010
0000
0100
0010
0000
0001
0000
0010
0001
,
0010
0000
0001
0000
0100
0000
0010
1000
0000
0100
1000
0000
0001
0000
0000
0000
,
1000
0000
0001
0000
0010
0000
0100
0010
0000
0001
0010
0000
0001
0000
0100
0010
,
1000
0000
0100
0000
1000
0000
0001
0010
0000
0001
0010
0000
0011
0000
0011
0000
,
0011
0000
0010
0000
0001
0000
1000
0010
0000
0100
0001
0000
1000
0000
0100
0010
,
0001
0000
0010
0000
0100
0000
0010
0001
0000
0010
0100
0000
0010
0000
0010
0000
,
0001
0000
1000
0000
0010
0000
0100
0001
1000
0001
1000
0000
0001
0000
1000
0010
,
0100
0001
1000
0000
0100
0000
1000
0001
1000
0001
1000
0000
0010
0000
0010
0000
,
1000
0100
0010
0001
0100
0010
1000
0100
0010
0001
0100
0000
0010
0000
1000
0000
,
0100
0010
0001
0100
0010
1000
0100
0010
0001
0100
0010
0000
1000
0000
0100
0000
,
1000
0001
1000
0100
1000
0010
1000
0100
1000
0001
1000
0000
0100
0000
0010
0001
,
0100
0001
0010
0001
0100
0001
0010
0001
0100
0001
1000
0000
0001
M000
0001
0000
,
1000
0001
0010
0001
0100
0010
1000
0000
0100
1000
0001
0000
1000
0000
0001
0010
,
0001
0100
0001
0100
0010
0100
0010
1000
0000
0001
1000
0000
0100
0000
0010
0000
,
0001
0100
0010
1000
0100
0010
0001
0100
0010
1000
0100
0010
0001
0100
0010
1000
,
0100
0010
0001
0100
0001
0100
0001
0100
0010
0000
1000
0000
0100
0000
0010
0000
,
00M2
0000
0000
0000
0003
0000
1000
0000
2M00
0000
0000
0000
3000
0000
0001
0000
0010
0000
0100
0000
1000
0100
0000
0000
0M20
0000
0000
0030
0000
0000
0000
0000
,
0001
1000
0100
0010
0001
0100
0010
1000
0100
0010
0001
0100
0010
0100
0001
0100
,
0010
0100
0001
0100
0001
0100
0001
1000
0001
1000
0010
1000
0100
1000
0001
0010
,
0001
0100
0010
1000
0100
0010
0001
0100
0010
1000
0100
1000
0010
1000
0100
1000
,
0001
1000
0001
0100
0010
0100
0010
0100
0010
0100
0001
0100
0001
0100
0010
1000
,
0100
1000
0001
0010
0001
0100
0001
1000
0001
0010
0001
0100
0001
1000
0010
1000
,
0001
0100
0010
1000
0100
0010
0001
0100
002M
0000
0000
0030
1000
0001
1000
0001
,
1000
0010
1000
0100
1000
0010
1000
0100
1000
0001
0010
0001
0010
0001
0010
0001
,
0010
0001
0100
0001
0100
0001
0100
0010
0100
0010
0100
0010
1000
0100
1000
0100
,
1000
0100
1000
0001
1000
0001
1000
0001
1000
0001
0100
0010
0100
0001
1000
0100
,
0010
0001
0100
0010
1000
0100
0010
0001
0100
0010
0100
0010
0100
0010
0100
0001
,
0100
0001
0100
0010
0100
0010
0100
0010
1000
0100
1000
0010
1000
0100
1000
0001
,
0010
0001
0010
0001
0010
0001
0010
0001
0100
0010
0100
0010
0100
0010
1000
0100
,
1000
0001
1000
0010
0100
0010
0100
0001
0100
0001
0010
0100
0010
0001
0010
0100
,
0010
0001
0010
0001
0100
0000
0001
0000
1000
0000
0001
0000
M001
0010
0100
1000
,
0M01
0010
0100
1000
0M01
0010
0100
1000
0M01
0010
0100
1000
0M01
0010
0100
1000
,
0M01
0010
0100
1000
0MM2
0000
0000
0000
0003
0000
0000
0000
0000
0000
0000
0000
;
