#TITLE:Moonlight Rave;
#SUBTITLE:;
#ARTIST:DM Ashura;
#TITLETRANSLIT:;
#SUBTITLETRANSLIT:;
#ARTISTTRANSLIT:;
#CREDIT:;
#BANNER:moonlight rave-bn.png;
#BACKGROUND:moonlight rave-bg.png;
#LYRICSPATH:;
#CDTITLE:./Catchrothy22cd.png;
#MUSIC:MoonlightRave.mp3;
#OFFSET:-0.396;
#SAMPLESTART:35.691;
#SAMPLELENGTH:12.000;
#SELECTABLE:YES;
#BPMS:0.000=169.997;
#STOPS:155.000=1.412
;
#BGCHANGES:;
// cache tags:
#FIRSTBEAT:6.000;
#LASTBEAT:313.000;
#SONGFILENAME:Songs/IzzySM Keyboard Mega Pack/Moonlight Rave/Moonlight Rave.sm;
#HASMUSIC:1;
#HASBANNER:1;
#MUSICLENGTH:114.317;
// end cache tags

//---------------dance-single - ----------------
#NOTES:
     dance-single:
     :
     Hard:
     9:
     0.617,0.650,0.306,0.017,0.000,457.000,35.000,2.000,0.000,0.000:  // measure 1
0000
0000
0000
0000
,  // measure 2
0000
0000
0000
0000
0001
1000
0000
0000
,  // measure 3
0000
0000
0000
0000
,  // measure 4
0000
0000
0000
0000
1000
0010
0000
0000
,  // measure 5
0000
0000
0000
0000
,  // measure 6
0000
0000
0000
0000
1000
0001
0000
0000
,  // measure 7
0000
0000
0000
0000
0010
0100
0000
0000
,  // measure 8
0000
0000
0000
0100
0010
0000
1001
0000
,  // measure 9
0000
0000
1000
0100
0010
0001
0010
0100
,  // measure 10
1000
0100
0010
0001
0010
0100
1001
0000
,  // measure 11
0000
0001
0010
0100
1000
0100
0010
0001
,  // measure 12
0010
0100
1000
0100
0010
0001
1001
0000
,  // measure 13
0110
0011
0110
1100
,  // measure 14
1001
0000
0000
0000
0000
0000
1000
0010
,  // measure 15
0100
0001
0100
0010
1000
0100
0010
0001
,  // measure 16
1000
0010
0100
0001
1000
0110
1000
0001
,  // measure 17
0100
0010
1000
0010
0100
0001
0010
0100
,  // measure 18
1000
0001
0100
0010
1000
1001
0100
0010
,  // measure 19
0001
0010
0100
1000
0010
0100
0001
0100
,  // measure 20
0010
1000
0100
0010
0001
0100
0010
0000
,  // measure 21
0000
0000
0000
0000
1100
0000
1000
0100
,  // measure 22
1000
0000
0110
0000
1010
0000
0001
0010
,  // measure 23
0001
0000
0101
0000
1010
0000
1000
0010
,  // measure 24
1000
0000
0101
0000
0110
0000
0010
1000
,  // measure 25
0010
0000
0100
0010
0100
0000
0001
0100
,  // measure 26
0001
0000
1000
0010
1000
0000
0100
0010
,  // measure 27
0100
0000
1000
0001
1000
0000
0100
0001
,  // measure 28
0100
0000
0010
1000
0010
0000
0100
0000
,  // measure 29
0000
0000
1000
0000
0000
0000
0100
0010
,  // measure 30
0001
0010
0000
0000
0000
0000
0001
0000
,  // measure 31
0000
0000
0010
0000
0000
0100
1000
0100
,  // measure 32
0010
0000
0000
1001
,  // measure 33
0000
0000
0000
1000
0100
0010
0001
0010
,  // measure 34
0100
1000
0010
0100
0001
0100
0010
1000
,  // measure 35
0100
0010
0001
0010
0100
1000
0010
0100
,  // measure 36
0001
1000
0100
0010
0001
1000
0010
0000
,  // measure 37
1001
0000
0000
1000
0100
0010
0001
0010
,  // measure 38
1000
0010
0100
0001
0100
0010
1000
0100
,  // measure 39
0010
0001
0100
0010
1000
0001
0110
0100
,  // measure 40
0000
0100
0000
0100
,  // measure 41
0000
0000
0100
0000
0000
0000
1000
0100
,  // measure 42
1000
0100
1000
0100
0010
0001
0100
0010
,  // measure 43
0100
0010
0100
0010
1000
0001
0100
1000
,  // measure 44
0100
1000
0100
1000
0010
0100
0001
0010
,  // measure 45
0001
0010
0001
0010
0100
1000
0100
0010
,  // measure 46
0100
0000
0001
0010
0001
0000
1000
0100
,  // measure 47
1000
0000
0001
0010
0001
0000
1000
0100
,  // measure 48
1000
0100
1000
0100
0010
1000
0001
0010
,  // measure 49
0001
0010
0001
0010
1000
0001
0100
1000
,  // measure 50
0100
1000
0100
1000
0010
0100
0001
0010
,  // measure 51
0001
0010
0001
0010
0100
0010
1000
0100
,  // measure 52
1000
0000
0001
0010
0001
0000
1000
0010
,  // measure 53
1000
0000
0001
0100
0001
0000
1000
0100
,  // measure 54
1000
0000
0100
0010
0100
0000
0001
0010
,  // measure 55
0001
0000
1000
0001
1000
0000
1001
0000
,  // measure 56
0110
0000
1001
0000
1000
0100
1000
0000
,  // measure 57
1100
0000
0011
0000
0001
0010
0001
0000
,  // measure 58
0101
0000
1010
0000
1000
0010
1000
0000
,  // measure 59
0101
0000
0010
0100
0010
0000
1000
0100
,  // measure 60
1000
0000
0010
1000
0010
0000
1000
0100
,  // measure 61
1000
0000
0001
0100
0001
0000
1000
0100
,  // measure 62
0010
0001
0010
0100
1000
0010
0100
0001
,  // measure 63
0100
0010
1000
0100
0010
0001
0010
1000
,  // measure 64
0100
0010
0001
0010
0100
1000
0010
0100
,  // measure 65
0001
0100
0010
1000
0100
0110
0001
0010
,  // measure 66
0100
1000
0001
0100
0010
1000
0100
0010
,  // measure 67
0001
1000
0010
0100
0001
1010
0100
0010
,  // measure 68
0001
0010
0100
1000
0010
0110
0001
0100
,  // measure 69
0010
1000
0010
0100
0001
1010
0100
0010
,  // measure 70
0001
1000
0010
0100
0001
0100
0010
1000
,  // measure 71
0100
0010
0001
1000
0010
0100
0001
0010
,  // measure 72
0100
1000
0100
0010
0001
1000
0010
0100
,  // measure 73
0001
0100
0010
1000
0100
0010
0100
1000
,  // measure 74
0001
0010
0001
0100
1000
0010
1000
0001
,  // measure 75
0100
0010
0100
1000
0100
0010
0001
0010
,  // measure 76
0100
1000
0010
0100
0001
0100
0010
1000
,  // measure 77
0100
1000
0011
0000
0000
0000
1100
0000
,  // measure 78
0000
2002
0000
0000
,  // measure 79
0000
3003
0000
0000
;

//---------------dance-single - ----------------
#NOTES:
     dance-single:
     :
     Challenge:
     11:
     1.000,1.000,1.000,0.017,0.993,695.000,178.000,2.000,0.000,0.000:  // measure 1
0000
0000
0000
0000
,  // measure 2
0000
0000
0000
0000
0001
1010
0000
0000
,  // measure 3
0000
0000
0000
0000
,  // measure 4
0000
0000
0000
0000
1000
0110
1001
0000
,  // measure 5
1010
0101
0110
1100
,  // measure 6
0011
0000
1001
0000
1000
0101
1010
0000
,  // measure 7
0110
0000
0011
0000
0010
0101
1010
0000
,  // measure 8
0110
0000
0011
0000
0100
1010
0110
0000
,  // measure 9
0000
0000
1100
0100
0110
0010
0011
0010
,  // measure 10
0110
0100
1100
0100
0110
0010
0011
0000
,  // measure 11
0011
0010
0110
0100
1100
0100
0110
0010
,  // measure 12
0011
0000
0010
0000
0110
0000
0100
0000
1100
0000
1000
0100
1000
0000
0100
0010
,  // measure 13
0100
0000
0001
0010
0001
0000
0010
0100
0010
0000
1000
0100
1000
0000
0000
0000
,  // measure 14
1001
0000
0000
0000
0000
0000
0000
0000
0000
0000
0000
0000
1000
0100
0010
0001
,  // measure 15
0010
0100
1000
0010
0100
0001
0100
0010
1000
0001
0010
0100
1000
0001
1000
0100
,  // measure 16
0010
0001
1000
0010
0100
0001
0010
0100
1001
0000
0110
0000
0001
0010
0100
1000
,  // measure 17
0100
0010
0001
0100
0010
1000
0010
0100
0001
1000
0100
0010
0001
1000
0001
0010
,  // measure 18
0100
1000
0001
0100
0010
1000
0100
0010
1001
0000
0110
0000
1000
0010
0100
0001
,  // measure 19
0100
0010
1000
0001
0010
0100
1000
0001
0100
0010
1000
0100
0010
0001
0010
0100
,  // measure 20
1000
0100
0010
0001
1000
0010
0100
0001
0100
0010
1000
0100
0010
0000
0000
0000
,  // measure 21
0000
0000
0000
0000
0000
0000
0000
0000
1001
0000
0000
0000
1000
0100
0010
0001
,  // measure 22
0110
0000
0000
0000
0000
0000
0000
0100
1000
0000
0000
0000
1000
0100
0000
0000
,  // measure 23
0110
0000
0000
0000
0000
0000
0000
0000
0010
0001
0000
0000
0001
0010
0000
0000
,  // measure 24
1001
0000
0000
0000
0000
0000
0000
0000
1000
0100
0000
0000
0100
0010
0000
0010
,  // measure 25
0000
0110
0000
0110
0001
0011
0101
1001
,  // measure 26
0000
1001
0000
1001
0110
0010
0110
1001
,  // measure 27
0000
1001
0000
1001
0010
0101
0010
0101
,  // measure 28
0000
0101
0000
0101
1000
0110
1010
0000
,  // measure 29
0000
0000
0000
0000
0101
0000
0000
0000
0000
0000
0000
0000
1001
0010
0100
0001
,  // measure 30
0010
0000
0000
1001
,  // measure 31
0000
0000
0000
0000
0110
0000
0000
0000
0000
0000
0000
0000
1001
0100
0010
0001
,  // measure 32
0000
0000
0000
1100
,  // measure 33
0000
0000
0000
0000
0000
0000
0000
0100
1000
0100
0010
0001
0010
0100
1000
0010
,  // measure 34
0100
0001
0100
0010
1000
0100
0010
0001
0010
0100
1000
0010
0100
0001
0100
0010
,  // measure 35
1000
0001
0010
0100
1000
0001
1000
0100
0010
0001
0010
0100
1000
0010
0100
0001
,  // measure 36
1000
0001
0010
0100
1000
0001
1000
0100
0010
0001
1000
0010
0100
0001
0100
0010
,  // measure 37
1001
0000
0000
0000
0000
0000
0000
0010
0001
0010
0100
1000
0100
0010
0001
0100
,  // measure 38
0010
1000
0010
0100
0001
0010
0100
1000
0100
0010
0001
0100
0010
1000
0010
0100
,  // measure 39
0001
0000
0000
1000
0000
0000
0100
0000
0000
0010
0000
0000
0001
0000
0000
1000
0000
0000
0001
0000
0000
0010
0000
0000
0100
0000
0000
1000
0000
0000
0100
0000
0000
0010
0000
0000
0001
0000
1001
0000
0000
0000
0000
0000
0000
0000
0000
0000
,  // measure 40
0000
1001
0000
1001
,  // measure 41
0000
0000
1001
0000
0000
0000
1100
0100
,  // measure 42
0110
0010
0011
0010
0110
0100
1100
0100
,  // measure 43
0110
0010
0011
0010
0110
0100
1100
1000
,  // measure 44
1100
0100
0101
0001
1001
1000
1010
0010
,  // measure 45
0110
0100
0101
0001
1001
1000
0110
0110
,  // measure 46
0110
0110
1001
1001
1001
1001
1010
1010
,  // measure 47
1010
1010
0101
0101
0101
0101
1001
0001
,  // measure 48
0101
0100
0110
0010
1010
1000
1001
0001
,  // measure 49
0101
0100
0110
0010
0011
0010
1010
1000
,  // measure 50
1001
0001
0011
0010
0110
0100
1100
0100
,  // measure 51
0110
0010
1010
1000
1001
1000
1010
0110
,  // measure 52
1010
0110
0101
0110
0101
0110
0110
1010
,  // measure 53
0110
1010
1001
1100
1001
1100
0110
1001
,  // measure 54
0110
1001
1100
0011
1100
0011
1010
0101
,  // measure 55
1010
0101
1100
0011
1100
0011
1000
0000
,  // measure 56
0000
0000
0000
0000
0000
0000
0000
0000
1000
0000
0000
0000
1000
0100
0000
0000
,  // measure 57
0110
0011
1100
0110
,  // measure 58
0000
0000
0000
0000
0000
0000
0000
0000
0100
0010
0000
0000
1001
0000
0000
0000
,  // measure 59
0110
0000
0000
0000
1100
0000
0000
0000
0011
0000
0000
0000
1000
0100
1000
0000
,  // measure 60
1100
0000
0000
0000
0100
0010
0100
0000
0110
0000
0000
0000
0001
0010
0001
0000
,  // measure 61
0011
0000
0000
0000
1000
0010
1000
0000
1010
0000
0000
0000
0010
0100
0010
0000
,  // measure 62
1001
0000
0110
0000
1000
0100
1000
0000
0110
0000
1001
0000
1000
0100
0010
0001
,  // measure 63
0010
0100
1000
0010
0100
0001
0100
0010
1000
0100
0010
0001
1000
0100
0010
0001
,  // measure 64
1000
0010
0100
0001
0100
0010
1000
0001
0010
0100
1000
0100
0010
0001
1000
0010
,  // measure 65
0100
0001
1000
0010
0100
0001
1000
0100
1010
0000
0101
0000
1000
0100
0010
0001
,  // measure 66
1000
0001
0010
0100
1000
0001
1000
0100
0010
0001
0010
0100
1000
0010
0100
0001
,  // measure 67
0100
0010
1000
0100
0010
0001
1000
0100
0011
0000
1100
0000
0001
0010
0100
1000
,  // measure 68
0100
0010
0001
0010
0100
1000
0100
0010
0110
0000
1001
0000
1000
0100
0010
0001
,  // measure 69
0010
0100
1000
0100
0010
0001
0010
0100
1001
0000
0110
0000
1000
0100
0010
0001
,  // measure 70
0010
0100
1000
0001
1000
0100
0010
0001
1000
0001
0010
0100
1000
0001
1000
0010
,  // measure 71
0100
0001
1000
0001
0100
0010
1000
0100
0010
0001
1000
0010
0100
0001
0010
0100
,  // measure 72
1000
0001
0100
0010
1000
0100
0010
0001
1000
0100
0010
0001
0010
0100
1000
0001
,  // measure 73
0010
0100
1000
0001
1000
0010
0100
0001
1000
0001
0100
0010
1000
0100
0010
0001
,  // measure 74
0010
0100
1000
0010
0100
0001
1000
0010
0100
0001
0100
0010
1000
0100
0010
0001
,  // measure 75
1000
0001
1000
0100
0010
0001
1000
0001
0010
0100
1000
0001
1000
0001
0010
0100
,  // measure 76
1000
0010
0100
0001
1000
0010
0100
0001
1000
0100
0010
0001
1000
0100
0010
0001
,  // measure 77
1000
0010
0100
0001
0110
0000
0000
0000
0000
0000
0000
0000
1001
0000
0000
0000
,  // measure 78
0000
2002
0000
0000
,  // measure 79
0000
3003
0000
0000
;
