#TITLE:Eye Opener;
#SUBTITLE:;
#ARTIST:Brisk & Trixxy;
#TITLETRANSLIT:;
#SUBTITLETRANSLIT:;
#ARTISTTRANSLIT:;
#CREDIT:owenviau1;
#BANNER:../owenviau1 Simfiles 6 (Science X Owen).png;
#BACKGROUND:BG.png;
#LYRICSPATH:;
#CDTITLE:;
#MUSIC:Brisk & Trixxy - Eye Opener.mp3;
#OFFSET:-0.277;
#SAMPLESTART:103.929;
#SAMPLELENGTH:29.999;
#SELECTABLE:YES;
#DISPLAYBPM:185.142;
#BPMS:0.000=185.142;
#STOPS:;
#BGCHANGES:;
// cache tags:
#FIRSTBEAT:0.000;
#LASTBEAT:1111.750;
#SONGFILENAME:Songs/owenviau1 Simfiles 6/Eye Opener - [owenviau1] v1.0.0/Eye Opener.sm;
#HASMUSIC:1;
#HASBANNER:1;
#MUSICLENGTH:364.042;
// end cache tags

//---------------dance-single - 16- (owenviau1)----------------
#NOTES:
     dance-single:
     16- (owenviau1):
     Challenge:
     16:
     1.000,1.000,0.514,0.272,1.000,3783.000,187.000,99.000,30.000,10.000:

1001
0000
0010
0000
0101
0000
0010
1000
0001
0000
0010
0000
1100
0000
0010
1000
,
0001
0000
0100
0000
1001
0000
0010
0000
1100
0000
0010
0000
1001
0000
0100
0001
,
1000
0000
0010
0000
0101
0000
1000
0100
0010
0000
0001
0000
0110
0000
1000
0010
,
0100
0000
0001
0000
1100
0000
0010
0000
1001
0000
0010
0000
0101
0000
1000
0010
,
0100
0000
0010
0000
1001
0000
0010
1000
0001
0000
0010
0000
1100
0000
0001
0100
,
0001
0000
0010
0000
1001
0000
0100
0000
1100
0000
0010
0000
1001
0000
0100
0001
,
1000
0000
0010
0000
0101
0000
1000
0100
0010
0000
0001
0000
0110
0000
1000
0010
,
0100
0000
0001
0000
1100
0000
0010
0000
1001
0000
0010
0000
0101
0000
1000
0010
,
0100
0000
0010
0000
1001
0000
0100
0010
0001
0000
0010
0000
1100
0000
0010
1000
,
0001
0000
0100
0000
1001
0000
0010
0000
1100
0000
0010
0000
1001
0000
0100
0001
,
1000
0000
0010
0000
0101
0000
1000
0100
0010
0000
0001
0000
0110
0000
1000
0010
,
0100
0000
0001
0000
1100
0000
0010
0000
1001
0000
0010
0000
0101
0000
1000
0010
,
0100
0000
0010
0000
1001
0000
1000
0100
0010
0000
0001
0000
1100
0000
0010
1000
,
0001
0000
0100
0000
1001
0000
0010
0000
1100
0000
0010
0000
1001
0000
0100
0001
,
1000
0000
0010
0000
0101
0000
1000
0100
0010
0000
0001
0000
0110
0000
1000
0010
,
0100
0001
1100
0010
0101
0010
1001
0000
,
1000
0100
0010
0001
0100
0010
1000
0001
0010
0001
0100
0010
1000
0100
1000
0001
,
0100
0010
1000
0001
0010
0001
0100
0010
0100
0001
1000
0001
0100
0010
1000
0100
,
0010
0001
1000
0010
1000
0001
0100
0010
1000
0100
1000
0001
0100
0010
1000
0001
,
0010
0100
1000
0100
0010
0001
0100
0010
0100
0001
1000
0100
1000
0010
0100
0001
,
1000
0100
0010
0001
0100
0010
1000
0001
0010
0001
0100
0010
1000
0100
0010
0001
,
1000
0001
0100
0010
0100
0001
1000
0010
0100
0010
1000
0100
1000
0001
0100
0001
,
1000
0010
0100
0001
1000
0100
0010
0001
0100
0010
1000
0001
0010
0100
1000
0001
,
0100
0001
1000
0010
1000
0001
0100
0010
1000
0100
0010
0001
1000
0010
0100
0001
,
10M0
0100
0010
0001
0100
0010
1000
0001
0010
0001
0100
0010
1000
0100
1000
0001
,
0100
0010
1000
0001
0010
0001
0100
0010
0100
0001
1000
0001
0100
0010
1000
0100
,
0010
0001
1000
0010
1000
0001
0100
0010
1000
0100
1000
0001
0100
0010
1000
0001
,
0010
0100
1000
0100
0010
0001
0100
0010
0100
0001
1000
0100
1000
0010
0100
0001
,
1000
0100
0010
0001
0100
0010
1000
0001
0010
0001
0100
0010
1000
0100
0010
0001
,
1000
0001
0100
0010
0100
0001
1000
0010
0100
0010
1000
0100
1000
0001
0100
0001
,
1000
0010
0100
0001
1000
0100
0010
0001
0100
0010
1000
0001
0010
0100
1000
0001
,
0200
0320
2130
3002
0123
1030
0101
0010
,
100M
0100
0010
0001
0100
0010
1000
0001
0010
0001
0100
0010
1000
0100
1000
0001
,
0100
0010
1000
0001
0010
0001
0100
0010
0100
0001
1000
0001
0100
0010
1000
0100
,
0010
0001
1000
0010
1000
0001
0100
0010
1000
0100
1000
0001
0100
0010
1000
0001
,
0010
0100
1000
0100
0010
0001
0100
0010
0100
0001
1000
0100
1000
0010
0100
0001
,
1000
0100
0010
0001
0100
0010
1000
0001
0010
0001
0100
0010
1000
0100
0010
0001
,
1000
0001
0100
0010
0100
0001
1000
0010
0100
0010
1000
0100
1000
0001
0100
0001
,
1000
0010
0100
0001
1000
0100
0010
0001
0100
0010
1000
0001
0010
0100
1000
0001
,
0100
0001
1000
0010
1000
0001
0100
0010
1000
0100
0010
0001
1000
0010
0100
0001
,
1000
0100
0010
0001
0100
0010
1000
0001
0010
0001
0100
0010
1000
0100
1000
0001
,
0100
0010
1000
0001
0010
0001
0100
0010
0100
0001
1000
0001
0100
0010
1000
0100
,
0010
0001
1000
0010
1000
0001
0100
0010
1000
0100
1000
0001
0100
0010
1000
0001
,
0010
0100
1000
0100
0010
0001
0100
0010
0100
0001
1000
0100
1000
0010
0100
0001
,
1000
0100
0010
0001
0100
0010
1000
0001
0010
0001
0100
0010
1000
0100
0010
0001
,
1000
0001
0100
0010
0100
0001
1000
0010
0100
0010
1000
0100
1000
0001
0100
0001
,
1000
0010
0100
0001
1000
0100
0010
0001
0100
0010
1000
0001
0010
0100
1000
0001
,
0100
0001
1000
0010
1000
0001
0100
0010
1000
0100
0010
0001
1000
0010
0100
0001
,
1000
0000
1000
0100
0000
0100
0010
0000
0001
0000
1000
0010
0000
0010
0100
0000
,
0001
0000
1000
0100
0000
0010
0001
0000
1000
0000
0010
0100
0000
0100
0001
0000
,
1000
0000
0100
0010
0000
0010
0001
0000
1000
0000
0010
1000
0000
0010
0100
0000
,
0001
0000
1000
0100
0000
1000
0001
0000
0100
0000
0010
1000
0000
0001
0100
0000
,
1001
0000
0010
0100
00M1
1000
0010
0000
0100
0000
1000
0010
0000
0010
0100
0000
,
0001
0000
1000
0100
0000
0010
0001
0000
1000
0000
0010
0100
0000
0100
0001
0000
,
1000
0000
0100
0010
0000
0010
0001
0000
1000
0000
0010
1000
0000
0010
0100
0000
,
00M1
0000
1000
0100
0000
1000
0001
0000
010M
0000
0010
1000
00M0
0001
0100
0000
,
001M
0000
1000
0010
0000
0010
0100
0000
0001
0000
1000
0100
0000
0010
0001
0000
,
1000
0000
0010
0100
0000
0100
0001
0000
1000
0000
0100
0010
0000
0010
0001
0000
,
1000
0000
0010
1000
0000
0100
0010
0000
0001
0000
1000
0100
0000
1000
0001
0000
,
0100
0000
0010
1000
0000
0001
0100
0000
0001
0000
1000
0010
0000
0010
0100
0000
,
0011
0000
1000
0100
M010
0001
1000
0001
0100
0010
1000
0100
0010
0001
0100
0010
,
0100
0001
1000
0100
1000
0010
0100
0001
1000
0100
0010
0001
1000
0001
0010
0100
,
10M0
0001
0100
0010
1000
0100
0010
0001
M100
0010
1000
0001
0010
0001
0100
0010
,
M100
0001
1000
0001
M100
0010
1000
0100
M010
0001
1000
0010
M100
0001
1000
0010
,
0200
0000
0000
0000
0320
0032
2003
3020
,
0200
0000
0030
0000
0302
2003
3002
0203
,
0020
0000
2330
3002
0000
0003
0000
2000
,
3200
0000
0002
0003
0020
0030
2000
3000
,
2301
0010
0101
0000
3020
2030
3002
0203
,
0020
0000
0300
0000
2030
3200
0320
0032
,
2000
0003
3020
0230
0000
0300
0000
0002
,
1203
0300
0020
0030
2001
3000
0201
0320
,
1030
0100
0010
0001
0100
0010
1000
0001
0010
0001
0100
0010
1000
0100
1000
0001
,
0100
0010
1000
0001
0010
0001
0100
0010
0100
0001
1000
0001
0100
0010
1000
0100
,
0010
0001
1000
0010
1000
0001
0100
0010
1000
0100
1000
0001
0100
0010
1000
0001
,
0010
0100
1000
0100
0010
0001
0100
0010
0100
0001
1000
0100
1000
0010
0100
0001
,
1000
0100
0010
0001
0100
0010
1000
0001
0010
0001
0100
0010
1000
0100
0010
0001
,
1000
0001
0100
0010
0100
0001
1000
0010
0100
0010
1000
0100
1000
0001
0100
0001
,
1000
0010
0100
0001
1000
0100
0010
0001
0100
0010
1000
0001
0010
0100
1000
0001
,
0100
0001
1000
0010
1000
0001
0100
0010
1000
0100
0010
0001
1000
0010
0100
0001
,
10M0
0100
0010
0001
0100
0010
1000
0001
0010
0001
0100
0010
1000
0100
1000
0001
,
0100
0010
1000
0001
0010
0001
0100
0010
0100
0001
1000
0001
0100
0010
1000
0100
,
0010
0001
1000
0010
1000
0001
0100
0010
1000
0100
1000
0001
0100
0010
1000
0001
,
0010
0100
1000
0100
0010
0001
0100
0010
0100
0001
1000
0100
1000
0010
0100
0001
,
1000
0100
0010
0001
0100
0010
1000
0001
0010
0001
0100
0010
1000
0100
0010
0001
,
1000
0001
0100
0010
0100
0001
1000
0010
0100
0010
1000
0100
1000
0001
0100
0001
,
1000
0010
0100
0001
1000
0001
0100
0010
1000
0100
1000
0001
0100
0010
1000
0001
,
0200
0300
0020
0030
0002
0003
0200
0320
,
1030
0100
0010
0001
0100
0010
1000
0001
0010
0001
0100
0010
1000
0100
1000
0001
,
0100
0010
1000
0001
0010
0001
0100
0010
0100
0001
1000
0001
0100
0010
1000
0100
,
0010
0001
1000
0010
1000
0001
0100
0010
1000
0100
1000
0001
0100
0010
1000
0001
,
0010
0100
1000
0100
0010
0001
0100
0010
0100
0001
1000
0100
1000
0010
0100
0001
,
1000
0100
0010
0001
0100
0010
1000
0001
0010
0001
0100
0010
1000
0100
0010
0001
,
1000
0001
0100
0010
0100
0001
1000
0010
0100
0010
1000
0100
1000
0001
0100
0001
,
1000
0010
0100
0001
1000
0100
0010
0001
0100
0010
1000
0001
0010
0100
1000
0001
,
0100
0001
1000
0010
1000
0001
0100
0010
1000
0100
0010
0001
1000
0010
0100
0001
,
10M0
0100
0010
0001
0100
0010
1000
0001
0010
0001
0100
0010
1000
0100
1000
0001
,
0100
0010
1000
0001
0010
0001
0100
0010
0100
0001
1000
0001
0100
0010
1000
0100
,
0010
0001
1000
0010
1000
0001
0100
0010
1000
0100
1000
0001
0100
0010
1000
0001
,
0010
0100
1000
0100
0010
0001
0100
0010
0100
0001
1000
0100
1000
0010
0100
0001
,
1000
0100
0010
0001
0100
0010
1000
0001
0010
0001
0100
0010
1000
0100
0010
0001
,
1000
0001
0100
0010
0100
0001
1000
0010
0100
0010
1000
0100
1000
0001
0100
0001
,
1000
0010
0100
0001
1000
0100
0010
0001
0100
0010
1000
0001
0010
0001
0100
0010
,
1000
0100
1000
0001
0100
0010
1000
0001
0010
0001
0100
0010
0100
0001
1000
0001
,
M100
0010
1000
0100
0010
0001
1000
0010
1000
0001
0100
0010
1000
0100
1000
0001
,
0100
0010
1000
0001
0010
0100
1000
0100
0010
0001
0100
0010
0100
0001
1000
0100
,
1000
0010
0100
0001
1000
0100
0010
0001
0100
0010
1000
0001
0010
0001
0100
0010
,
1000
0100
0010
0001
1000
0001
0100
0010
0100
0001
1000
0010
0100
0010
1000
0100
,
1000
0001
0100
0001
1000
0010
0100
0001
1000
0100
0010
0001
0100
0010
1000
0001
,
0010
0100
1000
0001
0100
0001
1000
0010
1000
0001
0100
0010
1000
0100
0010
0001
,
1000
0010
0100
0001
1000
0100
0010
0001
0100
0010
1000
0001
0010
0001
0100
0010
,
1000
0100
1000
0001
0100
0010
1000
0001
0010
0001
0100
0010
0100
0001
1000
0001
,
M100
0010
1000
0100
0010
0001
1000
0010
1000
0001
0100
0010
1000
0100
1000
0001
,
0100
0010
1000
0001
0010
0100
1000
0100
0010
0001
0100
0010
0100
0001
1000
0100
,
1000
0010
0100
0001
1000
0100
0010
0001
0100
0010
1000
0001
0010
0001
0100
0010
,
1000
0100
0010
0001
1000
0001
0100
0010
0100
0001
1000
0010
0100
0010
1000
0100
,
1000
0001
0100
0001
1000
0010
0100
0001
1000
0100
0010
0001
0100
0010
1000
0001
,
0010
0001
0100
0010
1000
0100
1000
0001
0100
0010
1000
0001
0010
0001
0100
0010
,
0100
0001
1000
0001
0100
0010
1000
0100
0010
0001
1000
0010
1000
0001
0100
0010
,
1000
0100
1000
0001
0100
0010
1000
0001
0010
0100
1000
0100
0010
0001
0100
0010
,
1000
0100
0010
0001
1010
1010
0001
0110
,
0110
0001
1100
1100
0001
0110
0110
0001
,
0100
1001
1001
0010
1100
1100
0010
0101
,
0101
1000
0110
0110
1000
0011
0011
1000
,
0101
0010
1100
0001
1100
1100
0001
0110
,
0110
0001
1100
1100
0001
1010
1010
0100
,
1000
0011
0011
1000
0101
0101
0010
1001
,
1001
0100
1010
1010
1100
0101
0011
0100
,
1001
0100
0010
0001
1010
1010
0001
0110
,
0110
0001
1100
1100
0001
0110
0110
0001
,
0100
1001
1001
0010
1100
1100
0010
0101
,
0101
1000
0110
0110
1000
0011
0011
1000
,
0101
0010
1100
0001
1100
1100
0001
0110
,
0110
0001
1100
1100
0001
1010
1010
0100
,
1000
0011
0011
1000
0101
0101
0010
1001
,
1001
0100
1010
1010
0100
0011
0011
0100
,
1010
0100
0010
0001
1010
1010
0001
0110
,
0110
0001
1100
1100
0001
0110
0110
0001
,
0100
1001
1001
0010
1100
1100
0010
0101
,
0101
1000
0110
0110
1000
0011
0011
1000
,
0101
0010
1100
0001
1100
1100
0001
0110
,
0110
0001
1100
1100
0001
1010
1010
0100
,
1000
0011
0011
1000
0101
0101
0010
1001
,
1001
0100
1010
1010
1100
0101
0011
0100
,
1001
0100
0010
0001
1010
1010
0001
0110
,
0110
0000
0001
0000
1000
0100
0010
0001
0100
0010
1000
0001
0010
0001
0100
0010
,
1000
0100
1000
0001
0100
0010
1000
0001
0010
0001
0100
0010
0100
0001
1000
0001
,
0100
0010
1000
0100
0010
0001
1000
0010
1000
0001
0100
0010
1000
0100
1000
0001
,
M100
0010
1000
0001
M010
0100
1000
0100
0010
0001
0100
0010
0100
0001
1000
0100
,
1000
0010
0100
0001
1000
0100
0010
0001
0100
0010
1000
0001
0010
0001
0100
0010
,
1000
0100
0010
0001
1000
0001
0100
0010
0100
0001
1000
0010
0100
0010
1000
0100
,
10M0
0001
0110
0110
0001
1010
1010
0001
,
1000
0010
0100
0001
1000
0001
0100
0010
1000
0001
0100
0010
1000
0100
0010
0001
,
1000
0010
0100
0001
1000
0100
0010
0001
0100
0010
1000
0001
0010
0001
0100
0010
,
1000
0100
1000
0001
0100
0010
1000
0001
0010
0001
0100
0010
0100
0001
1000
0001
,
0100
0010
1000
0100
0010
0001
1000
0010
1000
0001
0100
0010
1000
0100
1000
0001
,
0100
0010
1000
0001
0010
0100
1000
0100
0010
0001
0100
0010
0100
0001
1000
0100
,
1000
0010
0100
0001
1000
0100
0010
0001
0100
0010
1000
0001
0010
0001
0100
0010
,
1000
0100
0010
0001
1000
0001
0100
0010
0100
0001
1000
0010
0100
0010
1000
0100
,
2000
3002
0203
0000
0020
0030
0320
0030
,
1000
0001
0100
0010
1000
0100
1000
0001
0100
0010
1000
0001
0010
0001
0100
0010
,
0100
0001
1000
0001
0100
0010
1000
0100
0010
0001
1000
0010
1000
0001
0100
0010
,
1000
0100
1000
0001
0100
0010
1000
0001
0010
0100
1000
0100
0010
0001
0100
0010
,
0100
0001
1000
0100
1000
0010
0100
0001
1000
0100
0010
0001
0100
0010
1000
0001
,
0010
0001
0100
0010
1000
0100
0010
0001
1000
0001
0100
0010
0100
0001
1000
0010
,
0100
0010
1000
0100
1000
0001
0100
0001
1000
0010
0100
0001
1000
0100
0010
0001
,
0100
0010
1000
0001
0010
0100
1000
0001
0100
0001
1000
0010
1000
0001
0100
0010
,
1000
0100
0010
0001
1000
0010
0100
0001
1000
0100
0010
0001
0100
0010
1000
0001
,
0M10
0001
0100
0010
1000
0100
1000
0001
0100
0010
1000
0001
0010
0001
0100
0010
,
0100
0001
1000
0001
0100
0010
1000
0100
0010
0001
1000
0010
1000
0001
0100
0010
,
1000
0100
1000
0001
0100
0010
1000
0001
0010
0100
1000
0100
0010
0001
0100
0010
,
0100
0001
1000
0100
1000
0010
0100
0001
1000
0100
0010
0001
0100
0010
1000
0001
,
0010
0001
0100
0010
1000
0100
0010
0001
1000
0001
0100
0010
0100
0001
1000
0010
,
0100
0010
1000
0100
1000
0001
0100
0001
1000
0010
0100
0001
1000
0100
0010
0001
,
0100
0010
1000
0001
0010
0001
0100
0010
1000
0100
1000
0001
0100
0010
1000
0001
,
0020
0230
2300
0000
0002
0003
3002
0003
,
1M10
0000
1000
0100
0000
0100
0010
0000
0001
0000
1000
0010
0000
0010
0100
0000
,
0001
0000
1000
0100
0000
0010
0001
0000
1000
0000
0010
0100
0000
0100
0001
0000
,
1000
0000
0100
0010
0000
0010
0001
0000
1000
0000
0010
1000
0000
0010
0100
0000
,
0001
0000
1000
0100
0000
1000
0001
0000
0100
0000
0010
1000
0000
0001
0100
0000
,
1001
0000
0010
0100
00M1
1000
0010
0000
0100
0000
1000
0010
0000
0010
0100
0000
,
0001
0000
1000
0100
0000
0010
0001
0000
1000
0000
0010
0100
0000
0100
0001
0000
,
1000
0000
0100
0010
0000
0010
0001
0000
1000
0000
0010
1000
0000
0010
0100
0000
,
0101
0000
1000
0100
0000
1000
0001
0000
0110
0000
0010
1000
00M0
0001
0100
0000
,
0010
1000
0001
0100
0010
1000
0100
1000
0001
0100
0010
1000
0001
0100
0001
1000
,
0010
0100
0001
1000
0100
0010
0001
0100
0010
0100
0001
1000
0100
1000
0010
0100
,
0001
1000
0100
0010
0001
0100
0010
1000
0001
0010
0001
1000
0100
1000
0001
0100
,
0001
1000
0100
1000
0010
0100
0010
1000
0001
0010
0001
0100
0010
1000
0100
0010
,
0001
1000
0001
0010
0100
1000
0010
0100
0001
1000
0100
1000
0010
0100
0001
1000
,
0010
1000
0001
0100
0001
1000
0100
1000
0001
0100
0001
1000
0010
0100
0001
1000
,
0100
0010
0001
1000
0010
0100
0001
0100
0010
1000
0100
0010
0001
0100
0010
1000
,
0001
0010
0001
1000
0001
0100
0010
1000
0100
0010
0001
1000
0010
0100
0001
1000
,
0200
0000
0000
0000
0320
0032
2003
3020
,
0200
0000
0030
0000
0302
2003
3002
0203
,
0020
0000
2330
3002
0000
0003
0000
2000
,
3200
0000
0002
0003
0020
0030
2000
3000
,
2301
0010
0101
0000
3020
2030
3002
0203
,
0020
0000
0300
0000
2030
3200
0320
0032
,
2000
0003
3020
0230
0000
0300
0000
0002
,
1203
0300
0020
0030
2001
3000
0201
0320
,
1030
0100
0010
0001
0100
0010
1000
0001
0010
0001
0100
0010
1000
0100
1000
0001
,
0100
0010
1000
0001
0010
0001
0100
0010
0100
0001
1000
0001
0100
0010
1000
0100
,
0010
0001
1000
0010
1000
0001
0100
0010
1000
0100
1000
0001
0100
0010
1000
0001
,
0010
0100
1000
0100
0010
0001
0100
0010
0100
0001
1000
0100
1000
0010
0100
0001
,
1000
0100
0010
0001
0100
0010
1000
0001
0010
0001
0100
0010
1000
0100
0010
0001
,
1000
0001
0100
0010
0100
0001
1000
0010
0100
0010
1000
0100
1000
0001
0100
0001
,
1000
0010
0100
0001
1000
0100
0010
0001
0100
0010
1000
0001
0010
0100
1000
0001
,
0100
0001
1000
0010
1000
0001
0100
0010
1000
0100
0010
0001
1000
0010
0100
0001
,
10M0
0100
0010
0001
0100
0010
1000
0001
0010
0001
0100
0010
1000
0100
1000
0001
,
0100
0010
1000
0001
0010
0001
0100
0010
0100
0001
1000
0001
0100
0010
1000
0100
,
0010
0001
1000
0010
1000
0001
0100
0010
1000
0100
1000
0001
0100
0010
1000
0001
,
0010
0100
1000
0100
0010
0001
0100
0010
0100
0001
1000
0100
1000
0010
0100
0001
,
1000
0100
0010
0001
0100
0010
1000
0001
0010
0001
0100
0010
1000
0100
0010
0001
,
1000
0001
0100
0010
0100
0001
1000
0010
0100
0010
1000
0100
1000
0001
0100
0001
,
1000
0010
0100
0001
1000
0001
0100
0010
1000
0100
1000
0001
0100
0010
1000
0001
,
0200
0300
0020
0030
0002
0003
0200
0320
,
103M
0100
0010
0001
0100
0010
1000
0001
0010
0001
0100
0010
1000
0100
1000
0001
,
0100
0010
1000
0001
0010
0001
0100
0010
0100
0001
1000
0001
0100
0010
1000
0100
,
0010
0001
1000
0010
1000
0001
0100
0010
1000
0100
1000
0001
0100
0010
1000
0001
,
0010
0100
1000
0100
0010
0001
0100
0010
0100
0001
1000
0100
1000
0010
0100
0001
,
1000
0100
0010
0001
0100
0010
1000
0001
0010
0001
0100
0010
1000
0100
0010
0001
,
1000
0001
0100
0010
0100
0001
1000
0010
0100
0010
1000
0100
1000
0001
0100
0001
,
1000
0010
0100
0001
1000
0100
0010
0001
0100
0010
1000
0001
0010
0100
1000
0001
,
0100
0001
1000
0010
1000
0001
0100
0010
1000
0100
0010
0001
1000
0010
0100
0001
,
10M0
0100
0010
0001
0100
0010
1000
0001
0010
0001
0100
0010
1000
0100
1000
0001
,
0100
0010
1000
0001
0010
0001
0100
0010
0100
0001
1000
0001
0100
0010
1000
0100
,
0010
0001
1000
0010
1000
0001
0100
0010
1000
0100
1000
0001
0100
0010
1000
0001
,
0010
0100
1000
0100
0010
0001
0100
0010
0100
0001
1000
0100
1000
0010
0100
0001
,
1000
0100
0010
0001
0100
0010
1000
0001
0010
0001
0100
0010
1000
0100
0010
0001
,
1000
0001
0100
0010
0100
0001
1000
0010
0100
0010
1000
0100
1000
0001
0100
0001
,
1000
0010
0100
0001
1000
0100
0010
0001
0100
0010
1000
0001
0010
0001
0100
0010
,
1000
0100
1000
0001
0100
0010
1000
0001
0010
0001
0100
0010
0100
0001
1000
0001
,
M100
0010
1000
0100
0010
0001
1000
0010
1000
0001
0100
0010
1000
0100
1000
0001
,
0100
0010
1000
0001
0010
0100
1000
0100
0010
0001
0100
0010
0100
0001
1000
0100
,
1000
0010
0100
0001
1000
0100
0010
0001
0100
0010
1000
0001
0010
0001
0100
0010
,
1000
0100
0010
0001
1000
0001
0100
0010
0100
0001
1000
0010
0100
0010
1000
0100
,
1000
0001
0100
0001
1000
0010
0100
0001
1000
0100
0010
0001
0100
0010
1000
0001
,
0010
0100
1000
0001
0100
0001
1000
0010
1000
0001
0100
0010
1000
0100
0010
0001
,
1000
0010
0100
0001
1000
0100
0010
0001
0100
0010
1000
0001
0010
0001
0100
0010
,
1000
0100
1000
0001
0100
0010
1000
0001
0010
0001
0100
0010
0100
0001
1000
0001
,
M100
0010
1000
0100
0010
0001
1000
0010
1000
0001
0100
0010
1000
0100
1000
0001
,
0100
0010
1000
0001
0010
0100
1000
0100
0010
0001
0100
0010
0100
0001
1000
0100
,
1000
0010
0100
0001
1000
0100
0010
0001
0100
0010
1000
0001
0010
0001
0100
0010
,
1000
0100
0010
0001
1000
0001
0100
0010
0100
0001
1000
0010
0100
0010
1000
0100
,
1000
0001
0100
0001
1000
0010
0100
0001
1000
0100
0010
0001
0100
0010
1000
0001
,
0010
0001
0100
0010
1000
0100
1000
0001
0100
0010
1000
0001
0010
0001
0100
0010
,
0100
0001
1000
0001
0100
0010
1000
0100
0010
0001
1000
0010
1000
0001
0100
0010
,
1000
0100
1000
0001
0100
0010
1000
0001
0010
0100
1000
0100
0010
0001
0100
0010
,
1000
0100
0010
0001
0100
0010
1000
0001
0010
0001
0100
0010
1000
0100
1000
0001
,
0100
0010
1000
0001
0010
0001
0100
0010
0100
0001
1000
0001
0100
0010
1000
0100
,
0010
0001
1000
0010
1000
0001
0100
0010
1000
0100
1000
0001
0100
0010
1000
0001
,
0010
0100
1000
0100
0010
0001
0100
0010
0100
0001
1000
0100
1000
0010
0100
0001
,
1000
0100
0010
0001
0100
0010
1000
0001
0010
0001
0100
0010
1000
0100
0010
0001
,
1000
0001
0100
0010
0100
0001
1000
0010
0100
0010
1000
0100
1000
0001
0100
0001
,
1000
0010
0100
0001
1000
0100
0010
0001
0100
0010
1000
0001
0010
0100
1000
0001
,
0100
0001
1000
0010
1000
0001
0100
0010
1000
0100
0010
0001
1000
0010
0100
0001
,
1000
0100
0010
0001
0100
0010
1000
0001
0010
0001
0100
0010
1000
0100
1000
0001
,
0100
0010
1000
0001
0010
0001
0100
0010
0100
0001
1000
0001
0100
0010
1000
0100
,
0010
0001
1000
0010
1000
0001
0100
0010
1000
0100
1000
0001
0100
0010
1000
0001
,
0010
0100
1000
0100
0010
0001
0100
0010
0100
0001
1000
0100
1000
0010
0100
0001
,
1000
0100
0010
0001
0100
0010
1000
0001
0010
0001
0100
0010
1000
0100
0010
0001
,
1000
0001
0100
0010
0100
0001
1000
0010
0100
0010
1000
0100
1000
0001
0100
0001
,
1000
0010
0100
0001
1000
0100
0010
0001
0100
0010
1000
0001
0010
0100
1000
0001
,
0100
0001
1000
0010
1000
0001
0100
0010
1000
0100
0010
0001
1000
0010
0100
0001
,
1000
0100
0010
0001
0100
0010
1000
0001
0010
0001
0100
0010
1000
0100
1000
0001
,
0100
0010
1000
0001
0010
0001
0100
0010
0100
0001
1000
0001
0100
0010
1000
0100
,
0010
0001
1000
0010
1000
0001
0100
0010
1000
0100
1000
0001
0100
0010
1000
0001
,
0010
0100
1000
0100
0010
0001
0100
0010
0100
0001
1000
0100
1000
0010
0100
0001
,
1000
0100
0010
0001
0100
0010
1000
0001
0010
0001
0100
0010
1000
0100
0010
0001
,
1000
0001
0100
0010
0100
0001
1000
0010
0100
0010
1000
0100
1000
0001
0100
0001
,
1000
0010
0100
0001
1000
0100
0010
0001
0100
0010
1000
0001
0010
0100
1000
0001
,
0100
0001
1000
0010
1000
0001
0100
0010
1000
0100
0010
0001
1000
0010
0100
0001
,
1000
0100
0010
0001
0100
0010
1000
0001
0010
0001
0100
0010
1000
0100
1000
0001
,
0100
0010
1000
0001
0010
0001
0100
0010
0100
0001
1000
0001
0100
0010
1000
0100
,
0010
0001
1000
0010
1000
0001
0100
0010
1000
0100
1000
0001
0100
0010
1000
0001
,
0010
0100
1000
0100
0010
0001
0100
0010
0100
0001
1000
0100
1000
0010
0100
0001
,
1000
0100
0010
0001
0100
0010
1000
0001
0010
0001
0100
0010
1000
0100
0010
0001
,
1000
0001
0100
0010
0100
0001
1000
0010
0100
0010
1000
0100
1000
0001
0100
0001
;
