#TITLE:Hate Me;
#SUBTITLE:By Nicholas Mihaila;
#ARTIST:Children of Bodom;
#TITLETRANSLIT:;
#SUBTITLETRANSLIT:;
#ARTISTTRANSLIT:;
#CREDIT:;
#BANNER:Hate Me - Banner.jpg;
#BACKGROUND:Hate Me - Background.jpg;
#LYRICSPATH:;
#CDTITLE:cdtitle.gif;
#MUSIC:Children of Bodom - 07 - Hate Me!.mp3;
#OFFSET:0.870;
#SAMPLESTART:93.173;
#SAMPLELENGTH:12.000;
#SELECTABLE:YES;
#BPMS:0.000=188.180,325.000=186.600,333.000=188.000,421.000=188.180,526.000=188.260,558.000=94.090,590.000=188.180,653.000=187.700,720.000=188.180;
#STOPS:194.000=0.660
;
#BGCHANGES:;
// cache tags:
#FIRSTBEAT:4.000;
#LASTBEAT:854.000;
#SONGFILENAME:Songs/toune 5/Hate Me/hate me.sm;
#HASMUSIC:1;
#HASBANNER:1;
#MUSICLENGTH:285.239;
// end cache tags

//---------------dance-single - Copied from Copied f----------------
#NOTES:
     dance-single:
     Copied from Copied f:
     Challenge:
     12:
     0.966,1.000,0.750,0.144,0.540,1674.000,214.000,41.000,0.000,3.000:
0000
0000
0000
0000
,
1001
1000
1001
0000
0001
0000
0001
0000
,
0001
0001
0001
0001
,
1001
1000
2001
0000
0001
0000
0001
0000
,
0001
0000
0001
3000
0001
0010
1001
0010
,
1001
0010
1001
0000
0001
0000
0001
0000
,
0001
0001
0001
0001
,
0001
0100
0000
0101
0000
0001
0100
0010
,
0000
1010
0000
1000
0100
0010
0001
0010
,
0100
1000
0011
1000
0010
0100
0001
0010
,
0100
2000
0000
3001
0100
0010
1000
0100
,
0010
0001
1100
0010
0001
0010
1000
0001
,
1000
0002
0000
0103
1000
0100
0001
1000
,
0001
1000
0011
0100
0010
0001
0010
0100
,
1000
0200
0000
0310
0100
1000
0100
0010
,
0001
0010
1100
0001
0010
0001
0100
0001
,
1000
0020
0000
1030
0100
1000
0010
1000
,
0001
0100
0101
0010
0001
0010
0100
0001
,
0100
2000
0000
3100
1000
0100
0010
1000
,
0010
0001
1010
0100
0001
0100
1000
0001
,
1000
0002
0000
0013
1000
0010
0001
1000
,
0001
1000
0101
0100
0001
1000
0001
1000
,
0010
0200
0000
0310
1000
0001
1000
0001
,
0100
0010
1010
0100
0010
0100
1000
0010
,
1000
0010
0100
0100
0000
1001
1001
0000
,
0000
0000
1001
0000
0000
0000
1000
0000
0010
0000
0100
0000
0010
1000
0001
0000
,
1000
0010
0100
0001
1000
0001
1000
1100
,
0110
0000
0011
0000
0000
0000
0001
0000
1000
0000
0010
0000
0100
0001
1000
0000
,
0001
0100
1000
0100
0001
0010
0001
0010
,
0100
1100
0000
1100
0011
0000
0011
1100
,
0000
1001
0000
0101
1010
0000
1010
0101
,
0000
1001
0000
1010
0110
0000
0110
1010
,
0000
1001
0001
0010
0100
1100
0000
0011
,
0000
0000
1001
0000
0000
0000
0001
0000
0010
0000
0100
0000
1000
0010
0100
0000
,
0001
0010
0100
1000
0100
0010
0001
0011
,
0011
0000
1100
0000
0000
0000
1000
0000
0010
0000
0100
0000
0001
1000
0001
0000
,
1000
0010
0100
0001
0010
0100
1100
1100
,
0110
0011
0000
0011
0110
0000
0110
1100
,
0000
1001
0000
0101
1010
0000
1010
1100
,
0000
0011
0000
0110
1100
0000
1001
0101
,
0000
0000
0001
0000
1000
0010
0100
0001
1000
0100
0010
0001
1000
0010
0100
0001
,
1000
0000
0101
0000
0101
2020
0000
0000
,
0000
0000
0000
0000
,
3030
0000
1010
0000
1010
0202
0000
0000
,
0303
0000
1000
0001
1000
0001
1000
0001
,
1000
0001
0101
0000
0101
2020
0000
0000
,
0000
0000
0000
0000
,
3030
0000
0100
0010
0100
0010
0100
0000
,
0101
1010
0101
1010
0101
1001
0000
1000
,
0010
0000
0100
0000
0001
0010
0100
0000
0010
0000
1000
0000
0010
0000
0001
0000
,
0100
0010
1000
0001
0100
0010
1000
0001
,
1000
0000
0010
0000
0100
0001
1000
0000
0100
0000
0010
0000
0001
0000
1000
0000
,
0010
0001
0010
1000
0001
1001
0000
1100
,
0011
0000
1100
1001
0000
0101
0000
1010
,
1100
0000
0011
0110
0000
1100
0000
1001
,
0110
0000
0110
0101
0000
1001
0001
0001
,
0001
0011
0000
0110
0000
1100
0000
1000
,
0001
0000
0100
0000
0010
1000
0001
0000
0010
0000
0100
0000
1000
0000
0001
0000
,
0010
0100
0010
0001
0001
2000
0000
3001
,
1000
0000
0010
0000
0100
0001
1000
0000
0100
0000
0010
0000
0001
0000
1000
0000
,
0100
0010
0001
0010
0001
0011
0000
0000
,
1001
0000
1000
0010
0000
1010
0000
1000
,
0100
0000
0100
0010
0000
0011
0000
0001
,
1000
0000
0000
0000
1000
0001
0010
0100
0010
0001
1000
0001
0010
0100
0010
0001
,
1000
0001
0010
0100
0010
0001
1000
0000
0001
0000
1000
0000
0011
0000
0000
0000
,
0011
1100
0000
0000
1000
0000
0001
0000
,
1000
0001
0001
0000
1000
0000
1100
0000
,
1100
0011
0000
0000
0001
0000
1000
1000
,
0001
0001
1000
1000
0001
0001
0011
0000
,
0011
1100
0000
0000
0001
0000
0010
0000
,
0100
1000
0100
0010
0001
0000
1000
0001
,
1000
0001
1000
0000
1100
0011
1100
0011
,
1100
0001
0001
0101
,
0110
1010
1000
0010
,
0100
0001
0000
0001
0010
0000
0100
0000
,
1000
0000
0001
0100
0001
0100
1000
0100
,
1000
0100
0001
0100
0001
0100
1000
0100
,
1000
0100
0001
0000
1000
0000
0010
0000
,
1000
0001
0000
0001
0100
0000
0010
0000
,
1000
0000
0001
0010
0001
0010
1000
0010
,
1000
0010
0001
0010
0001
0010
0001
0010
,
0001
0010
0002
0000
0000
0000
0000
0000
,
1003
0000
0001
0000
1000
0000
0001
1000
0001
0000
0001
1000
0001
0000
0001
1000
,
0001
0000
0001
1000
0001
0000
0010
0000
0001
0000
0010
0000
1000
0000
0100
0000
,
1000
0100
0001
0100
0001
0100
1000
0010
,
1000
0010
0001
0010
0001
0010
1000
0100
,
1000
0100
0001
0100
0001
0100
1000
0010
,
1000
0010
0001
0010
0001
0010
1000
0100
,
1000
0100
0001
0100
0001
0100
1000
0010
,
1000
0010
0001
0010
0001
0010
1000
0100
,
1000
0000
0100
0000
0001
0010
0100
1000
0001
0100
0010
1000
0001
0010
0100
1000
,
0001
0100
0010
1000
0001
0010
0100
1000
0010
0100
0001
0010
0100
1000
0010
0100
,
0001
0100
0010
0100
0001
1000
0001
1000
0100
0010
0001
0010
0100
0010
0001
1000
,
0010
0100
0010
1000
0010
0100
0001
0010
0100
1000
0100
0010
0001
0010
0100
1000
,
0100
0010
0100
1000
0010
0100
0001
1000
0001
0100
0010
1000
0010
0100
0001
0010
,
0100
0010
0001
1000
0100
0010
0001
0010
0100
1000
0100
0010
0001
0010
0100
0010
,
0001
1000
0100
0010
0100
1000
0001
1000
0010
0100
0001
0100
0010
1000
0010
0100
,
0001
0010
0100
1000
0100
0010
0100
1000
0001
1000
0001
0010
0100
0010
0001
1000
,
0010
0100
0010
1000
0010
0100
0001
0010
0100
1000
0100
0010
0001
0010
0100
1000
,
0001
0010
0100
1000
0001
0010
0001
0010
0100
0010
0100
0010
0100
1000
0100
1000
,
0100
0010
0100
0010
0100
1000
0100
1000
0001
1000
0001
1000
0010
1000
0010
1000
,
0010
0100
0010
0100
0001
0000
0100
0000
0010
0000
1000
0000
0010
0000
0100
0000
,
0001
0010
0100
1000
0100
0020
0000
0000
,
0032
0000
0000
0000
1003
0010
0100
1000
0100
0001
0100
1000
0010
0100
0001
0010
,
0100
1000
0010
0001
0010
1000
0010
0100
0001
0010
0100
1000
0200
0000
0000
0000
,
0300
0000
0001
0100
0000
0101
0000
0001
,
0100
0010
0000
1010
0000
1000
0100
0010
,
0001
0010
0100
1000
0011
1000
0010
0100
,
0010
0001
0010
1100
0000
1100
0010
0100
,
0010
0001
0010
0100
1100
0010
0100
0010
,
1000
0001
1000
0011
0000
0011
0100
0010
,
1000
0001
1000
0001
0011
1000
0100
1000
,
0001
0010
0100
1010
0000
1010
0100
1000
,
0001
0010
0100
0010
1100
0001
0010
0001
,
0100
0010
1000
0102
0000
1000
1000
1000
,
1000
1000
1000
0113
0000
1000
0100
0010
,
0001
0010
0100
0000
1000
0000
0001
0000
0100
0000
0010
0000
0100
0000
0001
0000
,
0010
0100
1000
0100
0000
1000
0001
0100
,
0010
1000
0001
0000
0010
0000
0100
0000
1000
0000
0100
0000
0010
0000
0001
0000
,
1000
1000
0001
0101
0000
0110
1010
0000
,
1100
0011
0000
1001
0000
1010
0101
0000
,
1010
1100
0000
0011
0000
1001
0101
0000
,
1010
0000
1100
0000
0000
0000
1000
0100
0010
0000
0001
0000
1000
0000
1001
0000
,
0000
1001
0000
0011
0000
0010
0100
1000
,
0100
0010
0001
0000
0010
0000
0100
0000
1000
0000
0001
0000
1000
0000
0010
0000
,
0100
0001
0001
0001
0000
0100
0010
1000
,
0001
1000
0001
0000
0010
0000
0100
0000
1000
0100
0010
0001
0010
0100
1000
0100
,
0010
0001
0010
0100
1000
0001
0100
0000
0000
0000
0110
0000
1010
0000
0000
0000
,
1100
0110
0000
0011
0000
0101
0110
0000
,
1010
1100
0000
0110
0000
0011
0001
0010
,
0100
1000
0100
0010
1000
0010
0100
1000
,
0100
0010
0001
1000
0011
0000
0011
2200
,
0000
0000
0000
0000
,
0000
0000
3300
0000
1100
0000
1100
0022
,
0000
0000
0033
0000
0001
0010
0001
1000
,
0001
0100
0001
0010
0011
0000
0011
2200
,
0000
0000
0000
0000
,
0000
0000
3300
0000
0100
0100
0001
0001
,
1010
0000
0010
0010
1000
1000
0101
0000
,
1000
0001
1000
0001
2010
0000
0001
0000
,
0010
0001
0010
0001
,
3010
0110
0110
0110
0102
0000
1000
0000
,
0100
0000
1000
0000
0100
0000
1000
0003
,
0100
0010
0100
0000
1000
0000
0001
0000
2010
0000
0100
0010
0001
0000
0000
0000
,
0010
0001
0010
0001
,
3010
0110
0110
0110
0102
0000
1000
0000
,
2000
0000
3200
0000
0320
0000
0000
0033
,
0100
1000
0010
0000
0100
0000
0010
0000
1000
0000
1000
0000
0001
0000
0000
0000
,
1000
0000
0001
0001
1000
1000
0001
0001
,
1000
0001
1000
0001
1000
0001
1000
0000
1000
0000
1000
0000
1000
0000
0000
0000
,
0000
0000
1000
0001
0001
0001
1000
0001
,
0001
0000
0001
1000
0001
1000
0001
1000
0001
0000
1000
0000
0001
0000
0000
0000
,
1000
0000
0001
0001
1000
0001
0001
0001
,
1000
0001
1000
0001
1000
0001
1000
0000
0001
0000
0001
0000
1000
0000
1000
0000
,
0000
0000
1000
1000
0001
0001
1000
1000
,
0001
0000
0001
1000
0001
1000
0001
1000
0001
0000
1000
0000
0001
0000
0000
0000
,
1000
1000
0001
0001
1000
1000
0001
0001
,
1000
0000
1000
0001
1000
0001
1000
0001
1000
0000
0001
0000
1000
0000
1000
0000
,
0000
0000
1000
1000
0001
0001
1000
1000
,
0001
0000
0001
1000
0001
1000
0001
1000
0001
0000
1000
0000
0000
0000
0000
0000
,
1000
1000
0000
0000
1000
1000
0000
0000
,
1100
1100
1100
1100
0000
0000
1100
0101
,
0000
0000
1100
0011
0000
0000
1010
1010
,
0000
0000
0100
0100
0001
0010
0001
1000
,
0000
1000
0000
0100
0001
0010
0001
1000
,
0000
0000
1000
0000
0000
0000
0100
0000
1000
0001
0100
0010
1000
0001
0010
0100
,
0010
0001
1000
0010
0100
0001
1000
0010
0100
0010
1000
0001
0010
0100
2000
0000
,
0000
0000
0000
0000
0000
0000
0000
0000
0000
3000
0000
0000
0001
0000
0010
0000
0100
0000
1000
0000
0010
0000
0100
0000
,
0001
0010
0100
1000
0010
0100
0001
0100
1000
0100
0001
0010
,
0100
0000
1000
0000
0010
0000
0100
0000
0001
0000
0010
0000
0100
0000
0000
0010
0000
0000
0000
0000
0000
0010
0000
0000
,
0000
2000
0000
0000
3010
0100
0000
0100
,
0000
0000
0002
0000
0000
0000
0000
0000
1003
0010
0100
0001
0010
0001
1000
0010
,
0100
0001
0010
0001
1000
0100
1000
0010
0100
0001
0100
0010
1000
0100
1000
0001
,
0010
0100
1000
0100
1000
0100
0010
0001
0010
0100
0010
0001
1000
0010
0100
0001
,
0100
0001
0010
0100
1000
0100
0010
0001
1000
0100
0010
0001
0100
0010
1000
0100
,
0010
0001
0010
0100
0010
0001
1000
0010
0100
0000
0100
0000
0010
0000
0100
0000
,
0100
0000
0100
0000
0010
0000
0100
0000
0100
0000
0100
0000
0010
0000
0100
0010
,
0100
0000
0100
0000
0010
0000
0010
0000
1000
0100
0010
0001
0010
0100
0010
0001
,
1000
0010
0100
0001
0010
0100
1000
0010
0100
0001
0010
0100
1000
0100
0010
0001
,
2000
0000
0002
3003
0101
0000
0110
0000
,
1010
0000
0001
0000
0010
0000
0100
1000
,
0000
1000
0100
0000
0010
0000
0001
0000
,
1000
0001
1000
0001
0100
0001
0100
0001
,
1000
0001
1000
0001
0100
0001
0100
0001
,
0101
0000
0100
0000
0010
0000
1000
0100
,
0000
0100
0010
0000
0001
0000
1000
0000
,
0001
0100
0001
0100
0010
0100
0010
0100
,
0001
0100
0001
0100
0001
0100
0001
0100
,
0002
0000
0000
0000
,
1000
1000
1000
1000
1000
1000
1000
1000
,
1003
0100
1000
0100
0001
0010
0001
0010
,
1000
0010
1000
0010
0001
0100
0001
0100
,
1000
0100
1000
0100
0001
0010
0001
0010
,
1000
0010
1000
0010
0001
0100
0001
0100
,
1000
0100
1000
0100
0001
0010
0001
0010
,
1000
0010
1000
0010
0001
0100
0001
0100
,
1000
0100
1000
0100
0001
0010
0001
0010
,
1000
0100
0010
0001
0010
0100
1000
0100
0010
0001
0010
0100
1000
0100
0010
0001
,
0010
0001
1000
0010
0100
0001
0100
0010
1000
0100
0010
0001
0010
0100
1000
0010
,
0100
0001
0100
0010
0100
0001
0010
0100
1000
0100
0010
0001
0010
0100
0010
0001
,
1000
0010
0100
0010
1000
0010
0100
0001
0010
0100
1000
0010
0100
0001
0010
0100
,
1000
0100
0010
0001
0010
0100
0010
0001
1000
0100
0010
0001
0010
0001
1000
0001
,
0100
0001
0010
0001
1000
0010
0100
0001
1000
0010
1000
0100
1000
0001
1000
0010
,
1000
0010
0100
0001
0010
0100
1000
0010
0100
0001
0010
0100
1000
0010
0100
0001
,
0010
0100
1000
0100
0010
0001
0100
0010
1000
0100
0010
0001
0100
0010
1000
0100
,
0010
0001
0010
0100
1000
0100
0010
0001
0100
0010
1000
0010
0100
0001
1000
0010
,
0001
0010
1001
0010
0001
0000
1001
0010
,
1001
0010
0001
0000
1001
0010
1001
0010
,
1001
0000
0010
0000
1001
0000
0010
0000
0001
0000
0000
0000
1001
0000
0010
0100
,
1001
0000
0000
0000
0001
0000
0000
0000
1001
0100
0010
0100
1001
0000
0010
0100
,
1001
0010
1001
0000
0001
0000
1001
0010
,
1001
0000
0001
0000
1001
0010
1001
0010
,
0001
1000
0010
1000
0001
0000
0100
0010
,
1000
0010
0202
0000
0303
0000
0000
0000
;
