#TITLE:[5-1] PSV;
#SUBTITLE:;
#ARTIST:Kommisar;
#TITLETRANSLIT:;
#SUBTITLETRANSLIT:;
#ARTISTTRANSLIT:;
#CREDIT:;
#BANNER:../Beast 4 - bn.png;
#BACKGROUND:../Beast 4 - bg.png;
#LYRICSPATH:;
#CDTITLE:;
#MUSIC:PSV.ogg;
#OFFSET:-0.404;
#SAMPLESTART:64.412;
#SAMPLELENGTH:12.000;
#SELECTABLE:YES;
#BPMS:0.000=270.000;
#STOPS:;
#BGCHANGES:;
// cache tags:
#FIRSTBEAT:32.000;
#LASTBEAT:639.500;
#SONGFILENAME:Songs/Beast Aoreo BEAST! 4/PSV - [Aoreo]/PSV.sm;
#HASMUSIC:1;
#HASBANNER:1;
#MUSICLENGTH:148.636;
// end cache tags

//---------------dance-single - J. Nero----------------
#NOTES:
     dance-single:
     J. Nero:
     Challenge:
     18:
     1.000,1.000,0.040,0.087,0.996,1414.000,6.000,13.000,0.000,0.000:
0000
0000
0000
0000
,
0000
0000
0000
0000
,
0000
0000
0000
0000
,
0000
0000
0000
0000
,
0000
0000
0000
0000
,
0000
0000
0000
0000
,
0000
0000
0000
0000
,
0000
0000
0000
0000
,
1000
0100
1000
0010
0100
0001
0010
0001
,
1000
0100
1000
0010
0100
0001
0010
0001
,
1000
0100
1000
0010
0100
0001
0010
0001
,
1000
0010
0100
0001
0010
0100
1000
0010
,
1000
0100
1000
0010
0100
0001
0010
0001
,
1000
0100
1000
0010
0100
0001
0010
0001
,
1000
0100
1000
0010
0100
0001
0010
0001
,
1000
0010
0100
0001
0010
0100
1000
0010
,
1000
0010
0100
0001
0010
0100
1000
0010
0100
0001
1000
0100
0010
0001
1000
0001
,
0100
0010
0100
0001
0010
0001
1000
0010
,
1000
0100
0010
0001
0100
0010
1000
0100
1000
0001
0100
0010
1000
0001
0010
0100
,
1000
0100
1000
0010
0100
0001
0010
0001
,
1000
0100
1000
0000
0001
0000
0100
0000
0001
1000
0001
0000
1000
0000
0100
0000
,
0010
0000
0001
1000
0001
0000
1000
0000
0010
0000
1000
0000
0001
0100
0001
0000
,
1000
0100
1000
0010
0100
0001
1000
0001
,
1000
0100
1000
0001
0010
0100
1000
0001
0100
0010
1000
0001
0010
0100
1000
0001
,
0100
0010
1000
0100
0010
0001
0100
0010
1000
0100
1000
0001
0010
0100
1000
0010
,
0100
0001
1000
0100
0010
0001
1000
0001
,
1000
0100
1000
0010
0100
0001
1000
0100
0010
0001
0100
0010
1000
0001
0100
0001
,
1000
0100
1000
0010
0100
0001
0010
0001
,
1000
0100
1000
0000
0001
0000
0100
0000
0001
1000
0001
0000
1000
0000
0100
0000
,
0010
0000
0001
1000
0001
0000
0100
0000
0001
0000
1000
0000
0001
0100
0001
0000
,
1000
0100
1000
0010
0100
0001
0010
0001
,
1000
0100
0010
0001
0100
0010
1000
0100
0010
0001
0100
0010
1000
0001
0010
0100
,
2000
0001
0001
3001
,
0102
0100
0100
0103
,
2010
0010
0010
3010
,
0120
0100
0100
0130
,
0001
0100
0001
2000
0000
0000
0000
0000
,
3100
0010
0100
2000
0000
0000
3001
0010
,
0001
0100
0010
0100
0001
1000
0100
1000
,
0010
0100
0010
1000
0001
0010
0001
0100
,
0020
0100
0100
0130
,
0201
0001
0001
0301
,
1002
1000
1000
1003
,
2100
0100
0100
3100
,
1000
0100
0010
0002
0000
0000
0000
0003
,
0010
0100
0010
0002
0000
0000
1003
0100
,
1000
0010
0100
0010
1000
0001
0010
0001
,
0200
0000
0001
0300
4000
0000
0000
3000
,
0001
0010
0100
1000
0010
0100
0001
1000
0100
1000
0010
0100
0001
1000
0100
0010
,
0001
0100
0001
1000
0010
1000
0001
1000
,
0001
0100
0010
1000
0100
0010
0001
0100
0010
1000
0001
0100
0010
1000
0010
0100
,
0001
0010
0001
1000
0100
1000
0001
1000
,
0001
0100
0001
0000
1000
0000
0100
0000
1000
0001
1000
0000
0001
0000
0100
0000
,
0010
0000
1000
0001
1000
0000
0100
0000
1000
0000
0001
0000
1000
0100
1000
0000
,
0001
0100
0001
1000
0100
1000
0001
1000
,
0001
0010
0100
1000
0001
0100
0001
1000
0100
0010
0001
1000
0100
1000
0001
0100
,
0010
1000
0100
0010
0100
1000
0010
0100
0001
1000
0100
0010
0001
0100
0010
1000
,
0001
0100
0001
1000
0100
1000
0001
1000
,
0001
0010
0100
1000
0001
0100
0010
1000
0100
0010
0001
0100
0001
1000
0010
0100
,
0001
0010
0001
1000
0010
1000
0001
1000
,
0001
0010
0001
0000
1000
0000
0010
0000
1000
0001
1000
0000
0001
0000
0010
0000
,
0100
0000
1000
0001
1000
0000
0010
0000
1000
0000
0001
0000
1000
0010
1000
0000
,
0001
0010
0001
1000
0010
1000
0001
1000
,
0001
0010
0100
1000
0010
0100
0001
0010
0001
1000
0100
0010
0100
1000
0001
0100
,
0001
0000
0100
0010
0100
0000
0001
0000
1000
0000
0000
0000
0001
0000
0000
0000
,
1000
0000
0100
0010
0100
0000
1000
0000
0001
0000
0000
0000
1000
0000
0000
0000
,
0001
0000
1000
0100
0010
0001
1000
0100
1000
0000
0001
0000
0100
0000
0010
0000
,
1000
0000
0001
0100
0010
1000
0001
0100
0001
0000
0010
0000
0100
0000
1000
0000
,
0001
0000
1000
0100
1000
0000
0001
0000
0010
0000
0000
0000
0001
0000
0000
0000
,
1000
0000
0001
0100
0001
0000
1000
0000
0010
0000
0000
0000
1000
0000
0000
0000
,
0001
0000
1000
0100
0010
0001
1000
0010
1000
0000
0100
0000
0010
0000
0001
0000
,
1000
0000
0001
0100
0010
1000
0001
0100
0001
0000
0010
0000
0100
0000
1000
0000
,
0001
0000
1000
0100
1000
0000
0001
0000
0100
0000
0000
0000
0001
0000
0000
0000
,
1000
0000
0001
0100
0001
0000
1000
0000
0100
0000
0000
0000
1000
0000
0000
0000
,
0001
0000
1000
0010
0100
0001
1000
0010
1000
0000
0100
0000
0010
0000
0001
0000
,
1000
0000
0001
0010
0100
1000
0001
0100
0001
0000
0100
0000
0010
0000
1000
0000
,
0001
0000
1000
0010
1000
0000
0001
0000
0010
0000
0000
0000
0001
0000
0000
0000
,
1000
0000
0001
0010
0001
0000
1000
0000
0010
0000
0000
0000
1000
0000
0000
0000
,
0001
0000
1000
0100
0010
0001
1000
0010
1000
0000
0100
0000
0010
0000
0001
0000
,
1000
0000
0001
0100
0010
1000
0001
0100
0001
0000
0010
0000
0100
0000
1000
0000
,
0001
0100
0001
0010
0100
1000
0010
0100
0001
0000
0000
0000
1000
0000
0000
0000
,
0001
1000
0100
1000
0010
0100
0001
0010
0100
0000
0000
0000
1000
0000
0000
0000
,
0001
0000
0100
0000
0001
1000
0001
0000
1000
0000
0100
0000
1000
0010
0100
0001
,
1000
0000
0010
0000
1000
0001
1000
0000
0001
0000
0100
0000
0001
0100
0001
0010
,
0100
1000
0010
0100
0001
0010
0100
1000
0001
0000
0000
0000
1000
0000
0000
0000
,
0001
0100
0001
0010
0100
1000
0001
0100
0001
0000
0000
0000
1000
0000
0000
0000
,
0001
0000
0010
0000
0100
1000
0010
0000
1000
0000
0010
0000
1000
0100
0010
0001
,
1000
0000
0100
0000
1000
0001
1000
0000
0001
0000
0100
0000
0001
0010
0001
0100
,
0010
1000
0100
1000
0010
0100
0001
0010
0001
0000
0000
0000
1000
0000
0000
0000
,
0001
1000
0100
1000
0010
0100
0001
0010
0100
0000
0000
0000
1000
0000
0000
0000
,
0010
0000
0100
0000
0001
1000
0001
0000
0100
0000
0010
0000
1000
0100
0010
0001
,
1000
0000
0010
0000
1000
0001
1000
0000
0010
0000
0100
0000
0001
0010
0001
0100
,
0010
1000
0100
1000
0010
0100
0001
0010
0100
0000
0000
0000
1000
0000
0000
0000
,
0001
0100
0001
0010
0100
1000
0010
0100
0001
0000
0000
0000
1000
0000
0000
0000
,
0001
0000
0010
0000
0001
1000
0001
0000
0010
0000
0100
0000
1000
0010
0100
0001
,
1000
0000
0100
0000
1000
0001
1000
0000
0001
0000
0100
0000
0001
1000
0100
0010
,
0001
0000
1000
0100
1000
0000
0001
0000
0100
0000
0000
0000
0010
0000
0000
0000
,
1000
0000
0001
0100
0001
0000
1000
0000
0100
0000
0000
0000
0010
0000
0000
0000
,
0001
0000
1000
0100
0010
0100
1000
0001
1000
0000
0100
0000
0010
0000
0001
0000
,
1000
0000
0001
0100
0010
0100
0001
1000
0001
0000
0010
0000
0100
0000
1000
0000
,
0001
0000
1000
0100
1000
0000
0001
0000
0010
0000
0000
0000
0100
0000
0000
0000
,
1000
0000
0001
0100
0001
0000
1000
0000
0010
0000
0000
0000
0100
0000
0000
0000
,
0001
0000
1000
0100
0010
0100
1000
0001
1000
0000
0100
0000
0010
0000
0001
0000
,
1000
0000
0001
0100
0010
0100
0001
1000
0001
0000
0010
0000
0100
0000
1000
0000
,
0001
0000
0010
0100
1000
0000
0001
0000
0100
0000
0000
0000
0001
0000
0000
0000
,
1000
0000
0001
0100
0010
0000
1000
0000
0100
0000
0000
0000
1000
0000
0000
0000
,
0001
0000
0100
0010
1000
0001
0100
0001
1000
0000
0100
0000
0010
0000
0001
0000
,
1000
0000
0100
0010
0001
1000
0100
1000
0001
0000
0100
0000
0010
0000
1000
0000
,
0001
0000
1000
0010
1000
0000
0001
0000
0010
0000
0000
0000
0001
0000
0000
0000
,
1000
0000
0001
0010
0001
0000
1000
0000
0010
0000
0000
0000
1000
0000
0000
0000
,
0001
0000
0010
0100
1000
0001
0010
0001
1000
0000
0100
0000
0010
0000
0001
0000
,
1000
0000
0010
0100
0001
1000
0010
1000
0001
0000
0010
0000
0100
0000
1000
0000
,
0001
0100
0010
0100
0001
0010
0100
1000
,
0001
0100
0010
0100
0001
1000
0100
0010
,
0001
0100
0010
0100
0001
0010
0100
1000
,
0001
1000
0100
0010
0100
1000
0001
0010
,
0001
0100
0010
0100
0001
0010
0100
1000
,
0001
0100
0010
0100
0001
1000
0100
0010
,
0001
0100
0010
0100
0001
0010
0100
1000
,
0001
1000
0100
0010
0100
1000
0001
0010
,
0001
0100
0010
0100
0001
0010
0100
1000
,
0001
0100
0010
0100
0001
1000
0100
0010
,
0001
0100
0010
0100
0001
0010
0100
1000
,
0001
1000
0100
0010
0100
1000
0001
0010
,
0001
0100
0010
0100
0001
0010
0100
1000
,
0001
0100
0010
0100
0001
1000
0100
0010
,
0001
0100
0010
0100
0001
0010
0100
1000
,
0001
1000
0100
0010
0100
1000
0001
0010
,
0001
0010
0100
1000
0010
0100
0001
0010
0100
1000
0010
0100
0001
1000
0100
0010
,
0001
0100
0010
1000
0001
0010
0001
0100
0010
1000
0100
1000
0010
0100
0001
0010
,
0100
0000
1000
0000
0001
0000
1000
0000
0001
0100
0010
0000
1000
0100
1000
0000
,
0001
0000
0010
0000
0100
0000
1000
0000
0001
0100
0001
0000
1000
0010
0100
0000
,
0001
0010
0100
1000
0001
0000
0100
0000
0001
0000
1000
0000
0100
1000
0001
0100
,
0010
0100
0001
1000
0100
0000
1000
0000
0001
0000
0010
0000
0100
1000
0001
0100
,
0001
0000
0010
0000
0100
0000
1000
0000
0001
0100
0001
0000
1000
0100
0010
0000
,
0001
0000
0100
0000
0010
0000
0100
0000
0001
1000
0001
0000
0010
0100
1000
0000
,
0001
1000
0100
0010
0001
0100
0010
1000
0100
0010
0001
0100
0001
1000
0100
1000
,
0010
0100
0001
0010
0001
0100
0010
1000
0100
1000
0010
0100
0001
0010
0100
1000
,
0001
0000
1000
0000
0100
0000
0010
0000
0100
1000
0001
0000
0100
0001
0100
0000
,
0001
0000
0010
0000
0100
0000
1000
0000
0001
0100
0001
0000
1000
0100
0010
0000
,
0100
1000
0001
0100
0010
0000
0100
0000
0001
0000
1000
0000
0100
1000
0001
0010
,
0100
1000
0010
0100
0001
0000
0100
0000
0001
0000
1000
0000
0100
0010
0001
1000
,
0010
0000
0100
0000
0001
0000
1000
0000
0100
1000
0001
0000
0100
0001
0100
0000
,
0001
0000
0010
0000
0100
0000
1000
0000
0001
0100
0001
0000
1000
0010
0100
0000
,
0001
0010
0001
0100
0010
1000
0100
1000
,
0001
0010
0001
0100
0010
1000
0100
1000
,
0001
0010
0001
0100
0010
1000
0100
1000
,
0001
0100
0010
1000
0100
0010
0001
0100
,
0001
0010
0001
0100
0010
1000
0100
1000
,
0001
0010
0001
0100
0010
1000
0100
1000
,
0001
0010
0001
0100
0010
1000
0100
1000
,
0001
0100
0010
1000
0100
0010
0001
0100
,
0001
0010
0001
0100
0010
1000
0100
1000
,
0001
0010
0001
0100
0010
1000
0100
1000
,
0001
0010
0001
0100
0010
1000
0100
1000
,
0001
0100
0010
1000
0100
0010
0001
0100
,
0001
0010
0001
0100
0010
1000
0100
1000
,
0001
0010
0001
0100
0010
1000
0100
1000
,
0001
0010
0001
0100
0010
1000
0100
1000
,
0001
0100
0010
1000
0100
0010
0001
0100
;

//---------------dance-single - Mad Matt----------------
#NOTES:
     dance-single:
     Mad Matt:
     Hard:
     17:
     1.000,1.000,0.040,0.087,1.000,1415.000,6.000,13.000,0.000,0.000:
0000
0000
0000
0000
,
0000
0000
0000
0000
,
0000
0000
0000
0000
,
0000
0000
0000
0000
,
0000
0000
0000
0000
,
0000
0000
0000
0000
,
0000
0000
0000
0000
,
0000
0000
0000
0000
,
1000
0100
1000
0010
0100
0001
1000
0001
,
1000
0100
1000
0010
0100
0001
1000
0001
,
1000
0100
1000
0010
0100
0001
1000
0001
,
1000
0010
1000
0100
0010
0001
1000
0001
,
1000
0100
1000
0010
0100
0001
1000
0001
,
1000
0100
1000
0010
0100
0001
1000
0001
,
1000
0100
1000
0010
0100
0001
1000
0001
,
1000
0100
1000
0001
0010
0001
0100
0010
,
1000
0001
0100
0001
1000
0010
0100
0001
1000
0001
0010
0100
1000
0001
0010
0100
,
1000
0001
1000
0100
0010
0001
1000
0001
,
1000
0001
0010
0100
1000
0001
0100
0001
1000
0010
0100
0001
1000
0100
0010
0001
,
1000
0100
1000
0010
0100
0001
1000
0001
,
1000
0100
1000
0000
0001
0000
0100
0000
0001
1000
0001
0000
1000
0000
0100
0000
,
0010
0000
0001
1000
0001
0000
1000
0000
0010
0000
1000
0000
0001
0100
0001
0000
,
1000
0100
1000
0010
0100
0001
1000
0001
,
1000
0100
0010
0100
1000
0001
1000
0010
0100
0001
0100
0010
1000
0001
1000
0100
,
1000
0001
0100
0010
0100
0001
1000
0001
0010
0100
1000
0001
1000
0010
0100
0001
,
1000
0010
1000
0100
0010
0001
1000
0001
,
1000
0010
0100
0010
1000
0001
0010
0100
1000
0001
1000
0010
0100
0001
1000
0100
,
0010
0001
1000
0010
0100
0001
1000
0001
,
1000
0100
1000
0000
0001
0000
0100
0000
0001
1000
0001
0000
1000
0000
0100
0000
,
0010
0000
0001
1000
0001
0000
0100
0000
0001
0000
1000
0000
0001
0100
0001
0000
,
1000
0100
1000
0010
0100
0001
1000
0001
,
1000
0100
0010
0001
0100
0010
1000
0001
0100
0010
1000
0001
1000
0100
0010
0001
,
2000
0010
0010
3010
,
0120
0100
0100
0130
,
0201
0001
0001
0301
,
1002
1000
1000
1003
,
0001
0100
0001
2000
0000
0000
0000
0000
,
3100
0010
0100
2000
0000
0000
3001
0010
,
0001
0100
0010
0100
0001
1000
0100
1000
,
0010
0100
0010
1000
0001
0010
0001
0100
,
0002
0100
0100
0103
,
0210
0010
0010
0310
,
1020
1000
1000
1030
,
2001
0001
0001
3001
,
1000
0100
1000
0002
0000
0000
0000
0000
,
0103
0010
0100
0002
0000
0000
1003
0010
,
1000
0100
0010
0100
1000
0001
0100
0001
,
0020
0000
0400
0000
0030
0000
0000
0300
,
1000
0010
0100
0010
1000
0001
0010
0100
1000
0001
0010
0100
1000
0001
1000
0010
,
0100
0010
1000
0001
0100
0001
1000
0001
,
1000
0100
0010
0100
1000
0001
0100
0010
1000
0001
0100
0010
1000
0001
1000
0100
,
0010
0100
1000
0001
0010
0001
1000
0001
,
1000
0010
1000
0000
0001
0000
0010
0000
0001
1000
0001
0000
1000
0000
0010
0000
,
0100
0000
0001
1000
0001
0000
0010
0000
0001
0000
1000
0000
0001
0010
0001
0000
,
1000
0010
1000
0001
0010
0001
1000
0001
,
1000
0100
0010
0100
1000
0001
0100
0010
1000
0001
0100
0010
1000
0001
1000
0100
,
0010
0001
0100
0010
1000
0001
1000
0010
1000
0001
0010
0100
1000
0001
0010
0100
,
1000
0010
1000
0001
0010
0001
1000
0001
,
1000
0010
0100
0001
1000
0100
1000
0010
0100
0001
1000
0010
0100
0001
0010
0100
,
1000
0100
1000
0001
0100
0001
1000
0001
,
1000
0100
1000
0000
0001
0000
0100
0000
0001
1000
0001
0000
1000
0000
0100
0000
,
0010
0000
0001
1000
0001
0000
0100
0000
0001
0000
1000
0000
0001
0100
0001
0000
,
1000
0100
1000
0001
0100
0001
1000
0001
,
1000
0100
1000
0001
0100
0010
1000
0001
0010
0100
1000
0001
0010
0100
1000
0001
,
0100
0000
0010
0100
0010
0000
1000
0000
0001
0000
0000
0000
1000
0000
0000
0000
,
0001
0000
0010
0100
0010
0000
0001
0000
1000
0000
0000
0000
0001
0000
0000
0000
,
1000
0000
0001
0010
0100
1000
0001
0100
0010
0000
1000
0000
0100
0000
0010
0000
,
0001
0000
1000
0010
0100
0001
1000
0100
0010
0000
0001
0000
0100
0000
0010
0000
,
1000
0000
0001
0010
0001
0000
1000
0000
0100
0000
0000
0000
1000
0000
0000
0000
,
0001
0000
1000
0010
1000
0000
0001
0000
0100
0000
0000
0000
0001
0000
0000
0000
,
1000
0000
0001
0010
0100
0010
0001
1000
0010
0000
0100
0000
0001
0000
1000
0000
,
0100
0000
0010
0001
0100
0010
1000
0001
1000
0000
0100
0000
0010
0000
0001
0000
,
1000
0000
0001
0010
0001
0000
1000
0000
0010
0000
0000
0000
1000
0000
0000
0000
,
0001
0000
1000
0010
1000
0000
0001
0000
0010
0000
0000
0000
0001
0000
0000
0000
,
1000
0000
0001
0100
0010
1000
0001
0010
0100
0000
1000
0000
0010
0000
0100
0000
,
0001
0000
1000
0100
0010
0100
1000
0001
0100
0000
0010
0000
0100
0000
0001
0000
,
1000
0000
0001
0100
0001
0000
1000
0000
0100
0000
0000
0000
1000
0000
0000
0000
,
0001
0000
1000
0100
1000
0000
0001
0000
0100
0000
0000
0000
0001
0000
0000
0000
,
1000
0000
0001
0010
0001
0100
0010
1000
0001
0000
0010
0000
0100
0000
1000
0000
,
0001
0000
1000
0010
0100
0010
1000
0001
0010
0000
0100
0000
0010
0000
0001
0000
,
1000
0001
0100
0010
0100
0001
1000
0100
0010
0000
0000
0000
0001
0000
0000
0000
,
1000
0010
0100
0010
1000
0001
0010
0100
1000
0000
0000
0000
0001
0000
0000
0000
,
1000
0000
0010
0000
1000
0001
1000
0000
0001
0000
0010
0000
0001
0100
0010
1000
,
0001
0000
0100
0000
0001
1000
0001
0000
1000
0000
0010
0000
1000
0010
0100
0001
,
1000
0100
0010
0100
1000
0001
0100
0010
1000
0000
0000
0000
0001
0000
0000
0000
,
1000
0100
0010
0100
1000
0001
0100
0010
1000
0000
0000
0000
0001
0000
0000
0000
,
1000
0000
0100
0000
1000
0001
1000
0000
0001
0000
0100
0000
0001
0010
0100
1000
,
0001
0000
0010
0000
0001
1000
0001
0000
1000
0000
0010
0000
1000
0100
0010
0100
,
1000
0001
0100
0010
1000
0100
1000
0001
0100
0000
0000
0000
0001
0000
0000
0000
,
1000
0010
1000
0001
0010
0100
1000
0001
0100
0000
0000
0000
0001
0000
0000
0000
,
0100
0000
0010
0000
1000
0001
1000
0000
0010
0000
0100
0000
0001
0010
0100
1000
,
0001
0000
0100
0000
0001
1000
0001
0000
0100
0000
0010
0000
1000
0010
0100
0001
,
1000
0100
0010
0100
1000
0001
0100
0010
1000
0000
0000
0000
0001
0000
0000
0000
,
1000
0010
0100
0010
1000
0001
0010
0100
1000
0000
0000
0000
0001
0000
0000
0000
,
1000
0000
0100
0000
1000
0001
1000
0000
0100
0000
0010
0000
0001
0100
0010
1000
,
0001
0000
0010
0000
0001
1000
0001
0000
1000
0000
0010
0000
1000
0001
0010
0100
,
1000
0000
0001
0010
0001
0000
1000
0000
0010
0000
0000
0000
0100
0000
0000
0000
,
0001
0000
1000
0010
1000
0000
0001
0000
0010
0000
0000
0000
0100
0000
0000
0000
,
1000
0000
0001
0010
0100
0010
0001
1000
0001
0000
0010
0000
0100
0000
1000
0000
,
0001
0000
1000
0010
0100
0010
1000
0001
1000
0000
0100
0000
0010
0000
0001
0000
,
1000
0000
0001
0010
0001
0000
1000
0000
0100
0000
0000
0000
0010
0000
0000
0000
,
0001
0000
1000
0010
1000
0000
0001
0000
0100
0000
0000
0000
0010
0000
0000
0000
,
1000
0000
0001
0010
0100
0010
0001
1000
0001
0000
0010
0000
0100
0000
1000
0000
,
0001
0000
1000
0010
0100
0010
1000
0001
1000
0000
0100
0000
0010
0000
0001
0000
,
1000
0000
0100
0010
0001
0000
1000
0000
0010
0000
0000
0000
1000
0000
0000
0000
,
0001
0000
1000
0010
0100
0000
0001
0000
0010
0000
0000
0000
0001
0000
0000
0000
,
1000
0000
0010
0100
0001
1000
0010
1000
0001
0000
0010
0000
0100
0000
1000
0000
,
0001
0000
0010
0100
1000
0001
0010
0001
1000
0000
0010
0000
0100
0000
0001
0000
,
1000
0000
0001
0100
0001
0000
1000
0000
0100
0000
0000
0000
1000
0000
0000
0000
,
0001
0000
1000
0100
1000
0000
0001
0000
0100
0000
0000
0000
0001
0000
0000
0000
,
1000
0000
0100
0010
0001
1000
0100
1000
0001
0000
0010
0000
0100
0000
1000
0000
,
0001
0000
0100
0010
1000
0001
0100
0001
1000
0000
0100
0000
0010
0000
0001
0000
,
1000
0100
1000
0010
0100
0001
1000
0001
,
1000
0100
1000
0010
0100
0001
1000
0001
,
1000
0100
1000
0010
0100
0001
1000
0001
,
1000
0010
1000
0100
0010
0001
1000
0001
,
1000
0100
1000
0010
0100
0001
1000
0001
,
1000
0100
1000
0010
0100
0001
1000
0001
,
1000
0100
1000
0010
0100
0001
1000
0001
,
1000
0100
1000
0001
0010
0001
0100
0001
,
1000
0010
1000
0100
0010
0001
1000
0001
,
1000
0010
1000
0100
0010
0001
1000
0001
,
1000
0010
1000
0100
0010
0001
1000
0001
,
1000
0100
1000
0010
0100
0001
1000
0001
,
1000
0010
1000
0100
0010
0001
1000
0001
,
1000
0010
1000
0100
0010
0001
1000
0001
,
1000
0010
1000
0100
0010
0001
1000
0001
,
1000
0010
1000
0001
0100
0001
0010
0100
,
1000
0010
1000
0001
0100
0001
1000
0100
0010
0100
1000
0001
0100
0010
1000
0001
,
1000
0100
1000
0001
0100
0010
1000
0001
1000
0100
0010
0100
1000
0001
0100
0010
,
1000
0000
0001
0000
0100
0000
0001
0000
1000
0100
1000
0000
0010
0100
0010
0000
,
1000
0000
0001
0000
0010
0000
0001
0000
1000
0010
1000
0000
0100
0010
0100
0000
,
0010
0001
1000
0100
1000
0001
0100
0000
0001
0000
0100
0000
0001
1000
0010
0100
,
0010
1000
0001
1000
0100
0000
0010
0000
0100
0000
0010
0000
0001
0100
0010
1000
,
0001
0000
1000
0000
0010
0000
1000
0000
0001
0010
0001
0000
0100
0010
0100
0000
,
0001
0000
1000
0000
0100
0000
1000
0000
0001
0100
0001
0000
0010
0100
0010
0000
,
0100
1000
0001
0100
0001
1000
0100
0010
0100
1000
0001
0100
0010
1000
0001
1000
,
0100
1000
0001
0100
0010
1000
0001
1000
0100
0010
0100
1000
0001
0100
0010
1000
,
0001
0000
0100
0000
0001
0000
1000
0000
0010
0100
0010
0000
1000
0010
1000
0000
,
0001
0000
0010
0000
0001
0000
1000
0000
0010
0100
0010
0000
1000
0100
1000
0000
,
0100
1000
0001
0010
0001
1000
0010
0000
1000
0000
0010
0000
1000
0001
0100
0010
,
0100
0001
1000
0001
0010
0000
0100
0000
0010
0000
0100
0000
1000
0010
0100
0001
,
0100
0000
0010
0000
1000
0000
0001
0000
1000
0010
1000
0000
0100
0010
0100
0000
,
1000
0000
0010
0000
0100
0000
0001
0000
1000
0100
1000
0000
0010
0100
0010
0000
,
1000
0100
1000
0010
0100
0001
1000
0001
,
1000
0100
1000
0010
0100
0001
1000
0001
,
1000
0100
1000
0010
0100
0001
1000
0001
,
1000
0010
1000
0100
0010
0001
1000
0001
,
1000
0100
1000
0010
0100
0001
1000
0001
,
1000
0100
1000
0010
0100
0001
1000
0001
,
1000
0100
1000
0010
0100
0001
1000
0001
,
1000
0100
1000
0001
0010
0001
0100
0001
,
1000
0010
1000
0100
0010
0001
1000
0001
,
1000
0010
1000
0100
0010
0001
1000
0001
,
1000
0010
1000
0100
0010
0001
1000
0001
,
1000
0100
1000
0010
0100
0001
1000
0001
,
1000
0010
1000
0100
0010
0001
1000
0001
,
1000
0010
1000
0100
0010
0001
1000
0001
,
1000
0010
1000
0100
0010
0001
1000
0001
,
1000
0010
1000
0001
0100
0001
0010
0100
;
