#TITLE:MAX;
#SUBTITLE:My final countdown;
#ARTIST:N_9404;
#TITLETRANSLIT:;
#SUBTITLETRANSLIT:;
#ARTISTTRANSLIT:;
#CREDIT:;
#BANNER:banner.jpg;
#BACKGROUND:BG.jpg;
#LYRICSPATH:;
#CDTITLE:KOMBO.png;
#MUSIC:max my final countdown.mp3;
#OFFSET:-0.009;
#SAMPLESTART:43.580;
#SAMPLELENGTH:12.000;
#SELECTABLE:YES;
#BPMS:0.000=160.000,44.000=320.000,276.000=160.000,280.000=80.000,314.000=320.000;
#STOPS:28.000=3.000
;
#BGCHANGES:148.500=BG2.JPG=1.000=0=0=1,
148.750=BG.jpg=1.000=0=0=1,
151.500=BG2.JPG=1.000=0=0=1,
151.750=BG.jpg=1.000=0=0=1,
154.500=BG2.JPG=1.000=0=0=1,
154.750=BG.jpg=1.000=0=0=1,
156.500=BG2.JPG=1.000=0=0=1,
156.750=BG.jpg=1.000=0=0=1,
164.500=BG2.JPG=1.000=0=0=1,
164.750=BG.jpg=1.000=0=0=1,
167.500=BG2.JPG=1.000=0=0=1,
167.750=BG.jpg=1.000=0=0=1,
170.500=BG2.JPG=1.000=0=0=1,
170.750=BG.jpg=1.000=0=0=1,
172.500=BG2.JPG=1.000=0=0=1,
172.750=BG.jpg=1.000=0=0=1,
180.500=BG2.JPG=1.000=0=0=1,
180.750=BG.jpg=1.000=0=0=1,
183.500=BG2.JPG=1.000=0=0=1,
183.750=BG.jpg=1.000=0=0=1,
186.500=BG2.JPG=1.000=0=0=1,
186.750=BG.jpg=1.000=0=0=1,
99999=-nosongbg-=1.000=0=0=0 // don't automatically add -songbackground-
;
// cache tags:
#FIRSTBEAT:4.250;
#LASTBEAT:506.500;
#SONGFILENAME:Songs/Definitive Keyboard Megapack/MAX - My final countdown [KOMBO]/max.sm;
#HASMUSIC:1;
#HASBANNER:1;
#MUSICLENGTH:127.582;
// end cache tags

//---------------dance-single - KOMBO index steps----------------
#NOTES:
     dance-single:
     KOMBO index steps:
     Hard:
     11:
     1.000,1.000,0.306,0.086,0.431,911.000,39.000,11.000,0.000,0.000:
0000
0000
0000
0000
,
0000
1000
0000
0001
0000
1000
0100
0000
0010
0100
0000
0001
0000
0010
1000
0000
,
0100
0001
0000
0010
0000
0100
1000
0000
1000
0100
0000
0001
0000
0100
0000
0000
,
0000
1000
0000
0001
0000
1000
0100
0000
0010
0100
0000
0001
0000
0010
1000
0000
,
0100
0001
0000
0010
0000
0100
1000
0000
1000
0100
0000
0001
0000
0100
0000
0000
,
0000
1000
0000
0001
0000
1000
0100
0000
0010
0100
0000
0001
0000
0010
1000
0000
,
0100
0001
0000
0010
0000
0100
1000
0000
1000
0100
0000
0001
0000
0100
0000
0000
,
0000
0100
1000
0100
0010
0001
0010
0100
0010
0001
0010
0100
0010
0001
1000
0001
,
1000
0100
0010
0100
1000
0100
0010
0001
0010
0100
0010
0100
0001
0010
0001
1000
,
0100
1000
0100
0010
0100
0010
0001
0010
0100
1000
0100
0010
0100
1000
0100
0010
,
0100
0010
0001
1000
0001
1000
0100
1000
0010
0100
0010
0001
0010
0100
1000
0100
,
0010
0100
1000
0100
0010
0100
0010
0100
,
0010
0001
0010
0100
0010
0100
0010
0001
,
0010
0100
1000
0100
0010
0100
1000
0100
,
0010
0100
0010
0001
1000
0001
0010
0100
,
0010
0100
0010
0001
0010
0100
1000
0001
,
1000
0100
0010
0100
0010
0001
0010
0100
,
0010
0001
0100
0010
0100
0010
1000
0001
,
1000
0100
0010
0100
0001
1000
0001
0010
,
0100
1001
0000
1010
0000
0000
0100
0000
,
0001
0010
0000
1100
0000
0000
0100
0000
,
0010
0100
0000
0101
0000
0000
0101
0000
,
0100
0010
0000
0100
0000
0100
0000
0010
,
0000
0010
0000
1100
0000
0000
0010
0000
,
0010
0100
0000
0010
0000
0000
0100
0000
,
0010
0100
0000
0010
0000
0000
1000
0000
,
0100
0010
0000
0010
0000
1000
0000
0100
,
0000
1001
0000
1010
0000
0000
0100
0000
,
0001
0010
0000
1100
0000
0000
0100
0000
,
0010
0100
0000
0101
0000
0000
0101
0000
,
0100
0010
0000
0100
0000
0100
0000
0010
,
0000
0010
0000
1100
0000
0000
0010
0000
,
0010
0100
0000
0010
0000
0000
0100
0000
,
0010
0100
0000
0010
0000
0000
1000
0000
,
0100
0010
0000
0010
0000
1000
0000
0100
,
0000
0000
0000
0000
,
0000
0000
0000
0000
,
0000
0000
0101
0020
0000
0000
0000
0000
0000
0000
0000
0000
0030
0000
0110
2000
,
0000
0000
0000
0000
0000
0000
0000
0000
3000
0000
1100
0002
0000
0000
0000
0000
,
0003
0000
0110
2000
0000
0000
0000
0000
3000
0000
0000
0000
0000
0000
0000
0000
,
0000
0000
0000
0000
,
0000
0000
1010
0200
0000
0000
0000
0000
0000
0000
0000
0000
0300
0000
0110
0002
,
0000
0000
0000
0000
0000
0000
0000
0000
0003
0000
0011
2000
0000
0000
0000
0000
,
3000
0000
0110
0002
0000
0000
0000
0000
0003
0000
0000
0000
0000
0000
0000
0000
,
0000
0000
0000
0000
,
0000
0000
1100
0002
0000
0000
0000
0000
0000
0000
0000
0000
0003
0000
1001
0020
,
0000
0000
0000
0000
0000
0000
0000
0000
0030
0000
1010
0200
0000
0000
0000
0000
,
0300
1000
0100
0010
0100
1000
0100
0010
,
0001
0010
0001
0010
0100
0010
0001
1000
,
0100
1000
0100
0010
0001
0010
0100
1000
,
0100
0010
0100
0010
0001
1000
0001
1000
,
0100
0010
0100
0010
1000
0010
1000
0100
,
0010
0100
1000
0100
0010
0001
1000
0010
,
1000
0100
0010
0001
0010
1000
0010
0001
,
1000
0001
0010
0001
1000
0100
0010
0100
,
1000
0100
0010
0100
0001
0100
0010
1000
,
0010
0100
0010
0100
0001
1000
0001
0100
,
1000
0100
1000
0001
1000
0001
0010
0100
,
0010
0100
1000
0100
1000
0100
0010
0100
,
0010
0100
1000
0001
1000
0100
0010
0100
,
1000
0100
0010
0001
1000
0001
0100
0010
,
0100
0001
0010
0100
1000
0100
0010
0100
,
0010
0001
0010
0001
0010
0100
0001
0100
,
0010
0100
0010
0001
0010
0100
1000
0100
,
0010
0100
1000
0100
1000
0001
1000
0010
,
0100
0010
0100
0001
0100
0001
1000
0001
,
1000
0100
1000
0001
0010
0001
0100
0010
,
0100
0010
1000
0010
1000
0100
0010
0001
,
0010
0100
0010
0001
1000
0001
0010
0100
,
1001
0000
1001
0000
,
1100
0000
1001
0000
0010
0100
0010
0000
0011
1000
0100
1000
0110
0001
0010
0001
,
1100
0000
1010
0000
0100
0010
0100
0000
0101
0010
0100
0010
1100
0001
0010
0001
,
0110
0000
1001
0000
0001
0010
0001
0000
1010
0001
0100
0001
1100
0010
0100
0010
,
1001
0000
1001
0000
0001
0010
0100
1000
0010
0000
0001
0000
0000
0100
0000
0001
,
0010
0000
1000
0000
0000
0100
0000
0010
0100
0000
0010
0000
0000
0001
0000
0010
,
0100
0000
1000
0000
0001
0000
1000
0000
0001
0000
0010
0000
0000
0100
0000
0010
,
1000
0000
0010
0000
0000
0100
0000
1000
0010
0000
0001
0000
0000
0001
0000
0100
,
0010
0000
1000
0000
0001
0000
0100
0000
0000
0100
0000
0000
0100
0000
0000
0100
,
0000
0000
0000
0000
0010
0100
0010
0100
,
1000
0100
0010
0001
0010
0001
0010
0100
,
0010
0001
1000
0100
1000
0100
0010
0001
,
0010
0100
1000
0100
0010
0100
0010
0001
,
1000
0001
1000
0100
0010
0100
0010
1000
,
0010
1000
0100
0010
0100
1000
0100
0010
,
0001
1000
0010
1000
0100
0010
0001
0010
,
1000
0010
0001
1000
0001
0010
0001
1000
,
0100
0010
0100
1000
0100
0010
0100
0001
,
0100
0010
1000
0010
0100
0010
0100
0001
,
1000
0001
0100
1000
0100
1000
0001
1000
,
0001
0010
0100
0010
0100
1000
0100
1000
,
0100
0010
0100
0010
0100
1000
0001
1000
,
0100
0010
0100
1000
0100
0010
0001
1000
,
0001
0100
0010
0100
0001
0010
0100
1000
,
0100
0010
0100
0010
0001
0010
0001
0010
,
0100
0001
0100
0010
0100
0010
0001
0010
,
0100
1000
0100
0010
0100
1000
0100
1000
,
0001
1000
0010
0100
0010
0100
0001
0100
,
0001
1000
0001
1000
0100
1000
0001
0010
,
0001
0100
0010
0100
0010
1000
0010
1000
,
0100
0010
0001
0010
0100
0010
0001
1000
,
0001
0010
0100
0001
1000
0001
0100
0010
,
0001
1000
0100
0010
0001
1000
0001
0100
,
0010
0001
1000
0100
0010
0001
0010
0100
,
1000
0100
0010
0100
1000
0100
0010
0001
,
0010
0001
0010
0100
0010
0001
1000
0100
,
1000
0100
0010
0001
1000
0001
0100
0001
,
1000
0001
1000
0010
0100
0010
0100
0001
,
1000
0001
1000
0100
1000
0100
0010
1000
,
0100
1000
0100
0010
0001
1000
0010
1000
,
0100
0010
0001
0010
1000
0010
0001
1000
,
0001
0010
0001
1000
0001
0100
0010
0001
,
0010
0100
0010
1000
0010
0100
0001
0100
,
0010
0100
0010
1000
0001
1000
0010
0001
,
0010
0001
1000
0001
1000
0100
0010
0001
,
0010
0100
0010
0001
0010
0100
1000
0100
,
1000
0010
0001
0010
0100
0010
0100
1000
,
0100
0010
0001
1000
0001
0100
0010
0100
,
0001
0010
0100
1000
0100
0010
0100
0010
,
0001
0010
0001
0010
0100
0001
0100
0010
,
0100
0010
0001
0010
0100
1000
0100
0010
,
0100
1000
0100
1000
0001
1000
0010
0100
,
0010
0100
0001
0100
0001
1000
0001
1000
,
0100
1000
0001
0010
0100
1000
0001
1000
,
0001
0010
0001
0010
1000
0001
0100
0001
,
1000
0001
0100
0010
0100
0001
1000
0001
,
0100
0010
1000
0001
1000
0010
0100
0001
,
0100
0010
0001
0010
0100
0010
0000
0000
;

//---------------dance-single - Kombo Normal steps----------------
#NOTES:
     dance-single:
     Kombo Normal steps:
     Challenge:
     12:
     1.000,1.000,1.000,1.000,0.431,909.000,184.000,130.000,0.000,19.000:
0000
0000
0000
0000
,
0000
1000
0000
0001
0000
1000
0100
0000
0010
0100
0000
0001
0000
0010
1000
0000
,
0100
0001
0000
0010
0000
0100
1000
0000
1000
0100
0000
0001
0000
0100
0000
0000
,
0000
1000
0000
0001
0000
1000
0100
0000
0010
0100
0000
0001
0000
0010
1000
0000
,
0100
0001
0000
0010
0000
0100
1000
0000
1000
0100
0000
0001
0000
0100
0000
0000
,
0000
1000
0000
0001
0000
1000
0100
0000
0010
0100
0000
0001
0000
0010
1000
0000
,
0100
0001
0000
0010
0000
0100
1000
0000
1000
0100
0000
0001
0000
0100
0000
0000
,
0000
0100
1000
0100
0010
0001
0010
0100
0010
0001
0010
0100
0010
0001
1000
0001
,
1000
0100
0010
0100
1000
0100
0010
0001
0010
0100
0010
0100
0001
0010
0001
1000
,
0100
1000
0100
0010
0100
0010
0001
0010
0100
1000
0100
0010
0100
1000
0100
0010
,
0100
0010
0001
1000
0001
1000
0100
1000
0010
0100
0010
0001
0010
0100
1000
0100
,
0010
0101
1000
0100
0010
0101
0010
0100
,
0010
1100
0010
1100
0010
1100
0010
0001
,
0010
0101
1000
0100
0010
0101
1000
0010
,
0100
0011
0100
0011
1000
0011
1000
0100
,
0010
1100
0010
0001
0010
1100
0010
0001
,
1000
0101
0010
0101
0010
0101
0010
0100
,
0010
1001
0100
0010
0100
1001
0010
0001
,
0010
1100
0010
1100
0010
1100
0001
0010
,
0001
0000
0000
0000
2200
3300
0000
0000
0000
0000
0000
0000
0022
0033
0000
0000
0000
0000
0000
0000
0000
0000
0000
0000
0001
0000
0000
0000
0000
0000
0000
0000
,
1000
0000
0000
0000
0220
0330
0000
0000
0000
0000
0000
0000
0022
0033
0000
0000
0000
0000
0000
0000
0000
0000
0000
0000
1000
0000
0000
0000
0000
0000
0000
0000
,
0001
0000
0000
0000
2200
3300
0000
0000
0000
0000
0000
0000
0220
0330
0000
0000
0000
0000
0000
0000
0000
0000
0000
0000
0100
0000
0000
0000
0000
0000
0000
0000
,
0010
0000
0000
0000
2200
3300
0000
0000
0000
0000
0000
0000
0220
0330
0000
0000
0000
0000
0000
0000
0022
0033
0000
0000
0000
0000
0000
0000
0220
0330
0000
0000
,
0000
0000
0000
0000
0022
0033
0000
0000
0000
0000
0000
0000
2200
3300
0000
0000
0000
0000
0000
0000
0000
0000
0000
0000
1000
0000
0000
0000
0000
0000
0000
0000
,
0001
0000
0000
0000
0220
0330
0000
0000
0000
0000
0000
0000
2200
3300
0000
0000
0000
0000
0000
0000
0000
0000
0000
0000
0001
0000
0000
0000
0000
0000
0000
0000
,
1000
0000
0000
0000
0022
0033
0000
0000
0000
0000
0000
0000
0220
0330
0000
0000
0000
0000
0000
0000
0000
0000
0000
0000
0010
0000
0000
0000
0000
0000
0000
0000
,
0100
0000
0000
0000
0022
0033
0000
0000
0000
0000
0000
0000
0220
0330
0000
0000
0000
0000
0000
0000
2200
3300
0000
0000
0000
0000
0000
0000
0220
0330
0000
0000
,
0000
0000
0000
0000
2200
3300
0000
0000
0000
0000
0000
0000
0022
0033
0000
0000
0000
0000
0000
0000
0000
0000
0000
0000
0001
0000
0000
0000
0000
0000
0000
0000
,
1000
0000
0000
0000
0220
0330
0000
0000
0000
0000
0000
0000
0022
0033
0000
0000
0000
0000
0000
0000
0000
0000
0000
0000
1000
0000
0000
0000
0000
0000
0000
0000
,
0001
0000
0000
0000
2200
3300
0000
0000
0000
0000
0000
0000
0220
0330
0000
0000
0000
0000
0000
0000
0000
0000
0000
0000
0100
0000
0000
0000
0000
0000
0000
0000
,
0010
0000
0000
0000
2200
3300
0000
0000
0000
0000
0000
0000
0220
0330
0000
0000
0000
0000
0000
0000
0022
0033
0000
0000
0000
0000
0000
0000
0220
0330
0000
0000
,
0000
0000
0000
0000
0022
0033
0000
0000
0000
0000
0000
0000
2200
3300
0000
0000
0000
0000
0000
0000
0000
0000
0000
0000
0100
0000
0000
0000
0000
0000
0000
0000
,
0001
0000
0000
0000
2020
3030
0000
0000
0000
0000
0000
0000
2200
3300
0000
0000
0000
0000
0000
0000
0000
0000
0000
0000
0001
0000
0000
0000
0000
0000
0000
0000
,
0100
0000
0000
0000
0022
0033
0000
0000
0000
0000
0000
0000
2020
3030
0000
0000
0000
0000
0000
0000
0000
0000
0000
0000
0010
0000
0000
0000
0000
0000
0000
0000
,
1000
0000
0000
0000
0022
0033
0000
0000
0000
0000
0000
0000
2020
3030
0000
0000
0000
0000
0000
0000
2200
3300
0000
0000
0000
0000
0000
0000
2020
3030
0000
0000
,
0000
0000
0000
0000
,
0000
0000
0000
0000
,
0000
0000
1001
0020
0000
0000
0000
0000
0000
0000
0000
0000
0030
0000
1010
0200
,
0000
0000
0000
0000
0000
0000
0000
0000
0300
0000
0101
0020
0000
0000
0000
0000
,
0030
0000
0110
0002
0000
0000
0000
0000
0000
0000
0000
0000
0000
0000
0000
0000
,
0003
0000
0000
0000
,
0000
0000
1001
0200
0000
0000
0000
0000
0000
0000
0000
0000
0300
0000
0101
0020
,
0000
0000
0000
0000
0000
0000
0000
0000
0030
0000
1010
0200
0000
0000
0000
0000
,
0300
0000
0110
2000
0000
0000
0000
0000
0000
0000
0000
0000
0000
0000
0000
0000
,
3000
0000
0000
0000
,
0000
0000
1001
0020
0000
0000
0000
0000
0000
0000
0000
0000
0030
0000
1010
0200
,
0000
0000
0000
0000
0000
0000
0000
0000
0300
0000
0101
0020
0000
0000
0000
0000
,
0030
1100
0010
0100
0010
0001
1000
0001
,
0100
0010
0001
0010
0100
0010
0001
1000
,
0100
1010
0100
0010
0001
0010
0100
1001
,
0100
0010
0100
0010
0100
1010
0001
0010
,
0100
1010
0100
0010
0001
0010
0001
0100
,
0010
0100
1000
0100
0010
0001
1000
0010
,
1000
0101
0010
0001
0010
1000
0010
0101
,
1000
0001
0010
0001
0010
1100
0010
0100
,
0010
1100
0010
0100
0001
0100
0010
1000
,
0010
0100
0010
0100
0001
1000
0001
0100
,
1000
0110
1000
0001
1000
0001
1000
0110
,
1000
0100
1000
0100
1000
0101
0010
0100
,
0010
0101
1000
0001
1000
0100
0010
0100
,
1000
0100
0010
0001
1000
0001
0100
0010
,
0100
1001
0010
0100
1000
0100
0010
1001
,
0010
0001
0010
0100
0010
0101
1000
0100
,
0010
0101
0010
0001
0010
0100
1000
0100
,
0010
0100
1000
0100
1000
0001
1000
0010
,
0100
1010
0100
0001
0100
0001
0100
1010
,
0100
0010
0100
0001
0010
0101
1000
0010
,
1000
0101
1000
0001
1000
0100
0010
0001
,
0010
0100
0010
0001
1000
0001
0010
0100
,
2002
3003
0000
0000
0000
0000
2002
3003
0000
0000
0000
0000
,
1100
0000
0101
0000
1010
0100
1010
0000
0011
1000
0100
1000
0110
0001
0010
0001
,
1100
0000
1010
0000
0110
1000
0110
0000
0101
0010
0100
0010
1100
0001
0010
0001
,
0110
0000
1001
0000
0101
0010
0101
0000
1010
0001
0100
0001
1100
0010
0100
0010
,
1001
0000
1001
0000
0101
0010
0101
1000
0021
0000
1230
0000
0000
0320
0000
2030
,
3012
0000
0213
0000
0000
2300
0000
3020
0132
0000
0213
0000
0000
0320
0000
2030
,
3012
0000
2103
0000
3021
0000
0132
0000
2013
0000
3021
0000
0000
0230
0000
0320
,
1032
0000
0123
0000
0000
0032
0000
0203
2310
0000
3021
0000
0000
2030
0000
3020
,
1032
0000
0213
0000
1302
0000
2103
0000
3000
2000
0000
3000
2000
0000
3000
2000
,
0000
3000
0000
0000
0000
0000
0000
0000
0010
0000
0100
0000
0010
0000
0100
0000
,
1000
0100
0010
0001
0010
0001
0010
0100
,
0010
0001
1000
0100
1000
0100
0010
0001
,
0010
0100
1000
0100
0010
0100
0010
0001
,
1000
0001
1000
0100
0010
0100
0010
1000
,
0010
1000
0100
0010
0100
1000
0100
0010
,
0001
1000
0010
1000
0100
0010
0001
0010
,
1000
0010
0001
1000
0001
0010
0001
1000
,
0100
0010
0100
1000
0100
1010
0100
0010
,
0100
1010
0100
0001
0010
1100
0010
0100
,
0010
0101
1000
0001
0100
1010
0001
1000
,
0100
0011
0100
0010
0100
1001
0100
1000
,
0100
1010
0100
0010
0100
1010
0001
1000
,
0100
0011
0100
1000
0100
1010
0001
1000
,
0001
1100
0010
0100
0001
0110
0001
1000
,
0100
1010
0100
0010
0001
0110
0001
0010
,
0100
0011
1000
0100
1000
0110
0001
0010
,
0100
1010
0100
0010
0100
1001
0100
1000
,
0010
1001
0010
0100
0010
1100
0001
0100
,
0001
1010
0001
0010
0001
1100
0001
0010
,
1000
0101
0010
0100
0010
1001
0010
1000
,
0100
1010
0001
0010
0100
1010
0001
1000
,
0100
0011
0100
0001
1000
0101
0010
0100
,
0001
1010
0100
0010
0001
1100
0001
0100
,
0010
0101
1000
0100
0010
1001
0010
0100
,
1000
0101
0010
0100
1000
0101
0010
0001
,
0010
0101
0010
0100
0010
0101
1000
0100
,
1000
0101
0010
0001
0010
0101
1000
0100
,
0010
1100
0010
0001
1000
0101
1000
0100
,
0010
0101
0010
1000
0010
1001
0100
0010
,
0100
1010
0100
0010
0001
1100
0010
1000
,
0100
1010
0001
0010
1000
0110
0001
1000
,
0001
1010
0001
1000
0100
0010
0100
1000
,
0100
0010
0100
0001
0100
0010
1000
0010
,
0100
0010
0100
0001
1000
0010
0100
1000
,
0100
0010
0001
1000
0001
0010
0100
0010
,
0100
1000
0100
1000
0100
0010
0001
0010
,
0100
0010
0001
1000
0100
0010
0100
1000
,
0100
0010
0001
1000
0001
0100
0010
0100
,
0001
0010
0100
1000
0100
0010
0100
0010
,
0001
0010
0001
0010
0100
0001
0100
0010
,
0100
0010
0001
0010
0100
1000
0100
1000
,
0001
0100
0001
0100
0010
0100
1000
0001
,
1000
0001
0010
0001
0010
0100
0010
0100
,
0001
0100
0010
1000
0010
0001
1000
0001
,
1000
0100
1000
0100
0001
1000
0010
1000
,
0001
1000
0010
0100
0010
1000
0001
1000
,
0010
0100
0001
1000
0001
0100
0010
1000
,
0001
1000
0001
1000
0000
0000
0000
0000
;

//---------------dance-single - Kombo Spread----------------
#NOTES:
     dance-single:
     Kombo Spread:
     Edit:
     14:
     1.000,1.000,1.000,1.000,0.474,953.000,288.000,189.000,0.000,56.000:

0000
0000
0000
0000
,
0000
1000
0000
0001
0000
1000
0100
0000
0010
0100
0000
0001
0000
0010
1000
0000
,
0100
0001
0000
0010
0000
0100
1000
0000
1000
0100
0000
0001
0000
0100
0000
0000
,
0000
1100
0000
0010
0000
0101
1000
0000
0010
1100
0000
0010
0000
0101
1000
0000
,
0100
0011
0000
0100
0000
1010
0100
0000
1000
0110
0000
0001
0000
1100
0000
0000
,
0000
0011
0000
0100
0000
1010
0001
0000
0100
0011
0000
0100
0000
1010
0001
0000
,
0010
1100
0000
0010
0000
0101
0010
0000
0001
0110
0000
1000
0000
0011
0000
0000
,
0000
1000
0100
1000
0010
0001
0010
0100
0010
0001
0010
0100
0010
0001
1000
0001
,
1000
0010
0001
0010
1000
0100
0010
0001
0010
0100
0010
0100
0001
0010
0001
1000
,
0100
1000
0001
1000
0100
0010
0001
0010
0100
1000
0100
0010
0100
1000
0100
0010
,
0100
0010
0001
0010
0100
1000
0100
1000
0010
0100
0010
0001
0010
0100
1000
0100
,
0010
0101
1000
0100
0010
0101
0010
0100
,
1000
0111
1000
0101
1000
0111
1100
0001
,
1000
0110
1000
0100
1000
0110
1000
0010
,
0001
1110
0001
1100
0001
1110
0011
0100
,
0001
1100
0010
0001
0010
1100
0010
0001
,
0010
1101
0010
0101
0010
1101
0110
0001
,
0010
1001
0100
0010
0100
1001
0010
0001
,
0010
1101
0010
1100
0010
1101
0101
0010
,
0001
0000
0000
0000
2200
3300
0000
0000
0000
0000
0000
0000
0022
0033
0000
0000
0000
0000
0000
0000
1100
0000
0000
0000
0010
0000
0000
0000
0101
0000
0000
0000
,
1000
0000
0000
0000
0220
0330
0000
0000
0000
0000
0000
0000
0022
0033
0000
0000
0000
0000
0000
0000
1010
0000
0000
0000
0100
0000
0000
0000
0101
0000
0000
0000
,
0010
0000
0000
0000
2200
3300
0000
0000
0000
0000
0000
0000
0220
0330
0000
0000
0000
0000
0000
0000
0011
0000
0000
0000
0100
0000
0000
0000
1100
0000
0000
0000
,
0010
0000
0000
0000
2200
3300
0000
0000
0000
0000
0000
0000
0220
0330
0000
0000
0000
0000
0000
0000
0022
0033
0000
0000
0000
0000
0000
0000
0220
0330
0000
0000
,
0000
0000
0000
0000
0022
0033
0000
0000
0000
0000
0000
0000
2200
3300
0000
0000
0000
0000
0000
0000
0101
0000
0000
0000
1000
0000
0000
0000
1010
0000
0000
0000
,
0001
0000
0000
0000
0220
0330
0000
0000
0000
0000
0000
0000
2200
3300
0000
0000
0000
0000
0000
0000
0101
0000
0000
0000
0001
0000
0000
0000
0110
0000
0000
0000
,
1000
0000
0000
0000
0022
0033
0000
0000
0000
0000
0000
0000
0220
0330
0000
0000
0000
0000
0000
0000
1100
0000
0000
0000
0010
0000
0000
0000
0101
0000
0000
0000
,
0100
0000
0000
0000
0022
0033
0000
0000
0000
0000
0000
0000
0220
0330
0000
0000
0000
0000
0000
0000
2200
3300
0000
0000
0000
0000
0000
0000
0220
0330
0000
0000
,
0000
0000
0000
0000
2200
3300
0000
0000
0000
0000
0000
0000
0022
0033
0000
0000
0000
0000
0000
0000
1100
0000
0000
0000
0001
0000
0000
0000
0101
0000
0000
0000
,
1000
0000
0000
0000
0220
0330
0000
0000
0000
0000
0000
0000
0022
0033
0000
0000
0000
0000
0000
0000
1010
0000
0000
0000
1000
0000
0000
0000
0110
0000
0000
0000
,
0001
0000
0000
0000
2200
3300
0000
0000
0000
0000
0000
0000
0220
0330
0000
0000
0000
0000
0000
0000
0101
0000
0000
0000
0010
0000
0000
0000
1010
0000
0000
0000
,
0001
0000
0000
0000
2200
3300
0000
0000
0000
0000
0000
0000
0220
0330
0000
0000
0000
0000
0000
0000
0022
0033
0000
0000
0000
0000
0000
0000
0220
0330
0000
0000
,
0000
0000
0000
0000
0022
0033
0000
0000
0000
0000
0000
0000
2200
3300
0000
0000
0000
0000
0000
0000
0011
0000
0000
0000
1000
0000
0000
0000
0101
0000
0000
0000
,
0010
0000
0000
0000
2020
3030
0000
0000
0000
0000
0000
0000
2200
3300
0000
0000
0000
0000
0000
0000
0110
0000
0000
0000
0100
0000
0000
0000
1100
0000
0000
0000
,
0001
0000
0000
0000
0022
0033
0000
0000
0000
0000
0000
0000
2020
3030
0000
0000
0000
0000
0000
0000
0101
0000
0000
0000
0010
0000
0000
0000
1001
0000
0000
0000
,
0100
0000
0000
0000
0022
0033
0000
0000
0000
0000
0000
0000
2020
3030
0000
0000
0000
0000
0000
0000
2200
3300
0000
0000
0000
0000
0000
0000
2020
3030
0000
0000
,
0000
0111
0000
0000
0000
0000
0000
0000
,
0000
0000
0000
0000
,
0000
0000
0000
0000
1001
0100
0020
0000
0000
0000
0000
0000
0000
0000
0000
0000
0000
0000
0000
0000
0000
0000
0000
0000
0030
0000
0000
0000
1010
0001
0200
0000
,
0000
0000
0000
0000
0000
0000
0000
0000
0000
0000
0000
0000
0000
0000
0000
0000
0300
0000
0000
0000
0101
1000
0020
0000
0000
0000
0000
0000
0000
0000
0000
0000
,
0030
0000
0000
0000
0110
1000
0002
0000
0000
0000
0000
0000
0000
0000
0000
0000
0000
0000
0000
0000
0000
0000
0000
0000
0000
0000
0000
0000
0000
0000
0000
0000
,
0003
0000
0000
0000
,
0000
0000
0000
0000
0110
0001
2000
0000
0000
0000
0000
0000
0000
0000
0000
0000
0000
0000
0000
0000
0000
0000
0000
0000
3000
0000
0000
0000
1100
0010
0002
0000
,
0000
0000
0000
0000
0000
0000
0000
0000
0000
0000
0000
0000
0000
0000
0000
0000
0003
0000
0000
0000
0011
0100
2000
0000
0000
0000
0000
0000
0000
0000
0000
0000
,
3000
0000
0000
0000
1001
0100
0020
0000
0000
0000
0000
0000
0000
0000
0000
0000
0000
0000
0000
0000
0000
0000
0000
0000
0000
0000
0000
0000
0000
0000
0000
0000
,
0030
0000
0000
0000
,
0000
0000
0000
0000
0110
1000
0002
0000
0000
0000
0000
0000
0000
0000
0000
0000
0000
0000
0000
0000
0000
0000
0000
0000
0003
0000
0000
0000
0101
0010
2000
0000
,
0000
0000
0000
0000
0000
0000
0000
0000
0000
0000
0000
0000
0000
0000
0000
0000
3000
0000
0000
0000
1010
0100
0002
0000
0000
0000
0000
0000
0000
0000
0000
0000
,
0003
1100
0010
1000
0010
0100
0001
0100
,
0010
0100
0001
0010
0100
0010
0001
0100
,
0010
1101
0010
0100
0010
0100
1000
0111
,
1000
0100
0010
0100
0010
1101
0010
0100
,
0010
1101
0010
0100
0001
0010
0001
0100
,
0010
0100
1000
0100
0010
0001
1000
0100
,
0010
1101
0010
0001
0010
0100
1000
0111
,
1000
0001
0010
0001
0010
1101
0010
0100
,
0010
1101
0010
0100
0001
0100
0010
1000
,
0010
0100
0010
0100
0001
1000
0001
0100
,
1000
0111
1000
0100
0001
0010
0001
1110
,
0001
0100
1000
0100
0010
1101
0010
0100
,
1000
0111
1000
0001
1000
0100
0010
0100
,
1000
0100
0010
0001
1000
0001
0100
0010
,
0100
1011
0100
0010
0100
0010
0100
1011
,
0100
1000
0100
0010
0001
1110
0001
0100
,
0010
1101
0010
0001
0010
0100
1000
0100
,
0010
0100
1000
0100
1000
0001
1000
0010
,
0100
1011
0100
0001
0100
0001
0100
1011
,
0100
0010
0100
0001
0010
1101
0010
0100
,
1000
0111
1000
0001
1000
0100
0010
0001
,
0010
0100
0010
0001
1000
0001
0010
0100
,
2222
0000
3003
0000
0000
0000
0000
0000
0000
0330
0000
0000
2222
0000
3003
0000
0000
0000
0000
0000
0000
0330
0000
0000
,
2200
3300
0000
0000
0202
0303
0000
0000
0022
0033
0220
0330
2200
3300
0000
0000
0022
0033
1000
0000
0100
0000
1000
0000
0220
0330
0001
0000
0010
0000
0001
0000
,
2200
3300
0000
0000
2020
3030
0000
0000
2200
3300
0220
0330
0022
0033
0000
0000
0202
0303
0010
0000
0100
0000
0010
0000
2200
3300
0001
0000
0010
0000
0001
0000
,
0220
0330
0000
0000
2002
3003
0000
0000
0202
0303
2020
3030
0202
0303
0000
0000
2020
3030
0001
0000
0100
0000
0001
0000
2200
3300
0010
0000
0100
0000
0010
0000
,
2002
3003
0000
0000
0022
0033
0000
0000
0202
0303
2020
3030
0202
0303
2020
3030
0102
0000
0000
0000
2013
0000
0000
0000
0111
0000
3002
0000
0000
0000
0023
0000
,
0231
0000
2301
0000
0111
3020
0000
0032
1203
0000
2301
0000
0111
3002
0000
0023
,
0231
0000
1320
0000
0132
0000
1203
0000
0321
0000
0132
0000
1110
2003
0000
3002
,
0213
0000
1302
0000
1113
0200
0000
2300
3021
0000
0132
0000
1110
0023
0000
0032
,
0213
0000
2301
0000
3210
0000
1320
0000
0030
0020
0000
0030
0020
0000
0030
0020
,
0000
0030
0000
0000
0000
0000
0000
0000
0010
0000
0100
0000
0010
0000
0100
0000
,
1000
0000
0000
0000
0000
0000
0000
0000
0000
0000
0000
0000
0000
0000
0000
0000
0000
0000
0000
0000
0000
0000
0000
0000
0100
0000
0000
0000
0000
0000
0000
0000
0000
0000
0000
0000
0000
0000
0000
0000
0000
0000
0000
0000
0000
0000
0000
0000
0010
0000
0000
0000
0000
0000
0000
0000
0000
0000
0000
0000
0000
0000
0000
0000
0000
0000
0000
0000
0000
0000
0000
0000
0200
0300
0000
0000
0000
0000
0000
0000
0000
0000
0000
0000
0000
0000
0000
0000
0000
0000
0000
0000
0000
0000
0000
0000
0010
0000
0000
0000
0000
0000
0000
0000
0000
0000
0000
0000
0000
0000
0000
0000
0000
0000
0000
0000
0000
0000
0000
0000
0001
0000
0000
0000
0000
0000
0000
0000
0000
0000
0000
0000
0000
0000
0000
0000
0000
0000
0000
0000
0000
0000
0000
0000
0010
0000
0000
0000
0000
0000
0000
0000
0000
0000
0000
0000
0000
0000
0000
0000
0000
0000
0000
0000
0000
0000
0000
0000
0100
0000
0000
0000
0000
0000
0000
0000
0000
0000
0000
0000
0000
0000
0000
0000
0000
0000
0000
0000
0000
0000
0000
0000
,
0010
0001
1000
0100
1000
0100
0010
0001
,
0010
0100
1000
0100
0010
0100
0010
0001
,
1000
0001
1000
0100
0010
0100
0010
1000
,
0010
1000
0100
0010
0100
1000
0100
0010
,
0001
1000
0010
1000
0100
0010
0001
0010
,
1000
0010
0001
1000
0001
0010
0001
1000
,
0100
0010
0100
1000
0100
1010
0100
0011
,
0100
1010
0001
1100
0010
1001
0010
0101
,
0010
0101
1000
0011
0100
1010
0001
0110
,
1000
0011
0100
1001
0100
0011
0100
1001
,
0100
1010
0100
0011
0100
1010
0001
1100
,
0010
1001
0010
1100
0010
1001
0100
1010
,
0001
1100
0001
0110
0001
1100
0010
1001
,
0100
1010
0100
0011
0100
1010
0001
0110
,
0001
1010
0001
0110
1000
0110
0001
1010
,
0100
0011
0100
1010
0100
1001
0010
1001
,
0100
0011
1000
0101
0010
1100
0010
0101
,
0010
1100
0001
1010
0001
1100
0001
0110
,
1000
0101
0010
1100
0001
1010
0001
1100
,
0010
1001
0100
0011
0100
1010
0001
1100
,
0010
0101
1000
0011
1000
0101
0010
1001
,
0100
1010
0100
0011
0100
1001
0100
1010
,
0100
1001
0010
1100
0001
1010
0100
0011
,
1000
0101
0010
1100
0001
1010
0100
0011
,
0100
1001
0010
1100
0010
0101
0010
1100
,
0010
0101
0010
1001
0010
0101
0010
1001
,
0010
1100
0010
0101
1000
0011
1000
0110
,
0001
1010
0100
1001
0010
0101
0010
1001
,
0100
1010
0100
0011
0100
1010
0001
0110
,
1000
0101
1000
0011
1000
0110
0001
1100
,
0001
1010
0001
1010
0100
0010
0001
0010
,
0100
0010
0100
0001
0100
0010
1000
0010
,
0100
0010
0100
0001
0010
0001
0100
1000
,
0100
0010
0001
1000
0001
0010
0100
0010
,
0100
1000
0100
1000
0100
1000
0001
0010
,
0100
0010
0001
1000
0100
0010
0100
1000
,
0100
1000
0010
0100
0001
0100
0010
0100
,
0001
0010
0100
1000
0100
0010
0100
0010
,
0001
0010
0001
0010
1000
0010
0001
0010
,
0100
0010
0001
0010
0100
1000
0100
1000
,
0001
0100
0001
0100
0010
0100
1000
0001
,
1000
0001
0010
0001
0010
0100
0010
0100
,
0001
0100
0010
1000
0010
0001
1000
0001
,
1000
0100
1000
0100
0001
1000
0010
1000
,
0001
1000
0010
0100
0010
1000
0001
1000
,
0010
0100
0001
1000
0001
0100
0010
1000
,
0001
1000
0001
1000
0001
1000
0000
0000
;
