#TITLE:Uranoid (DJKurara Remix);
#SUBTITLE:THE FINAL BOSS SONG #1;
#ARTIST:Diabarha;
#TITLETRANSLIT:;
#SUBTITLETRANSLIT:;
#ARTISTTRANSLIT:;
#CREDIT:owenviau1;
#BANNER:../owenviau1 Simfiles 6 (Science X Owen).png;
#BACKGROUND:;
#LYRICSPATH:;
#CDTITLE:;
#MUSIC:Uranoid (DJ Kurara Remix).mp3;
#OFFSET:-0.157;
#SAMPLESTART:142.789;
#SAMPLELENGTH:29.999;
#SELECTABLE:YES;
#DISPLAYBPM:700.000;
#BPMS:0.000=175.000,192.000=350.000,576.000=175.000,608.000=350.000,736.000=175.000,768.000=350.000,895.000=175.000,1023.000=350.000,1279.000=175.000;
#STOPS:;
#BGCHANGES:;
// cache tags:
#FIRSTBEAT:0.000;
#LASTBEAT:1364.000;
#SONGFILENAME:Songs/owenviau1 Simfiles 6/Uranoid (DJKurara Remix) - [owenviau1] v1.0.7/Uranoid (DJ Kurara Remix).sm;
#HASMUSIC:1;
#HASBANNER:1;
#MUSICLENGTH:316.421;
// end cache tags

//---------------dance-single - 15- (owenviau1)----------------
#NOTES:
     dance-single:
     15- (owenviau1):
     Easy:
     15:
     1.000,1.000,0.149,0.389,0.561,2715.000,47.000,123.000,0.000,3.000:
2000
0000
0000
3002
0000
0000
0000
0000
0000
0000
0000
0000
0000
0000
0000
0000
,
0000
0000
0000
0000
,
2003
0000
0000
0000
,
0000
3020
0000
0000
0000
0000
0000
2030
,
3002
0000
0000
0000
,
0203
0000
0000
0000
,
0302
0000
0000
0000
,
2003
0000
0000
0000
,
3202
0303
0000
0000
0220
0330
0000
0000
,
2200
3300
0000
0000
2002
3003
0000
0000
,
2020
3030
0000
0000
0220
0330
0000
0000
,
0202
0303
0000
0000
2002
3003
0000
0000
,
2020
3030
0000
0000
2200
3300
0000
0000
,
0022
0033
0000
0000
2020
3030
0000
0000
,
0202
0303
0000
0000
2002
3003
0000
0000
,
0220
0330
0000
0000
0202
0303
0000
0000
,
2000
3100
0010
0001
1000
0001
0100
0010
,
1000
0001
0010
0001
0100
0010
1000
0100
,
0010
0001
1000
0001
0100
0010
1000
0001
,
0010
0100
1000
0100
1000
0010
0100
0001
,
1000
0001
0100
0010
1000
0001
0100
0001
,
1000
0100
1000
0010
0100
0001
1000
0100
,
0010
0001
1000
0001
0100
0010
1000
0001
,
0010
0001
0100
0010
1000
0100
0010
0001
,
1001
0000
0100
0000
0010
0000
1000
0000
0100
0000
0010
0001
1000
0000
0010
0000
,
0100
0001
0100
0010
1000
0000
0001
0000
0100
0000
0010
1000
0001
0000
0100
0000
,
0010
1000
0100
0010
0001
0000
0100
0000
0010
0000
1000
0001
0100
0000
0010
0000
,
1000
0001
1000
0010
0100
0000
0001
0000
1000
0000
0100
0000
1000
0000
0010
0000
,
0100
0000
0001
0000
1000
0000
0100
0000
0010
0000
0001
1000
0001
0000
0100
0000
,
0010
1000
0001
0100
0010
0000
1000
0000
0100
0000
0010
0001
1000
0000
0001
0000
,
0100
0010
1000
0001
0100
0000
0010
0000
1000
0000
0100
0010
0001
0000
1000
0000
,
0010
0100
0001
1000
0001
0000
0100
0000
0010
0000
1000
0001
0100
0000
0010
0000
,
1000
0001
0100
0010
1000
0001
0100
0001
1000
0100
1000
0010
0100
0001
1000
0100
,
0010
0001
1000
0001
0010
0100
1000
0010
0100
0001
0100
0010
1000
0100
1000
0001
,
0100
0010
1000
0100
0010
0001
1000
0010
0100
0010
1000
0001
0010
0001
0100
0010
,
1000
0100
0010
0001
1000
0001
0100
0010
1000
0001
0010
0001
1000
0100
1000
0010
,
0100
0001
1000
0100
0010
0001
0100
0010
1000
0001
0100
0010
1000
0001
0100
0001
,
1000
0100
1000
0010
0100
0001
1000
0100
0010
0001
1000
0001
0010
0100
1000
0010
,
0100
0001
0100
0010
1000
0100
1000
0001
0100
0010
1000
0100
0010
0001
1000
0010
,
0100
0010
1000
0001
0010
0001
0100
0010
1000
0100
0010
0001
1000
0001
0100
0010
,
1000
0001
0010
0001
1000
0100
1000
0010
0100
0001
1000
0100
0010
0001
0100
0010
,
1000
0001
0100
0010
1000
0001
0100
0001
1000
0100
1000
0010
0100
0001
1000
0100
,
0010
0001
1000
0001
0010
0100
1000
0010
0100
0001
0100
0010
1000
0100
1000
0001
,
0100
0010
1000
0100
0010
0001
1000
0010
0100
0010
1000
0001
0010
0001
0100
0010
,
1000
0100
0010
0001
1000
0001
0100
0010
1000
0001
0010
0001
1000
0100
1000
0010
,
0100
0001
1000
0100
0010
0001
0100
0010
1000
0001
0100
0010
1000
0001
0010
0001
,
1000
0100
0010
0001
1000
0001
0100
0010
1000
0001
0100
0001
1000
0010
0100
0001
,
1000
0100
0010
0001
1000
0001
0100
0010
1000
0100
1000
0001
0100
0010
1000
0001
,
0100
0000
0001
0100
0010
1000
0001
0010
,
0001
1000
0100
0010
0001
0100
0010
1000
,
0001
0100
0001
1000
0010
0100
0010
1000
,
0001
0100
0001
1000
0100
0010
0001
0100
,
0010
1000
0001
0010
0001
1000
0100
0010
,
0001
0100
0010
1000
0001
0100
0001
1000
,
0100
0010
0001
0100
0010
0100
0001
1000
,
0010
0100
0010
1000
0001
0100
0010
1000
,
0001
0000
1000
0100
0010
0001
0100
0010
,
0100
0001
1000
0100
1000
0001
0100
0010
,
1000
0001
0010
0001
1000
0100
0010
0001
,
0100
0010
1000
0001
0100
0001
1000
0100
,
0010
0001
0100
0010
1000
0001
0010
0001
,
1000
0100
1000
0001
0100
0010
1000
0001
,
0010
0001
0100
0010
1000
0100
0010
0001
,
1000
0010
1000
0001
0100
0010
1000
0001
,
0100
0000
0010
1000
0001
0100
0001
1000
,
0100
0010
0001
0100
0010
1000
0001
0010
,
0001
1000
0100
1000
0001
0100
0010
1000
,
0001
0010
0001
1000
0100
1000
0001
0100
,
0010
1000
0001
0100
0001
1000
0100
0010
,
0001
1000
0010
0100
0001
1000
0100
1000
,
0001
0100
0010
1000
0010
0100
0001
1000
,
0100
0010
0001
0010
0100
1000
0001
0100
,
0010
0000
1000
0100
0010
0001
0100
0010
,
0100
0001
1000
0100
1000
0001
0100
0010
,
1000
0001
0010
0001
1000
0100
0010
0001
,
0100
0010
1000
0001
0100
0001
1000
0100
,
0010
0001
0100
0010
1000
0001
0010
0001
,
1000
0100
1000
0001
0100
0010
1000
0001
,
0010
0001
0100
0010
1000
0100
0010
0001
,
1000
0010
1000
0001
0100
0010
1000
0001
,
0100
0000
0010
1000
0001
0100
0001
1000
,
0100
0010
0001
0100
0010
1000
0001
0010
,
0001
1000
0100
1000
0001
0100
0010
1000
,
0001
0010
0001
1000
0100
1000
0001
0100
,
0010
1000
0001
0100
0001
1000
0100
0010
,
0001
1000
0010
0100
0001
1000
0100
1000
,
0001
0100
0010
1000
0010
0100
0001
1000
,
0100
0010
0001
0010
0100
1000
0001
0100
,
0010
0000
1000
0100
0010
0001
0100
0010
,
0100
0001
1000
0100
1000
0001
0100
0010
,
1000
0001
0010
0001
1000
0100
0010
0001
,
0100
0010
1000
0001
0100
0001
1000
0100
,
0010
0001
0100
0010
1000
0001
0010
0001
,
1000
0100
1000
0001
0100
0010
1000
0001
,
0010
0001
0100
0010
1000
0100
0010
0001
,
1000
0010
1000
0001
0100
0010
1000
0001
,
0100
0000
0010
1000
0001
0100
0001
1000
,
0100
0010
0001
0100
0010
1000
0001
0010
,
0001
1000
0100
1000
0001
0100
0010
1000
,
0001
0010
0001
1000
0100
1000
0001
0100
,
0010
1000
0001
0100
0001
1000
0100
0010
,
0001
1000
0010
0100
0001
1000
0100
1000
,
0001
0100
0010
1000
0010
0100
0001
1000
,
0100
0010
0001
0010
0100
1000
0001
0100
,
0010
0000
1000
0100
0010
0001
1000
0010
,
0100
0001
1000
0100
1000
0001
0100
0010
,
1000
0001
0010
0001
1000
0100
0010
0001
,
0100
0010
1000
0001
0100
0001
1000
0100
,
0010
0001
0100
0010
1000
0001
0010
0001
,
1000
0100
1000
0001
0100
0010
1000
0001
,
0010
0001
0100
0010
1000
0100
0010
0001
,
1000
0010
1000
0001
0100
0010
1000
0001
,
0100
0000
0010
1000
0001
0100
0001
1000
,
0100
0010
0001
0100
0010
1000
0001
0010
,
0001
1000
0100
1000
0001
0100
0010
1000
,
0001
0010
0001
1000
0100
1000
0001
0100
,
0010
1000
0001
0100
0001
1000
0100
0010
,
0001
1000
0010
0100
0001
1000
0100
1000
,
0001
0100
0010
1000
0010
0100
0001
1000
,
0100
0010
0001
0010
0100
1000
0001
0100
,
0010
0000
1000
0100
0010
0001
0100
0010
,
1000
0001
0010
0100
1000
0001
0100
0010
,
1000
0001
0010
0001
1000
0100
0010
0001
,
0100
0010
1000
0001
0100
0001
1000
0100
,
0010
0001
0100
0010
1000
0001
0010
0001
,
1000
0100
1000
0001
0100
0010
1000
0001
,
0010
0001
0100
0010
1000
0100
0010
0001
,
1000
0010
1000
0001
0100
0010
2000
0000
,
3200
0000
0310
1000
0001
0100
0001
1000
,
0100
0010
0001
0100
0010
1000
0001
0010
,
0001
1000
0100
1000
0001
0100
0010
1000
,
0001
0010
0001
1000
0100
1000
0001
0100
,
0010
1000
0001
0100
0001
1000
0100
0010
,
0001
1000
0010
0100
0001
1000
0100
1000
,
0001
0100
0010
1000
0010
0100
0001
1000
,
0100
0010
0001
0010
0100
1000
0001
0100
,
0010
0000
1000
0100
0010
0001
0100
0010
,
0100
0001
1000
0100
1000
0001
0100
0010
,
1000
0001
0010
0001
1000
0100
0010
0001
,
0100
0010
1000
0001
0100
0001
1000
0100
,
0010
0001
0100
0010
1000
0001
0010
0001
,
1000
0100
1000
0001
0100
0010
1000
0001
,
0010
0001
0100
0010
1000
0100
0010
0001
,
1000
0010
1000
0001
0100
0010
1000
0001
,
0100
0010
1000
0001
0100
0001
1000
0100
1000
0010
0100
0001
1000
0100
0010
0001
,
1000
0001
0010
0100
1000
0010
0100
0001
0100
0010
1000
0100
1000
0001
0100
0010
,
1000
0100
0010
0001
1000
0010
0100
0010
1000
0001
0010
0001
0100
0010
1000
0100
,
0010
0001
1000
0001
0100
0010
1000
0001
0010
0001
1000
0100
1000
0010
0100
0001
,
1000
0100
0010
0001
0100
0010
1000
0001
0100
0010
1000
0001
0010
0001
0100
0010
,
1000
0100
0010
0001
1000
0001
0100
0010
1000
0001
0010
0001
1000
0010
1000
0001
,
0100
0010
1000
0001
0100
0010
0100
0001
1000
0010
0100
0010
1000
0001
1000
0010
,
0100
0001
1000
0100
0010
0001
0010
0100
1000
0001
0100
0010
1000
0001
0100
0010
,
1000
0100
0010
0001
1000
0010
0100
0001
,
1000
0100
1000
0001
0100
0010
1000
0001
,
0010
0001
1000
0100
0010
0001
0100
0010
,
1000
0001
0100
0001
1000
0100
0010
0001
,
0100
0010
1000
0001
0010
0001
1000
0100
,
1000
0001
0100
0010
1000
0001
0010
0001
,
0100
0010
1000
0100
0010
0001
1000
0010
,
2000
3002
0203
0320
2030
3002
0203
0320
,
2030
3200
0320
0032
1003
0010
0100
0001
,
1000
0100
1000
0001
0100
0010
1000
0001
,
0010
0001
1000
0100
0010
0001
0100
0010
,
1000
0001
0100
0001
1000
0100
0010
0001
,
0100
0010
1000
0001
0010
0001
1000
0100
,
1000
0001
0100
0010
1000
0001
0010
0001
,
0100
0010
1000
0100
0010
0001
1000
0010
,
1000
0001
0100
0010
1000
0001
1000
0100
,
0010
0001
1000
0010
0100
0001
1000
0100
,
1000
0001
0100
0010
1000
0001
0010
0001
,
1000
0100
0010
0001
0100
0010
1000
0001
,
0100
0001
1000
0100
0010
0001
0100
0010
,
1000
0001
0010
0001
1000
0100
1000
0001
,
0100
0010
1000
0001
0010
0001
0100
0010
,
1000
0100
0010
0001
1000
0010
1000
0001
,
0100
0010
1000
0001
1000
0100
0010
0001
,
1000
0010
0100
0001
1000
0100
1000
0001
,
0100
0010
1000
0001
0010
0001
1000
0100
,
0010
0001
0100
0010
1000
0001
0100
0001
,
1000
0100
0010
0001
0100
0010
1000
0001
,
0010
0001
1000
0100
1000
0001
0100
0010
,
1000
0001
0010
0001
0100
0010
1000
0100
,
0010
0001
1000
0010
1000
0001
0100
0010
,
1000
0001
0100
0010
1000
0100
0010
0001
,
1000
0100
0010
0001
0100
0010
1000
0001
,
0010
0001
1000
0100
1000
0001
0100
0010
,
1000
0001
0010
0001
1000
0100
1000
0001
,
0100
0010
1000
0001
0100
0001
1000
0100
,
0010
0001
1000
0010
0100
0001
1000
0100
,
1000
0001
0100
0010
1000
0010
0100
0001
,
1000
0100
0010
0001
0010
0100
1000
0001
,
0100
0010
1000
0001
0100
0010
1000
0001
0100
0001
1000
0100
0010
0001
1000
0010
,
1000
0100
0010
0001
0100
0010
1000
0001
,
0010
0001
1000
0100
1000
0001
0100
0010
,
1000
0001
0010
0001
1000
0100
1000
0001
,
0100
0010
1000
0001
0100
0001
1000
0100
,
0010
0001
1000
0010
0100
0001
1000
0100
,
1000
0001
0100
0010
1000
0010
0100
0001
,
1000
0100
0010
0001
0010
0100
1000
0001
,
0100
0010
1000
0100
0010
0001
0100
0010
,
1000
0000
0010
1000
0001
0100
0001
1000
,
0100
0010
0001
0100
0010
1000
0001
0010
,
0001
1000
0100
1000
0001
0100
0010
1000
,
0001
0010
0001
1000
0100
1000
0001
0100
,
0010
1000
0001
0100
0001
1000
0100
0010
,
0001
1000
0010
0100
0001
1000
0100
1000
,
0001
0100
0010
1000
0010
0100
0001
1000
,
0100
0010
0001
0010
0100
1000
0001
0100
,
0010
0000
0001
1000
0010
0100
0001
1000
,
0100
0010
0001
0100
0010
1000
0001
0010
,
0001
1000
0100
1000
0001
0100
0010
1000
,
0001
0010
0001
1000
0100
1000
0001
0100
,
0010
1000
0001
0100
0001
1000
0100
0010
,
0001
1000
0010
0100
0001
1000
0100
1000
,
0001
0100
0010
1000
0010
0100
0001
1000
,
0100
0010
0001
0010
0100
1000
0001
0100
,
0010
1000
0001
0100
0001
1000
0100
0010
,
0001
0100
0010
1000
0001
0010
0001
1000
,
0100
1000
0001
0100
0010
1000
0001
0010
,
0001
1000
0100
1000
0001
0100
0010
1000
,
0001
0100
0001
1000
0100
0010
0001
1000
,
0010
0100
0001
1000
0100
1000
0001
0100
,
0010
1000
0010
0100
0001
1000
0100
0010
,
0001
0000
0010
0000
0100
0000
1000
0000
0001
0000
0100
0000
0010
1000
0002
0000
,
0003
0000
0000
0000
0000
0000
0000
2020
,
3030
0000
0000
0220
0330
0000
0000
0202
,
0303
0000
0000
0000
0000
0000
0000
2002
,
3003
0000
0000
0000
0000
2020
3030
0220
,
0330
0000
0000
0000
0000
0000
0000
2002
,
3003
0000
0000
0202
0303
0000
0000
0220
,
0330
0000
0000
0000
0000
0000
0000
2200
,
3300
0000
0000
0000
0000
2002
3003
0202
,
0303
0000
0000
0000
0000
0000
0000
0220
,
0330
0000
0000
2200
3300
0000
0000
2002
,
3003
0000
0000
0000
0000
0000
0000
0202
,
0303
0000
0000
0000
0000
0220
0330
2200
,
3300
0000
0000
0000
0000
0000
0000
2002
,
3003
0000
0000
0202
0303
0000
0000
0220
,
0330
0000
0000
0000
0000
0000
0000
2200
,
3311
0000
1100
0110
0011
1001
0101
0110
,
1000
0001
0100
0010
1000
0001
0100
0001
1000
0100
1000
0010
0100
0001
1000
0100
,
0010
0001
1000
0001
0010
0100
1000
0010
0100
0001
0100
0010
1000
0100
1000
0001
,
0100
0010
1000
0100
0010
0001
1000
0010
0100
0010
1000
0001
0010
0001
0100
0010
,
1000
0100
0010
0001
1000
0001
0100
0010
1000
0001
0010
0001
1000
0100
1000
0010
,
0100
0001
1000
0100
0010
0001
0100
0010
1000
0001
0100
0010
1000
0001
0100
0001
,
1000
0100
1000
0010
0100
0001
1000
0100
0010
0001
1000
0001
0010
0100
1000
0010
,
0100
0001
0100
0010
1000
0100
1000
0001
0100
0010
1000
0100
0010
0001
1000
0010
,
0100
0010
1000
0001
0010
0001
0100
0010
1000
0100
0010
0001
1000
0001
0100
0010
,
1000
0001
0010
0001
1000
0100
1000
0010
0100
0001
1000
0100
0010
0001
0100
0010
,
1000
0001
0100
0010
1000
0001
0100
0001
1000
0100
1000
0010
0100
0001
1000
0100
,
0010
0001
1000
0001
0010
0100
1000
0010
0100
0001
0100
0010
1000
0100
1000
0001
,
0100
0010
1000
0100
0010
0001
1000
0010
0100
0010
1000
0001
0010
0001
0100
0010
,
1000
0100
0010
0001
1000
0001
0100
0010
1000
0001
0010
0001
1000
0100
1000
0010
,
0100
0001
1000
0100
0010
0001
0100
0010
1000
0001
0100
0001
1000
0100
1000
0010
,
0100
0001
1000
0100
0010
0001
1000
0001
0100
0010
1000
0001
0010
0001
1000
0100
,
1000
0010
0100
0001
1000
0100
0010
0001
1000
0001
0100
0010
1000
0000
0000
0000
,
0000
0100
0001
1000
0100
0010
0001
0100
,
0010
1000
0001
0010
0001
1000
0100
1000
,
0001
0100
0010
1000
0001
0010
0001
1000
,
0100
1000
0001
0100
0010
1000
0001
0100
,
0001
1000
0100
0010
0001
1000
0010
0100
,
0001
1000
0100
1000
0001
0100
0010
1000
,
0010
0100
0001
1000
0100
0010
0001
0010
,
0100
1000
0001
0100
0010
0000
1000
0100
,
0010
0001
0100
0010
0100
0001
1000
0100
,
1000
0001
0100
0010
1000
0001
0010
0001
,
1000
0100
0010
0001
0100
0010
1000
0001
,
0100
0001
1000
0100
0010
0001
0100
0010
,
1000
0001
0010
0001
1000
0100
1000
0001
,
0100
0010
1000
0001
0010
0001
0100
0010
,
1000
0100
0010
0001
1000
0010
1000
0001
,
0100
0010
1000
0001
0100
0010
1000
0001
,
0200
0000
0310
1000
0100
0010
0001
0100
,
0010
1000
0001
0010
0001
1000
0100
1000
,
0001
0100
0010
1000
0001
0010
0001
1000
,
0100
1000
0001
0100
0010
1000
0001
0100
,
0001
1000
0100
0010
0001
1000
0010
0100
,
0001
1000
0100
1000
0001
0100
0010
1000
,
0010
0100
0001
1000
0100
0010
0001
0010
,
0100
1000
0001
0100
0010
1000
0001
0100
,
0020
0000
1030
0100
0010
0001
0100
0010
,
0100
0001
1000
0100
1000
0001
0100
0010
,
1000
0001
0010
0001
1000
0100
0010
0001
,
0100
0010
1000
0001
0100
0001
1000
0100
,
0010
0001
0100
0010
1000
0001
0010
0001
,
1000
0100
1000
0001
0100
0010
1000
0001
,
0010
0001
0100
0010
1000
0100
0010
0001
,
1000
0010
1000
0001
0100
0010
2000
0000
,
3001
0100
0010
1000
0001
0100
0001
1000
,
0100
0010
0001
0100
0010
1000
0001
0010
,
0001
1000
0100
1000
0001
0100
0010
1000
,
0001
0010
0001
1000
0100
1000
0001
0100
,
0010
1000
0001
0100
0001
1000
0100
0010
,
0001
1000
0010
0100
0001
1000
0100
1000
,
0001
0100
0010
1000
0010
0100
0001
1000
,
0100
0010
0001
0010
0100
1000
0001
0100
,
0010
1000
0001
0100
0010
0100
0001
1000
,
0100
1000
0001
0100
0010
1000
0001
0010
,
0001
1000
0100
0010
0001
0100
0010
1000
,
0001
0100
0001
1000
0100
0010
0001
0100
,
0010
1000
0001
0010
0001
1000
0100
1000
,
0001
0100
0010
1000
0001
0010
0001
0100
,
0010
1000
0100
0010
0001
1000
0010
1000
,
0001
0100
0010
1000
0001
0100
0010
0100
,
0001
1000
0100
1000
0001
0100
0010
1000
,
0001
0010
0001
1000
0100
0010
0001
0100
,
0010
1000
0001
0100
0001
1000
0100
0010
,
0001
0100
0010
1000
0001
0010
0001
1000
,
0100
1000
0001
0100
0010
1000
0001
0010
,
0001
0100
0010
1000
0100
0010
0001
1000
,
0010
1000
0001
0100
0010
1000
0001
1000
,
0100
0010
0001
0010
0100
1000
0001
0100
,
0010
1000
0010
0100
0001
1000
0100
1000
,
0001
0100
0010
1000
0001
0010
0001
1000
,
0100
0010
0001
0100
0010
1000
0001
0100
,
0001
1000
0100
0010
0001
0100
0010
1000
,
0001
0010
0001
1000
0100
1000
0001
0100
,
0010
1000
0001
0010
0001
0100
0010
1000
,
0100
0010
0001
1000
0010
1000
0001
0100
,
0010
1000
0001
0100
0010
1000
0200
0000
,
0000
0302
0000
0000
0000
0000
0000
0000
,
0000
0000
0000
0000
,
2003
0000
0000
0000
,
3020
0000
0000
0000
0000
0000
2030
3002
,
0000
0000
0000
0000
,
0203
0000
0000
0000
,
0302
0000
0000
0000
,
2003
0000
0000
0000
0000
0000
0000
0000
0000
0000
3001
0100
0010
1000
0001
0010
,
0001
1000
0100
0010
0001
0100
0010
1000
0001
0100
0002
0000
0000
0000
0000
0000
,
0000
0000
0000
0000
0000
0000
0000
2003
,
0000
0000
0000
0000
,
3020
0000
0000
0000
0000
0000
2030
3002
,
0000
0000
0000
0000
0000
0000
0000
0203
,
0000
0000
0000
0000
0000
0000
0000
0302
,
0000
0000
0000
0000
0000
0000
0000
2003
,
0000
0000
0000
0000
0000
0000
0000
3220
,
0000
0000
0000
0000
,
0000
0000
0000
0000
,
0000
0000
0000
0000
,
0000
0000
0000
0000
,
0000
0000
0000
0000
,
0330
0000
0000
0000
,
0000
0000
0000
0000
;

//---------------dance-single - 23- (owenviau1)----------------
#NOTES:
     dance-single:
     23- (owenviau1):
     Medium:
     23:
     1.000,1.000,0.149,0.389,1.000,3594.000,47.000,123.000,0.000,3.000:
2000
0000
0000
3002
0000
0000
0000
0000
0000
0000
0000
0000
0000
0000
0000
0000
,
0000
0000
0000
0000
,
2003
0000
0000
0000
,
0000
3020
0000
0000
0000
0000
0000
2030
,
3002
0000
0000
0000
,
0203
0000
0000
0000
,
0302
0000
0000
0000
,
2003
0000
0000
0000
,
3202
0303
0000
0000
0220
0330
0000
0000
,
2200
3300
0000
0000
2002
3003
0000
0000
,
2020
3030
0000
0000
0220
0330
0000
0000
,
0202
0303
0000
0000
2002
3003
0000
0000
,
2020
3030
0000
0000
2200
3300
0000
0000
,
0022
0033
0000
0000
2020
3030
0000
0000
,
0202
0303
0000
0000
2002
3003
0000
0000
,
0220
0330
0000
0000
0202
0303
0000
0000
,
2000
3100
0010
0001
1000
0001
0100
0010
,
1000
0001
0010
0001
0100
0010
1000
0100
,
0010
0001
1000
0001
0100
0010
1000
0001
,
0010
0100
1000
0100
1000
0010
0100
0001
,
1000
0001
0100
0010
1000
0001
0100
0001
,
1000
0100
1000
0010
0100
0001
1000
0100
,
0010
0001
1000
0001
0100
0010
1000
0001
,
0010
0001
0100
0010
1000
0100
0010
0001
,
1001
0000
0100
0000
0010
0000
1000
0000
0100
0000
0010
0001
1000
0000
0010
0000
,
0100
0001
0100
0010
1000
0000
0001
0000
0100
0000
0010
1000
0001
0000
0100
0000
,
0010
1000
0100
0010
0001
0000
0100
0000
0010
0000
1000
0001
0100
0000
0010
0000
,
1000
0001
1000
0010
0100
0000
0001
0000
1000
0000
0100
0000
1000
0000
0010
0000
,
0100
0000
0001
0000
1000
0000
0100
0000
0010
0000
0001
1000
0001
0000
0100
0000
,
0010
1000
0001
0100
0010
0000
1000
0000
0100
0000
0010
0001
1000
0000
0001
0000
,
0100
0010
1000
0001
0100
0000
0010
0000
1000
0000
0100
0010
0001
0000
1000
0000
,
0010
0100
0001
1000
0001
0000
0100
0000
0010
0000
1000
0001
0100
0000
0010
0000
,
1000
0001
0100
0010
1000
0001
0100
0001
1000
0100
1000
0010
0100
0001
1000
0100
,
0010
0001
1000
0001
0010
0100
1000
0010
0100
0001
0100
0010
1000
0100
1000
0001
,
0100
0010
1000
0100
0010
0001
1000
0010
0100
0010
1000
0001
0010
0001
0100
0010
,
1000
0100
0010
0001
1000
0001
0100
0010
1000
0001
0010
0001
1000
0100
1000
0010
,
0100
0001
1000
0100
0010
0001
0100
0010
1000
0001
0100
0010
1000
0001
0100
0001
,
1000
0100
1000
0010
0100
0001
1000
0100
0010
0001
1000
0001
0010
0100
1000
0010
,
0100
0001
0100
0010
1000
0100
1000
0001
0100
0010
1000
0100
0010
0001
1000
0010
,
0100
0010
1000
0001
0010
0001
0100
0010
1000
0100
0010
0001
1000
0001
0100
0010
,
1000
0001
0010
0001
1000
0100
1000
0010
0100
0001
1000
0100
0010
0001
0100
0010
,
1000
0001
0100
0010
1000
0001
0100
0001
1000
0100
1000
0010
0100
0001
1000
0100
,
0010
0001
1000
0001
0010
0100
1000
0010
0100
0001
0100
0010
1000
0100
1000
0001
,
0100
0010
1000
0100
0010
0001
1000
0010
0100
0010
1000
0001
0010
0001
0100
0010
,
1000
0100
0010
0001
1000
0001
0100
0010
1000
0001
0010
0001
1000
0100
1000
0010
,
0100
0001
1000
0100
0010
0001
0100
0010
1000
0001
0100
0010
1000
0001
0010
0001
,
1000
0100
0010
0001
1000
0001
0100
0010
1000
0001
0100
0001
1000
0010
0100
0001
,
1000
0100
0010
0001
1000
0001
0100
0010
1000
0100
1000
0001
0100
0010
1000
0001
,
0100
0000
0000
0001
1000
0010
0100
0010
1000
0001
0100
0001
,
1000
0100
0010
0001
0100
0010
1000
0001
0010
0001
1000
0100
,
0010
0001
0100
0010
1000
0001
0100
0001
1000
0010
0100
0010
,
1000
0001
0010
0001
1000
0100
0010
0001
0100
0010
1000
0001
,
0100
0001
1000
0100
0010
0001
1000
0010
1000
0001
0010
0100
,
1000
0001
0100
0010
0100
0001
1000
0010
0100
0010
1000
0001
,
0010
0001
1000
0100
0010
0001
0100
0010
1000
0001
0010
0001
,
1000
0100
0010
0001
0100
0010
1000
0010
0100
0001
0010
0001
,
1000
0000
0000
0001
0100
0010
1000
0001
0010
0001
0100
0010
,
1000
0001
0010
0001
1000
0100
0010
0001
0100
0010
1000
0001
,
0100
0001
1000
0100
0010
0001
0100
0010
1000
0001
0010
0001
,
0000
1000
0100
0010
0001
0100
0010
1000
0001
0100
0001
1000
,
0100
0010
0001
0100
0010
1000
0001
0010
0001
0100
0010
1000
,
0100
0010
0001
1000
0100
1000
0010
0100
0010
1000
0001
0100
,
0001
1000
0100
0010
0001
0100
0010
1000
0001
0010
0001
0100
,
0010
1000
0100
0010
0001
0010
0100
1000
0010
1000
0001
0100
,
0001
0000
0000
1000
0010
0100
0001
1000
0100
1000
0010
0100
,
0001
1000
0100
0010
0001
0100
0010
1000
0001
0010
0001
0100
,
0010
1000
0100
0010
0001
1000
0100
1000
0001
0100
0010
1000
,
0010
0100
0001
1000
0100
0010
0001
1000
0100
1000
0010
0100
,
0001
0010
0001
1000
0010
1000
0001
0100
0010
1000
0001
0010
,
0001
1000
0100
0010
0001
0100
0010
1000
0010
0100
0001
0010
,
0001
1000
0100
0010
0001
1000
0010
1000
0001
0100
0010
1000
,
0001
0010
0001
0100
0010
1000
0100
0010
0001
0100
0010
1000
,
0001
0000
0000
1000
0010
0100
0001
1000
0100
1000
0010
0100
,
0001
1000
0100
0010
0001
0100
0010
1000
0001
0010
0001
0100
,
0010
1000
0100
0010
0001
1000
0100
1000
0001
0100
0010
1000
,
0010
0100
0001
1000
0100
0010
0001
1000
0100
1000
0010
0100
,
0001
0010
0001
1000
0010
1000
0001
0100
0010
1000
0001
0010
,
0001
1000
0100
0010
0001
0100
0010
1000
0010
0100
0001
0010
,
0001
1000
0100
0010
0001
1000
0010
1000
0001
0100
0010
1000
,
0001
0010
0001
0100
0010
1000
0100
0010
0001
0100
0010
1000
,
0001
0000
0000
1000
0010
0100
0001
1000
0100
1000
0010
0100
,
0001
1000
0100
0010
0001
0100
0010
1000
0001
0010
0001
0100
,
0010
1000
0100
0010
0001
1000
0100
1000
0001
0100
0010
1000
,
0010
0100
0001
1000
0100
0010
0001
1000
0100
1000
0010
0100
,
0001
0010
0001
1000
0010
1000
0001
0100
0010
1000
0001
0010
,
0001
1000
0100
0010
0001
0100
0010
1000
0010
0100
0001
0010
,
0001
1000
0100
0010
0001
1000
0010
1000
0001
0100
0010
1000
,
0001
0010
0001
0100
0010
1000
0100
0010
0001
0100
0010
1000
,
0001
0000
0000
1000
0010
0100
0001
1000
0100
1000
0010
0100
,
0001
1000
0100
0010
0001
0100
0010
1000
0001
0010
0001
0100
,
0010
1000
0100
0010
0001
1000
0100
1000
0001
0100
0010
1000
,
0010
0100
0001
1000
0100
0010
0001
1000
0100
1000
0010
0100
,
0001
0010
0001
1000
0010
1000
0001
0100
0010
1000
0001
0010
,
0001
1000
0100
0010
0001
0100
0010
1000
0010
0100
0001
0010
,
0001
1000
0100
0010
0001
1000
0010
1000
0001
0100
0010
1000
,
0001
0010
0001
0100
0010
1000
0100
0010
0001
0100
0010
1000
,
0001
0000
0000
1000
0010
0100
0001
1000
0100
1000
0010
0100
,
0001
1000
0100
0010
0001
0100
0010
1000
0001
0010
0001
0100
,
0010
1000
0100
0010
0001
1000
0100
1000
0001
0100
0010
1000
,
0010
0100
0001
1000
0100
0010
0001
1000
0100
1000
0010
0100
,
0001
0010
0001
1000
0010
1000
0001
0100
0010
1000
0001
0010
,
0001
1000
0100
0010
0001
0100
0010
1000
0010
0100
0001
0010
,
0001
1000
0100
0010
0001
1000
0010
1000
0001
0100
0010
1000
,
0001
0010
0001
0100
0010
1000
0100
0010
0001
0100
0010
1000
,
0001
0000
0000
1000
0010
0100
0001
1000
0100
1000
0010
0100
,
0001
1000
0100
0010
0001
0100
0010
1000
0001
0010
0001
0100
,
0010
1000
0100
0010
0001
1000
0100
1000
0001
0100
0010
1000
,
0010
0100
0001
1000
0100
0010
0001
1000
0100
1000
0010
0100
,
0001
0010
0001
1000
0010
1000
0001
0100
0010
1000
0001
0010
,
0001
1000
0100
0010
0001
0100
0010
1000
0010
0100
0001
0010
,
0001
1000
0100
0010
0001
1000
0010
1000
0001
0100
0010
1000
,
0001
0010
0001
0100
0010
1000
0100
0010
0001
0100
0010
1000
,
0001
0000
0000
1000
0010
0100
0001
1000
0100
1000
0010
0100
,
0001
1000
0100
0010
0001
0100
0010
1000
0001
0010
0001
0100
,
0010
1000
0100
0010
0001
1000
0100
1000
0001
0100
0010
1000
,
0010
0100
0001
1000
0100
0010
0001
1000
0100
1000
0010
0100
,
0001
0010
0001
1000
0010
1000
0001
0100
0010
1000
0001
0010
,
0001
1000
0100
0010
0001
0100
0010
1000
0010
0100
0001
0010
,
0001
1000
0100
0010
0001
1000
0010
1000
0001
0100
0010
1000
,
0001
0000
0010
0000
0001
0000
0100
0000
0010
0000
1000
0000
0100
0000
0000
0001
0000
0000
1000
0000
0000
0010
0000
0000
,
0100
0000
0000
0001
1000
0010
0100
0010
1000
0001
0100
0001
,
1000
0100
0010
0001
0100
0010
1000
0001
0010
0001
1000
0100
,
0010
0001
0100
0010
1000
0001
0100
0001
1000
0010
0100
0010
,
1000
0001
0010
0001
1000
0100
0010
0001
0100
0010
1000
0001
,
0100
0001
1000
0100
0010
0001
1000
0010
1000
0001
0010
0100
,
1000
0001
0100
0010
0100
0001
1000
0010
0100
0010
1000
0001
,
0010
0001
1000
0100
0010
0001
0100
0010
1000
0001
0010
0001
,
1000
0100
0010
0001
0100
0010
1000
0010
0100
0002
0000
0000
,
0203
0000
0000
1300
0010
0100
0001
1000
0100
1000
0010
0100
,
0001
1000
0100
0010
0001
0100
0010
1000
0001
0010
0001
0100
,
0010
1000
0100
0010
0001
1000
0100
1000
0001
0100
0010
1000
,
0010
0100
0001
1000
0100
0010
0001
1000
0100
1000
0010
0100
,
0001
0010
0001
1000
0010
1000
0001
0100
0010
1000
0001
0010
,
0001
1000
0100
0010
0001
0100
0010
1000
0010
0100
0001
0010
,
0001
1000
0100
0010
0001
1000
0010
1000
0001
0100
0010
1000
,
0001
0010
0001
0100
0010
1000
0100
0010
0001
0100
0010
1000
,
0001
0000
0000
0100
0010
0100
0001
1000
0100
1000
0010
0100
,
0001
1000
0100
0010
0001
0100
0010
1000
0001
0010
0001
0100
,
0010
1000
0100
0010
0001
1000
0100
1000
0001
0100
0010
1000
,
0010
0100
0001
1000
0100
0010
0001
1000
0100
1000
0010
0100
,
0001
0010
0001
1000
0010
1000
0001
0100
0010
1000
0001
0010
,
0001
1000
0100
0010
0001
0100
0010
1000
0010
0100
0001
0010
,
0001
1000
0100
0010
0001
1000
0010
1000
0001
0100
0010
1000
,
0001
0010
0001
0100
0010
1000
0100
0010
0001
0100
0010
1000
,
0001
1000
0010
1000
0001
0100
0001
1000
0100
1000
0010
0100
0001
1000
0100
0010
,
0001
1000
0001
0010
0100
1000
0010
0100
0001
0100
0010
1000
0100
1000
0001
0100
,
0010
1000
0100
0010
0001
1000
0010
0100
0010
1000
0001
0010
0001
0100
0010
1000
,
0100
0010
0001
1000
0001
0100
0010
1000
0001
0010
0001
1000
0100
1000
0010
0100
,
0001
1000
0100
0010
0001
0100
0010
1000
0001
0100
0010
1000
0001
0010
0001
0100
,
0010
1000
0100
0010
0001
1000
0001
0100
0010
1000
0001
0010
0001
1000
0010
1000
,
0001
0100
0010
1000
0001
0100
0010
0100
0001
1000
0010
0100
0010
1000
0001
1000
,
0010
0100
0001
1000
0100
0010
0001
0010
0100
1000
0001
0100
0010
1000
0001
0100
,
0001
0100
0010
1000
0001
0010
0001
0100
0010
1000
0001
0010
,
0001
1000
0100
0010
0001
0100
0010
1000
0001
0100
0001
1000
,
0100
0010
0001
0100
0010
1000
0001
0010
0001
0000
1000
0100
,
0010
0001
0100
0010
1000
0001
0100
0001
1000
0100
0010
0001
,
0100
0010
1000
0001
0010
0001
0100
0010
1000
0100
0010
0001
,
1000
0100
1000
0010
0100
0010
1000
0001
0100
0001
1000
0100
,
0010
0001
0100
0010
1000
0001
0010
0001
0100
0010
1000
0100
,
2000
3020
0230
0302
2003
3200
2300
3020
,
0230
0000
0000
0302
0000
0000
2003
0000
0000
3020
0000
0000
1030
0000
0010
0000
0100
0000
0001
0000
1000
0000
0100
0000
,
1000
0010
0100
0001
1000
0100
0010
0001
0100
0010
1000
0001
,
0010
0001
0100
0010
1000
0100
0010
0001
1000
0100
1000
0001
,
0100
0010
1000
0010
0100
0001
1000
0100
0010
0001
1000
0100
,
1000
0010
0100
0001
0010
0001
1000
0010
1000
0001
0100
0010
,
1000
0010
0100
0001
1000
0100
1000
0010
0100
0001
1000
0100
,
0010
0001
0100
0010
1000
0001
0010
0001
0100
0010
1000
0100
,
0010
0001
1000
0100
1000
0001
0100
0010
1000
0010
0100
0001
,
1000
0100
0010
0001
1000
0100
1000
0010
0100
0001
0010
0001
,
1000
0010
1000
0001
0100
0010
1000
0001
0010
0001
1000
0100
,
0010
0001
0100
0010
1000
0010
0100
0001
0010
0001
1000
0100
,
0010
0001
1000
0010
1000
0001
0100
0010
1000
0001
0010
0001
,
0100
0010
1000
0100
0010
0001
0100
0010
1000
0001
1000
0100
,
1000
0010
0100
0001
1000
0100
0010
0001
0100
0010
1000
0001
,
0010
0001
0100
0010
1000
0100
0010
0001
1000
0100
1000
0001
,
0100
0010
1000
0010
0100
0001
1000
0100
0010
0001
1000
0100
,
1000
0010
0100
0001
0010
0001
1000
0010
1000
0001
0100
0010
,
1000
0001
0010
0001
1000
0100
0010
0001
0100
0010
1000
0010
,
0100
0001
0010
0001
1000
0100
0010
0001
1000
0010
1000
0001
,
0100
0010
1000
0001
0010
0001
0100
0010
1000
0100
0010
0001
,
0100
0010
1000
0001
0010
0100
1000
0010
0100
0001
1000
0100
,
0010
0001
0100
0010
1000
0001
0010
0001
0100
0010
1000
0100
,
0010
0001
1000
0100
1000
0001
0100
0010
1000
0010
0100
0001
,
1000
0100
0010
0001
1000
0100
1000
0010
0100
0001
0010
0001
,
1000
0100
0001
1000
0001
0100
0010
1000
,
0001
0010
0001
0100
0010
1000
0100
0010
,
0001
0100
0010
0100
0001
1000
0100
0010
,
0001
1000
0001
0100
0010
1000
0100
0001
,
0010
0100
1000
0010
0100
0001
0010
0001
,
1000
0010
0100
0010
1000
0001
0010
0100
,
1000
0001
0100
0001
1000
0010
0100
0010
,
1000
0100
0010
0001
1000
0001
0100
0010
1000
0001
0100
0001
1000
0100
0010
0001
,
1000
0010
0100
0001
1000
0100
1000
0010
0100
0001
1000
0100
,
0010
0001
0100
0010
1000
0001
0010
0001
0100
0010
1000
0100
,
0010
0001
1000
0100
1000
0001
0100
0010
1000
0010
0100
0001
,
1000
0100
0010
0001
1000
0100
1000
0010
0100
0001
0010
0001
,
1000
0010
1000
0001
0100
0010
1000
0001
0010
0001
1000
0100
,
0010
0001
0100
0010
1000
0010
0100
0001
0010
0001
1000
0100
,
0010
0001
1000
0010
1000
0001
0100
0010
1000
0001
0010
0001
,
0100
0010
1000
0100
0010
0001
0100
0010
1000
0001
0100
0010
,
1000
0000
0000
1000
0010
0100
0001
1000
0100
1000
0010
0100
,
0001
1000
0100
0010
0001
0100
0010
1000
0001
0010
0001
0100
,
0010
1000
0100
0010
0001
1000
0100
1000
0001
0100
0010
1000
,
0010
0100
0001
1000
0100
0010
0001
1000
0100
1000
0010
0100
,
0001
0010
0001
1000
0010
1000
0001
0100
0010
1000
0001
0010
,
0001
1000
0100
0010
0001
0100
0010
1000
0010
0100
0001
0010
,
0001
1000
0100
0010
0001
1000
0010
1000
0001
0100
0010
1000
,
0001
0010
0001
0100
0010
1000
0100
0010
0001
0100
0010
1000
,
0001
0000
0000
1000
0010
0100
0001
1000
0100
1000
0010
0100
,
0001
1000
0100
0010
0001
0100
0010
1000
0001
0010
0001
0100
,
0010
1000
0100
0010
0001
1000
0100
1000
0001
0100
0010
1000
,
0010
0100
0001
1000
0100
0010
0001
1000
0100
1000
0010
0100
,
0001
0010
0001
1000
0010
1000
0001
0100
0010
1000
0010
0100
,
0001
1000
0100
1000
0010
0100
0001
1000
0100
0010
0001
0100
,
0010
1000
0001
0010
0001
0100
0010
1000
0100
0010
0001
1000
,
0100
1000
0001
0100
0010
1000
0010
0100
0001
1000
0100
0010
,
0001
1000
0100
1000
0010
0100
0001
0010
0001
1000
0010
1000
,
0001
0100
0010
1000
0001
0010
0001
1000
0100
0010
0001
0100
,
0010
1000
0010
0100
0001
0010
0001
1000
0100
0010
0001
1000
,
0010
1000
0001
0100
0010
1000
0001
0010
0001
0100
0010
1000
,
0100
0010
0001
0100
0010
1000
0001
1000
0100
0010
0001
0100
,
0010
1000
0001
0010
0001
0100
0010
1000
0100
0010
0001
1000
,
0100
1000
0001
0100
0010
1000
0010
0100
0001
1000
0100
0010
,
0001
0000
1000
0000
0100
0000
1000
0000
0010
0000
0100
0000
0001
0000
0010
0000
0001
0000
1000
0010
0100
0002
0000
0000
,
0003
0000
0000
0000
0000
0000
0000
2020
,
3030
0000
0000
0220
0330
0000
0000
0202
,
0303
0000
0000
0000
0000
0000
0000
2002
,
3003
0000
0000
0000
0000
2020
3030
0220
,
0330
0000
0000
0000
0000
0000
0000
2002
,
3003
0000
0000
0202
0303
0000
0000
0220
,
0330
0000
0000
0000
0000
0000
0000
2200
,
3300
0000
0000
0000
0000
2002
3003
0202
,
0303
0000
0000
0000
0000
0000
0000
0220
,
0330
0000
0000
2200
3300
0000
0000
2002
,
3003
0000
0000
0000
0000
0000
0000
0202
,
0303
0000
0000
0000
0000
0220
0330
2200
,
3300
0000
0000
0000
0000
0000
0000
2002
,
3003
0000
0000
0202
0303
0000
0000
0220
,
0330
0000
0000
0000
0000
0000
0000
2200
,
3311
0000
1100
0110
0011
1001
0101
0110
,
1000
0001
0100
0010
1000
0001
0100
0001
1000
0100
1000
0010
0100
0001
1000
0100
,
0010
0001
1000
0001
0010
0100
1000
0010
0100
0001
0100
0010
1000
0100
1000
0001
,
0100
0010
1000
0100
0010
0001
1000
0010
0100
0010
1000
0001
0010
0001
0100
0010
,
1000
0100
0010
0001
1000
0001
0100
0010
1000
0001
0010
0001
1000
0100
1000
0010
,
0100
0001
1000
0100
0010
0001
0100
0010
1000
0001
0100
0010
1000
0001
0100
0001
,
1000
0100
1000
0010
0100
0001
1000
0100
0010
0001
1000
0001
0010
0100
1000
0010
,
0100
0001
0100
0010
1000
0100
1000
0001
0100
0010
1000
0100
0010
0001
1000
0010
,
0100
0010
1000
0001
0010
0001
0100
0010
1000
0100
0010
0001
1000
0001
0100
0010
,
1000
0001
0010
0001
1000
0100
1000
0010
0100
0001
1000
0100
0010
0001
0100
0010
,
1000
0001
0100
0010
1000
0001
0100
0001
1000
0100
1000
0010
0100
0001
1000
0100
,
0010
0001
1000
0001
0010
0100
1000
0010
0100
0001
0100
0010
1000
0100
1000
0001
,
0100
0010
1000
0100
0010
0001
1000
0010
0100
0010
1000
0001
0010
0001
0100
0010
,
1000
0100
0010
0001
1000
0001
0100
0010
1000
0001
0010
0001
1000
0100
1000
0010
,
0100
0001
1000
0100
0010
0001
0100
0010
1000
0001
0100
0001
1000
0100
1000
0010
,
0100
0001
1000
0100
0010
0001
1000
0001
0100
0010
1000
0001
0010
0001
1000
0100
,
1000
0000
0000
0010
0000
0000
0100
0000
0000
0001
0000
0000
1000
0000
0000
0100
0000
0000
0010
0000
0000
0001
0000
0000
1000
0000
0000
0001
0000
0000
0100
0000
0000
0010
0000
0000
0001
0000
0000
0000
1000
0000
0000
0000
0010
0000
0000
0000
,
0100
0010
1000
0001
0100
0001
1000
0100
0010
0001
0100
0010
,
1000
0001
0010
0001
1000
0100
0010
0001
0100
0010
1000
0001
,
0100
0001
1000
0010
0100
0010
1000
0001
0010
0001
1000
0100
,
0010
0001
0100
0010
1000
0001
0100
0001
1000
0100
0010
0001
,
1000
0010
1000
0001
0010
0100
1000
0001
0100
0010
0100
0001
,
1000
0010
0100
0010
1000
0001
0010
0001
1000
0100
0010
0001
,
0100
0010
1000
0001
0010
0001
1000
0100
0010
0001
0100
0010
,
1000
0010
0100
0001
0010
0001
1000
0010
0100
0001
1000
0100
,
1000
0010
0100
0001
1000
0100
0010
0001
0100
0010
1000
0001
,
0010
0001
0100
0010
1000
0100
0010
0001
1000
0100
1000
0001
,
0100
0010
1000
0010
0100
0001
1000
0100
0010
0001
1000
0100
,
1000
0010
0100
0001
0010
0001
1000
0010
1000
0001
0100
0010
,
1000
0010
0100
0001
1000
0100
1000
0010
0100
0001
1000
0100
,
0010
0001
0100
0010
1000
0001
0010
0001
0100
0010
1000
0100
,
0010
0001
1000
0100
1000
0001
0100
0010
1000
0010
0100
0001
,
1000
0100
0010
0001
1000
0100
1000
0010
0100
0001
0010
0001
,
2000
0000
0000
3001
0100
0010
1000
0001
0010
0001
1000
0100
,
0010
0001
0100
0010
1000
0010
0100
0001
0010
0001
1000
0100
,
0010
0001
1000
0010
1000
0001
0100
0010
1000
0001
0010
0001
,
0100
0010
1000
0100
0010
0001
0100
0010
1000
0001
1000
0100
,
1000
0010
0100
0001
1000
0100
0010
0001
0100
0010
1000
0001
,
0010
0001
0100
0010
1000
0100
0010
0001
1000
0100
1000
0001
,
0100
0010
1000
0010
0100
0001
1000
0100
0010
0001
1000
0100
,
1000
0010
0100
0001
0010
0001
1000
0010
1000
0001
0100
0010
,
2000
0000
0000
3001
1000
0100
0010
0001
0100
0010
1000
0010
,
0100
0001
0010
0001
1000
0100
0010
0001
1000
0010
1000
0001
,
0100
0010
1000
0001
0010
0001
0100
0010
1000
0100
0010
0001
,
0100
0010
1000
0001
0010
0100
1000
0010
0100
0001
1000
0100
,
0010
0001
0100
0010
1000
0001
0010
0001
0100
0010
1000
0100
,
0010
0001
1000
0100
1000
0001
0100
0010
1000
0010
0100
0001
,
1000
0100
0010
0001
1000
0100
1000
0010
0100
0001
0010
0001
,
1000
0010
0100
0001
1000
0100
1000
0010
0100
0002
0000
0000
,
1003
0001
0100
0010
1000
0001
0010
0001
0100
0010
1000
0100
,
0010
0001
1000
0100
1000
0001
0100
0010
1000
0010
0100
0001
,
1000
0100
0010
0001
1000
0100
1000
0010
0100
0001
0010
0001
,
1000
0010
1000
0001
0100
0010
1000
0010
0100
0001
1000
0100
,
1000
0010
0100
0001
1000
0100
0010
0001
0100
0010
1000
0001
,
0010
0001
0100
0010
1000
0100
0010
0001
1000
0100
1000
0001
,
0100
0010
1000
0010
0100
0001
1000
0100
0010
0001
1000
0100
,
1000
0010
0100
0001
0010
0001
1000
0010
1000
0001
0100
0010
,
1000
0001
0010
0001
1000
0100
0010
0001
0100
0010
1000
0010
,
0100
0001
0010
0001
1000
0100
0010
0001
1000
0010
1000
0001
,
0100
0010
1000
0001
0010
0001
0100
0010
1000
0100
0010
0001
,
0100
0010
1000
0001
1000
0100
1000
0010
0100
0001
1000
0100
,
0010
0001
0100
0010
1000
0001
0010
0001
0100
0010
1000
0100
,
0010
0001
1000
0100
1000
0001
0100
0010
1000
0010
0100
0001
,
1000
0100
0010
0001
1000
0100
1000
0010
0100
0001
0010
0001
,
1000
0010
1000
0001
0100
0010
1000
0001
0010
0001
1000
0100
,
0010
0001
0100
0010
1000
0010
0100
0001
0010
0001
1000
0100
,
0010
0001
1000
0010
1000
0001
0100
0010
1000
0001
0010
0001
,
0100
0010
1000
0100
0010
0001
0100
0010
1000
0001
0010
0100
,
1000
0010
0100
0001
1000
0100
0010
0001
0100
0010
1000
0001
,
0010
0001
0100
0010
1000
0100
0010
0001
1000
0100
1000
0001
,
0100
0010
1000
0010
0100
0001
1000
0100
0010
0001
1000
0100
,
1000
0010
0100
0001
0010
0001
1000
0010
0100
0001
1000
0100
,
1000
0010
0100
0001
1000
0100
0010
0001
0100
0010
1000
0001
,
0010
0001
0100
0010
1000
0100
0010
0001
1000
0100
1000
0001
,
0100
0010
1000
0010
0100
0001
1000
0100
0010
0001
1000
0100
,
1000
0010
0100
0001
0010
0001
1000
0010
1000
0001
0100
0010
,
1000
0010
0100
0001
1000
0100
1000
0010
0100
0001
1000
0100
,
0010
0001
0100
0010
1000
0001
0010
0001
0100
0010
1000
0100
,
0010
0001
1000
0100
1000
0001
0100
0010
1000
0010
0100
0001
,
1000
0100
0010
0001
1000
0100
1000
0010
0100
0001
0010
0001
,
1000
0010
1000
0001
0100
0010
1000
0001
0010
2000
0000
0000
,
0000
3002
0000
0000
0000
0000
0000
0000
,
0000
0000
0000
0000
,
2003
0000
0000
0000
,
3020
0000
0000
0000
0000
0000
2030
3002
,
0000
0000
0000
0000
,
0203
0000
0000
0000
,
0302
0000
0000
0000
,
2003
0000
0000
0000
0000
0000
0000
0000
0000
0000
0000
0000
0000
0000
0000
3001
0100
0010
1000
0001
0010
0001
1000
0100
,
0010
0001
1000
0100
1000
0001
0100
0010
1000
0001
0010
0001
1000
0100
0010
0002
0000
0000
0000
0000
0000
0000
0000
0000
,
0000
0000
0000
0000
0000
0000
0000
2003
,
0000
0000
0000
0000
,
3020
0000
0000
0000
0000
0000
2030
3002
,
0000
0000
0000
0000
0000
0000
0000
0203
,
0000
0000
0000
0000
0000
0000
0000
0302
,
0000
0000
0000
0000
0000
0000
0000
2003
,
0000
0000
0000
0000
0000
0000
0000
3220
,
0000
0000
0000
0000
,
0000
0000
0000
0000
,
0000
0000
0000
0000
,
0000
0000
0000
0000
,
0000
0000
0000
0000
,
0330
0000
0000
0000
,
0000
0000
0000
0000
;

//---------------dance-single - 33 (owenviau1)----------------
#NOTES:
     dance-single:
     33 (owenviau1):
     Hard:
     33:
     1.000,1.000,0.149,0.401,1.000,4462.000,47.000,127.000,0.000,3.000:
2000
0000
0000
3002
0000
0000
0000
0000
0000
0000
0000
0000
0000
0000
0000
0000
,
0000
0000
0000
0000
,
2003
0000
0000
0000
,
0000
3020
0000
0000
0000
0000
0000
2030
,
3002
0000
0000
0000
,
0203
0000
0000
0000
,
0302
0000
0000
0000
,
2003
0000
0000
0000
,
3202
0303
0000
0000
0220
0330
0000
0000
,
2200
3300
0000
0000
2002
3003
0000
0000
,
2020
3030
0000
0000
0220
0330
0000
0000
,
0202
0303
0000
0000
2002
3003
0000
0000
,
2020
3030
0000
0000
2200
3300
0000
0000
,
0022
0033
0000
0000
2020
3030
0000
0000
,
0202
0303
0000
0000
2002
3003
0000
0000
,
0220
0330
0000
0000
0202
0303
0000
0000
,
2000
3100
0010
0001
1000
0001
0100
0010
,
1000
0001
0010
0001
0100
0010
1000
0100
,
0010
0001
1000
0001
0100
0010
1000
0001
,
0010
0100
1000
0100
1000
0010
0100
0001
,
1000
0001
0100
0010
1000
0001
0100
0001
,
1000
0100
1000
0010
0100
0001
1000
0100
,
0010
0001
1000
0001
0100
0010
1000
0001
,
0010
0001
0100
0010
1000
0100
0010
0001
,
1001
0000
0100
0000
0010
0000
1000
0000
0100
0000
0010
0001
1000
0000
0010
0000
,
0100
0001
0100
0010
1000
0000
0001
0000
0100
0000
0010
1000
0001
0000
0100
0000
,
0010
1000
0100
0010
0001
0000
0100
0000
0010
0000
1000
0001
0100
0000
0010
0000
,
1000
0001
1000
0010
0100
0000
0001
0000
1000
0000
0100
0000
1000
0000
0010
0000
,
0100
0000
0001
0000
1000
0000
0100
0000
0010
0000
0001
1000
0001
0000
0100
0000
,
0010
1000
0001
0100
0010
0000
1000
0000
0100
0000
0010
0001
1000
0000
0001
0000
,
0100
0010
1000
0001
0100
0000
0010
0000
1000
0000
0100
0010
0001
0000
1000
0000
,
0010
0100
0001
1000
0001
0000
0100
0000
0010
0000
1000
0001
0100
0000
0010
0000
,
1000
0001
0100
0010
1000
0001
0100
0001
1000
0100
1000
0010
0100
0001
1000
0100
,
0010
0001
1000
0001
0010
0100
1000
0010
0100
0001
0100
0010
1000
0100
1000
0001
,
0100
0010
1000
0100
0010
0001
1000
0010
0100
0010
1000
0001
0010
0001
0100
0010
,
1000
0100
0010
0001
1000
0001
0100
0010
1000
0001
0010
0001
1000
0100
1000
0010
,
0100
0001
1000
0100
0010
0001
0100
0010
1000
0001
0100
0010
1000
0001
0100
0001
,
1000
0100
1000
0010
0100
0001
1000
0100
0010
0001
1000
0001
0010
0100
1000
0010
,
0100
0001
0100
0010
1000
0100
1000
0001
0100
0010
1000
0100
0010
0001
1000
0010
,
0100
0010
1000
0001
0010
0001
0100
0010
1000
0100
0010
0001
1000
0001
0100
0010
,
1000
0001
0010
0001
1000
0100
1000
0010
0100
0001
1000
0100
0010
0001
0100
0010
,
1000
0001
0100
0010
1000
0001
0100
0001
1000
0100
1000
0010
0100
0001
1000
0100
,
0010
0001
1000
0001
0010
0100
1000
0010
0100
0001
0100
0010
1000
0100
1000
0001
,
0100
0010
1000
0100
0010
0001
1000
0010
0100
0010
1000
0001
0010
0001
0100
0010
,
1000
0100
0010
0001
1000
0001
0100
0010
1000
0001
0010
0001
1000
0100
1000
0010
,
0100
0001
1000
0100
0010
0001
0100
0010
1000
0001
0100
0010
1000
0001
0010
0001
,
1000
0100
0010
0001
1000
0001
0100
0010
1000
0001
0100
0001
1000
0010
0100
0001
,
1000
0100
0010
0001
1000
0001
0100
0010
1000
0100
1000
0001
0100
0010
1000
0001
,
0100
0000
0000
0000
0010
1000
0001
0100
0001
1000
0100
0010
0001
0100
0010
1000
,
0001
0010
0001
0100
0010
1000
0100
0010
0001
1000
0100
1000
0010
0100
0010
1000
,
0001
0100
0001
1000
0100
0010
0001
0010
0100
1000
0001
0100
0001
1000
0010
0100
,
0010
1000
0001
0010
0001
0100
0010
1000
0100
1000
0001
0100
0010
1000
0010
0100
,
0001
1000
0100
0010
0001
0010
0100
1000
0001
0010
0001
1000
0100
0010
0001
0100
,
0010
1000
0010
0100
0001
1000
0100
1000
0010
0100
0001
0100
0010
1000
0100
0010
,
0001
1000
0001
0100
0010
1000
0001
0010
0001
1000
0100
1000
0001
0100
0010
1000
,
0100
0010
0001
0100
0010
0100
0001
1000
0100
0010
0001
0100
0010
1000
0010
0100
,
0001
0000
0000
0000
1000
0100
0010
0001
1000
0001
0100
0010
1000
0010
0100
0001
,
1000
0100
1000
0001
0100
0010
0100
0001
1000
0100
0010
0001
0010
0100
1000
0010
,
0100
0010
1000
0100
0010
0001
0100
0010
0100
0001
0010
0100
1000
0001
0010
0001
,
0100
0010
1000
0100
0010
0001
1000
0001
0100
0010
1000
0001
0100
0001
1000
0100
,
1000
0010
0100
0001
0100
0010
1000
0100
0010
0001
1000
0100
1000
0001
0010
0100
,
1000
0001
0010
0001
0100
0010
1000
0010
0100
0001
1000
0001
0100
0010
1000
0001
,
0010
0001
0100
0010
1000
0100
0010
0001
1000
0010
1000
0001
0010
0001
0100
0010
,
1000
0100
0010
0001
0100
0010
1000
0001
0100
0001
1000
0010
0100
0001
1000
0001
,
0100
0000
0000
0000
0010
1000
0001
0010
0001
0100
0010
1000
0100
0010
0001
1000
,
0100
1000
0001
0100
0010
1000
0010
0100
0001
1000
0100
1000
0010
0100
0001
0010
,
0001
1000
0100
1000
0001
0010
0100
1000
0001
0100
0001
1000
0010
0100
0010
1000
,
0001
0010
0001
0100
0010
1000
0100
0010
0001
1000
0010
0100
0010
1000
0001
0010
,
0001
1000
0100
1000
0010
0100
0001
0100
0010
1000
0001
0100
0001
1000
0010
0100
,
0010
1000
0001
0010
0001
1000
0100
0010
0001
0100
0010
1000
0010
0100
0001
0010
,
0001
1000
0100
1000
0010
0100
0001
1000
0100
0010
0001
1000
0001
0100
0010
1000
,
0001
0010
0001
0100
0010
1000
0100
1000
0001
0100
0001
1000
0100
0010
0001
0100
,
0010
0000
0000
0000
1000
0100
0010
0001
1000
0001
0100
0010
1000
0010
0100
0001
,
1000
0100
1000
0001
0100
0010
0100
0001
1000
0100
0010
0001
0010
0100
1000
0010
,
0100
0010
1000
0100
0010
0001
0100
0010
0100
0001
0010
0100
1000
0001
0010
0001
,
0100
0010
1000
0100
0010
0001
1000
0001
0100
0010
1000
0001
0100
0001
1000
0100
,
1000
0010
0100
0001
0100
0010
1000
0100
0010
0001
1000
0100
1000
0001
0010
0100
,
1000
0001
0010
0001
0100
0010
1000
0010
0100
0001
1000
0001
0100
0010
1000
0001
,
0010
0001
0100
0010
1000
0100
0010
0001
1000
0010
1000
0001
0010
0001
0100
0010
,
1000
0100
0010
0001
0100
0010
1000
0001
0100
0001
1000
0010
0100
0001
1000
0001
,
0100
0000
0000
0000
0010
1000
0001
0010
0001
0100
0010
1000
0100
0010
0001
1000
,
0100
1000
0001
0100
0010
1000
0010
0100
0001
1000
0100
1000
0010
0100
0001
0010
,
0001
1000
0100
1000
0001
0010
0100
1000
0001
0100
0001
1000
0010
0100
0010
1000
,
0001
0010
0001
0100
0010
1000
0100
0010
0001
1000
0010
0100
0010
1000
0001
0010
,
0001
1000
0100
1000
0010
0100
0001
0100
0010
1000
0001
0100
0001
1000
0010
0100
,
0010
1000
0001
0010
0001
1000
0100
0010
0001
0100
0010
1000
0010
0100
0001
0010
,
0001
1000
0100
1000
0010
0100
0001
1000
0100
0010
0001
1000
0001
0100
0010
1000
,
0001
0010
0001
0100
0010
1000
0100
1000
0001
0100
0001
1000
0100
0010
0001
0100
,
0010
0000
0000
0000
1000
0100
0010
0001
1000
0001
0100
0010
1000
0010
0100
0001
,
1000
0100
1000
0001
0100
0010
0100
0001
1000
0100
0010
0001
0010
0100
1000
0010
,
0100
0010
1000
0100
0010
0001
0100
0010
0100
0001
0010
0100
1000
0001
0010
0001
,
0100
0010
1000
0100
0010
0001
1000
0001
0100
0010
1000
0001
0100
0001
1000
0100
,
1000
0010
0100
0001
0100
0010
1000
0100
0010
0001
1000
0100
1000
0001
0010
0100
,
1000
0001
0010
0001
0100
0010
1000
0010
0100
0001
1000
0001
0100
0010
1000
0001
,
0010
0001
0100
0010
1000
0100
0010
0001
1000
0010
1000
0001
0010
0001
0100
0010
,
1000
0100
0010
0001
0200
0000
0000
0000
0320
0000
0000
0000
2030
0000
0000
0000
,
3002
0000
0000
0000
1003
0100
0010
0001
0100
0010
0100
0001
1000
0010
0100
0001
,
1000
0100
1000
0001
0100
0010
0100
0001
1000
0100
0010
0001
0010
0100
1000
0010
,
0100
0010
1000
0100
0010
0001
0100
0010
0100
0001
0010
0100
1000
0001
0010
0001
,
0100
0010
1000
0100
0010
0001
1000
0001
0100
0010
1000
0001
0100
0001
1000
0100
,
1000
0010
0100
0001
0100
0010
1000
0100
0010
0001
1000
0100
1000
0001
0010
0100
,
1000
0001
0010
0001
0100
0010
1000
0010
0100
0001
1000
0001
0100
0010
1000
0001
,
0010
0001
0100
0010
1000
0100
0010
0001
1000
0010
1000
0001
0010
0001
0100
0010
,
1000
0100
0010
0001
0100
0010
1000
0001
0100
0001
1000
0010
0100
0001
1000
0001
,
0100
0000
0000
0000
0010
1000
0001
0010
0001
0100
0010
1000
0100
0010
0001
1000
,
0100
1000
0001
0100
0010
1000
0010
0100
0001
1000
0100
1000
0010
0100
0001
0010
,
0001
1000
0100
1000
0001
0010
0100
1000
0001
0100
0001
1000
0010
0100
0010
1000
,
0001
0010
0001
0100
0010
1000
0100
0010
0001
1000
0010
0100
0010
1000
0001
0010
,
0001
1000
0100
1000
0010
0100
0001
0100
0010
1000
0001
0100
0001
1000
0010
0100
,
0010
1000
0001
0010
0001
1000
0100
0010
0001
0100
0010
1000
0010
0100
0001
0010
,
0001
1000
0100
1000
0010
0100
0001
1000
0100
0010
0001
1000
0001
0100
0010
1000
,
0001
0010
0001
0100
0010
1000
0100
1000
0001
0100
0001
1000
0100
0010
0001
0100
,
0010
0000
0000
0000
1000
0100
0010
0001
1000
0001
0100
0010
1000
0010
0100
0001
,
1000
0100
1000
0001
0100
0010
0100
0001
1000
0100
0010
0001
0010
0100
1000
0010
,
0100
0010
1000
0100
0010
0001
0100
0010
0100
0001
0010
0100
1000
0001
0010
0001
,
0100
0010
1000
0100
0010
0001
1000
0001
0100
0010
1000
0001
0100
0001
1000
0100
,
1000
0010
0100
0001
0100
0010
1000
0100
0010
0001
1000
0100
1000
0001
0010
0100
,
1000
0001
0010
0001
0100
0010
1000
0010
0100
0001
1000
0001
0100
0010
1000
0001
,
0010
0001
0100
0010
1000
0100
0010
0001
1000
0010
1000
0001
0010
0001
0100
0010
,
1000
0100
0010
0001
0100
0010
1000
0001
0100
0000
0010
0000
1000
0000
0001
0000
,
0100
0000
0000
0000
0010
1000
0001
0010
0001
0100
0010
1000
0100
0010
0001
1000
,
0100
1000
0001
0100
0010
1000
0010
0100
0001
1000
0100
1000
0010
0100
0001
0010
,
0001
1000
0100
1000
0001
0010
0100
1000
0001
0100
0001
1000
0010
0100
0010
1000
,
0001
0010
0001
0100
0010
1000
0100
0010
0001
1000
0010
0100
0010
1000
0001
0010
,
0001
1000
0100
1000
0010
0100
0001
0100
0010
1000
0001
0100
0001
1000
0010
0100
,
0010
1000
0001
0010
0001
1000
0100
0010
0001
0100
0010
1000
0010
0100
0001
0010
,
0001
1000
0100
1000
0010
0100
0001
1000
0100
0010
0001
1000
0001
0100
0010
1000
,
0001
0010
0001
0100
0010
1000
0100
1000
0001
0100
0001
1000
0020
0000
0000
0000
,
0032
0000
0000
0000
1003
0100
0010
0001
1000
0001
0100
0010
1000
0010
0100
0001
,
1000
0100
1000
0001
0100
0010
0100
0001
1000
0100
0010
0001
0010
0100
1000
0010
,
0100
0010
1000
0100
0010
0001
0100
0010
0100
0001
0010
0100
1000
0001
0010
0001
,
0100
0010
1000
0100
0010
0001
1000
0001
0100
0010
1000
0001
0100
0001
1000
0100
,
1000
0010
0100
0001
0100
0010
1000
0100
0010
0001
1000
0100
1000
0001
0010
0100
,
1000
0001
0010
0001
0100
0010
1000
0010
0100
0001
1000
0001
0100
0010
1000
0001
,
0010
0001
0100
0010
1000
0100
0010
0001
1000
0010
1000
0001
0010
0001
0100
0010
,
1000
0100
0010
0001
0100
0010
1000
0001
0100
0001
1000
0010
0100
0001
1000
0001
,
0100
0000
0000
0000
0010
1000
0001
0010
0001
0100
0010
1000
0100
0010
0001
1000
,
0100
1000
0001
0100
0010
1000
0010
0100
0001
1000
0100
1000
0010
0100
0001
0010
,
0001
1000
0100
1000
0001
0010
0100
1000
0001
0100
0001
1000
0010
0100
0010
1000
,
0001
0010
0001
0100
0010
1000
0100
0010
0001
1000
0010
0100
0010
1000
0001
0010
,
0001
1000
0100
1000
0010
0100
0001
0100
0010
1000
0001
0100
0001
1000
0010
0100
,
0010
1000
0001
0010
0001
1000
0100
0010
0001
0100
0010
1000
0010
0100
0001
0010
,
0001
1000
0100
1000
0010
0100
0001
1000
0100
0010
0001
1000
0001
0100
0010
1000
,
0001
0010
0001
0100
0010
1000
0100
1000
0001
0100
0001
1000
0100
0010
0001
0100
,
0001
1000
0010
1000
0001
0100
0001
1000
0100
1000
0010
0100
0001
1000
0100
0010
,
0001
1000
0001
0010
0100
1000
0010
0100
0001
0100
0010
1000
0100
1000
0001
0100
,
0010
1000
0100
0010
0001
1000
0010
0100
0010
1000
0001
0010
0001
0100
0010
1000
,
0100
0010
0001
1000
0001
0100
0010
1000
0001
0010
0001
1000
0100
1000
0010
0100
,
0001
1000
0100
0010
0001
0100
0010
1000
0001
0100
0010
1000
0001
0010
0001
0100
,
0010
1000
0100
0010
0001
1000
0001
0100
0010
1000
0001
0010
0001
1000
0010
1000
,
0001
0100
0010
1000
0001
0100
0010
0100
0001
1000
0010
0100
0010
1000
0001
1000
,
0010
0100
0001
1000
0100
0010
0001
0010
0100
1000
0001
0100
0010
1000
0001
0100
,
0010
1000
0001
0100
0001
1000
0100
0010
0001
0100
0010
1000
0001
0010
0001
0100
,
0010
1000
0100
0010
0001
1000
0100
1000
0010
0100
0010
1000
0001
0100
0001
1000
,
0100
0010
0001
0010
0100
1000
0001
0100
0001
1000
0010
0100
0010
1000
0001
0010
,
0001
0100
0010
1000
0100
1000
0001
0100
0010
1000
0010
0100
0001
1000
0100
0010
,
0001
0010
0100
1000
0001
0010
0001
1000
0100
0010
0001
0100
0010
1000
0010
0100
,
0001
1000
0100
1000
0010
0100
0001
0100
0010
1000
0100
0010
0001
1000
0001
0100
,
0010
1000
0001
0010
0001
1000
0100
1000
0001
0100
0010
1000
0100
0010
0001
0100
,
2000
3020
0230
0302
2003
3200
2300
3020
,
0230
0000
0302
0000
2003
0000
3020
0000
1030
0010
0100
0001
1000
0100
1000
0001
,
0100
0010
0100
0001
1000
0100
0010
0001
0010
0100
1000
0010
0100
0010
1000
0100
,
0010
0001
0100
0010
0100
0001
0010
0100
1000
0001
0010
0001
0100
0010
1000
0100
,
0010
0001
1000
0001
0100
0010
1000
0001
0100
0001
1000
0100
1000
0010
0100
0001
,
0100
0010
1000
0100
0010
0001
1000
0100
1000
0001
0010
0100
1000
0001
0010
0001
,
0100
0010
1000
0010
0100
0001
1000
0001
0100
0010
1000
0001
0010
0001
0100
0010
,
1000
0100
0010
0001
1000
0010
1000
0001
0010
0001
0100
0010
1000
0100
0010
0001
,
0100
0010
1000
0001
0100
0001
1000
0010
0100
0001
1000
0001
0100
0000
0000
0000
,
0010
1000
0001
0010
0001
0100
0010
1000
0100
0010
0001
1000
0100
1000
0001
0100
,
0010
1000
0010
0100
0001
1000
0100
1000
0010
0100
0001
0010
0001
1000
0100
1000
,
0001
0010
0100
1000
0001
0100
0001
1000
0010
0100
0010
1000
0001
0010
0001
0100
,
0010
1000
0100
0010
0001
1000
0010
0100
0010
1000
0001
0010
0001
1000
0100
1000
,
0010
0100
0001
0100
0010
1000
0001
0100
0001
1000
0010
0100
0010
1000
0001
0010
,
0001
1000
0100
0010
0001
0100
0010
1000
0010
0100
0001
0010
0001
1000
0100
1000
,
0010
0100
0001
1000
0100
0010
0001
1000
0001
0100
0010
1000
0001
0010
0001
0100
,
0010
1000
0100
1000
0001
0100
0001
1000
0100
0010
0001
0100
0010
1000
0001
0010
,
0100
0010
0001
1000
0001
0100
0010
1000
0010
0100
0001
1000
0100
1000
0001
0100
,
0010
0100
0001
1000
0100
0010
0001
0010
0100
1000
0010
0100
0010
1000
0100
0010
,
0001
0100
0010
0100
0001
0010
0100
1000
0001
0010
0001
0100
0010
1000
0100
0010
,
0001
1000
0001
0100
0010
1000
0001
0100
0001
1000
0100
1000
0010
0100
0001
0100
,
0010
1000
0100
0010
0001
1000
0100
1000
0001
0010
0100
1000
0001
0010
0001
0100
,
0010
1000
0010
0100
0001
1000
0001
0100
0010
1000
0001
0010
0001
0100
0010
1000
,
0100
0010
0001
1000
0010
1000
0001
0010
0001
0100
0010
1000
0100
0010
0001
0100
,
0010
1000
0001
0100
0001
1000
0010
0100
0001
1000
0001
0100
0010
1000
0100
1000
,
0001
0100
0001
1000
0001
0100
0010
1000
,
0001
0010
0001
0100
0010
1000
0100
0010
,
0001
0100
0010
0100
0001
1000
0100
0010
,
0001
1000
0001
0100
0010
1000
0100
0001
,
0010
0100
1000
0010
0100
0001
0010
0001
,
1000
0010
0100
0010
1000
0001
0010
0100
,
1000
0001
0100
0001
1000
0010
0100
0010
,
1000
0100
0010
0001
1000
0001
0100
0010
1000
0001
0100
0001
1000
0100
0010
0001
,
1000
0100
0010
0001
1000
0001
0100
0010
1000
0010
0100
0001
1000
0100
1000
0001
,
0100
0010
0100
0001
1000
0100
0010
0001
0010
0100
1000
0010
0100
0010
1000
0100
,
0010
0001
0100
0010
0100
0001
0010
0100
1000
0001
0010
0001
0100
0010
1000
0100
,
0010
0001
1000
0001
0100
0010
1000
0001
0100
0001
1000
0100
1000
0010
0100
0001
,
0100
0010
1000
0100
0010
0001
1000
0100
1000
0001
0010
0100
1000
0001
0010
0001
,
0100
0010
1000
0010
0100
0001
1000
0001
0100
0010
1000
0001
0010
0001
0100
0010
,
1000
0100
0010
0001
1000
0010
1000
0001
0010
0001
0100
0010
1000
0100
0010
0001
,
0100
0010
1000
0001
0100
0001
1000
0010
0100
0001
1000
0001
0100
0010
1000
0001
,
1000
0000
0000
0000
1000
0100
0010
0001
1000
0001
0100
0010
1000
0010
0100
0001
,
1000
0100
1000
0001
0100
0010
0100
0001
1000
0100
0010
0001
0010
0100
1000
0010
,
0100
0010
1000
0100
0010
0001
0100
0010
0100
0001
0010
0100
1000
0001
0010
0001
,
0100
0010
1000
0100
0010
0001
1000
0001
0100
0010
1000
0001
0100
0001
1000
0100
,
1000
0010
0100
0001
0100
0010
1000
0100
0010
0001
1000
0100
1000
0001
0010
0100
,
1000
0001
0010
0001
0100
0010
1000
0010
0100
0001
1000
0001
0100
0010
1000
0001
,
0010
0001
0100
0010
1000
0100
0010
0001
1000
0010
1000
0001
0010
0001
0100
0010
,
1000
0100
0010
0001
0100
0010
1000
0001
0100
0001
1000
0010
0100
0001
1000
0001
,
0100
0000
0000
0000
0010
1000
0001
0010
0001
0100
0010
1000
0100
0010
0001
1000
,
0100
1000
0001
0100
0010
1000
0010
0100
0001
1000
0100
1000
0010
0100
0001
0010
,
0001
1000
0100
1000
0001
0010
0100
1000
0001
0100
0001
1000
0010
0100
0010
1000
,
0001
0010
0001
0100
0010
1000
0100
0010
0001
1000
0010
0100
0010
1000
0001
0010
,
0001
1000
0100
1000
0010
0100
0001
0100
0010
1000
0001
0100
0001
1000
0010
0100
,
0010
1000
0001
0010
0001
1000
0100
0010
0001
0100
0010
1000
0010
0100
0001
0010
,
0001
1000
0100
1000
0010
0100
0001
1000
0100
0010
0001
1000
0001
0100
0010
1000
,
0001
0010
0001
0100
0010
1000
0100
1000
0001
0100
0001
1000
0100
0010
0001
0100
,
0010
1000
0001
0010
0001
0100
0010
1000
0100
0010
0001
1000
0100
1000
0001
0100
,
0010
1000
0010
0100
0001
1000
0100
1000
0010
0100
0001
0010
0001
1000
0100
1000
,
0001
0010
0100
1000
0001
0100
0001
1000
0010
0100
0010
1000
0001
0010
0001
0100
,
0010
1000
0100
0010
0001
1000
0010
0100
0010
1000
0001
0010
0001
1000
0100
1000
,
0010
0100
0001
0100
0010
1000
0001
0100
0001
1000
0010
0100
0010
1000
0001
0010
,
0001
1000
0100
0010
0001
0100
0010
1000
0010
0100
0001
0010
0001
1000
0100
1000
,
0010
0100
0001
1000
0100
0010
0001
1000
0001
0100
0010
1000
0001
0010
0001
0100
,
0010
0000
1000
0000
0100
0000
1000
0000
0001
0000
0100
0000
0001
0000
1000
0000
0100
0000
0010
0000
0001
0000
0100
0000
0010
1000
0001
0100
0020
0000
0000
0000
,
0030
0000
0000
0000
0000
0000
0000
2020
,
3030
0000
0000
0220
0330
0000
0000
0202
,
0303
0000
0000
0000
0000
0000
0000
2002
,
3003
0000
0000
0000
0000
2020
3030
0220
,
0330
0000
0000
0000
0000
0000
0000
2002
,
3003
0000
0000
0202
0303
0000
0000
0220
,
0330
0000
0000
0000
0000
0000
0000
2200
,
3300
0000
0000
0000
0000
2002
3003
0202
,
0303
0000
0000
0000
0000
0000
0000
0220
,
0330
0000
0000
2200
3300
0000
0000
2002
,
3003
0000
0000
0000
0000
0000
0000
0202
,
0303
0000
0000
0000
0000
0220
0330
2200
,
3300
0000
0000
0000
0000
0000
0000
2002
,
3003
0000
0000
0202
0303
0000
0000
0220
,
0330
0000
0000
0000
0000
0000
0000
2200
,
3311
0000
1100
0110
0011
1001
0101
0110
,
1000
0001
0100
0010
1000
0001
0100
0001
1000
0100
1000
0010
0100
0001
1000
0100
,
0010
0001
1000
0001
0010
0100
1000
0010
0100
0001
0100
0010
1000
0100
1000
0001
,
0100
0010
1000
0100
0010
0001
1000
0010
0100
0010
1000
0001
0010
0001
0100
0010
,
1000
0100
0010
0001
1000
0001
0100
0010
1000
0001
0010
0001
1000
0100
1000
0010
,
0100
0001
1000
0100
0010
0001
0100
0010
1000
0001
0100
0010
1000
0001
0100
0001
,
1000
0100
1000
0010
0100
0001
1000
0100
0010
0001
1000
0001
0010
0100
1000
0010
,
0100
0001
0100
0010
1000
0100
1000
0001
0100
0010
1000
0100
0010
0001
1000
0010
,
0100
0010
1000
0001
0010
0001
0100
0010
1000
0100
0010
0001
1000
0001
0100
0010
,
1000
0001
0010
0001
1000
0100
1000
0010
0100
0001
1000
0100
0010
0001
0100
0010
,
1000
0001
0100
0010
1000
0001
0100
0001
1000
0100
1000
0010
0100
0001
1000
0100
,
0010
0001
1000
0001
0010
0100
1000
0010
0100
0001
0100
0010
1000
0100
1000
0001
,
0100
0010
1000
0100
0010
0001
1000
0010
0100
0010
1000
0001
0010
0001
0100
0010
,
1000
0100
0010
0001
1000
0001
0100
0010
1000
0001
0010
0001
1000
0100
1000
0010
,
0100
0001
1000
0100
0010
0001
0100
0010
1000
0001
0100
0001
1000
0100
1000
0010
,
0100
0001
1000
0100
0010
0001
1000
0001
0100
0010
1000
0001
0010
0001
1000
0100
,
1000
0010
0100
0001
1000
0100
0010
0001
1000
0001
0100
0010
0100
1000
0001
0100
,
0001
1000
0100
0010
0001
0100
0010
1000
0001
0010
0001
0100
0010
1000
0100
0010
,
0001
1000
0100
1000
0010
0100
0010
1000
0001
0100
0001
1000
0100
0010
0001
0010
,
0100
1000
0001
0100
0001
1000
0010
0100
0010
1000
0001
0010
0001
0100
0010
1000
,
0100
1000
0001
0100
0010
1000
0010
0100
0001
1000
0100
0010
0001
0010
0100
1000
,
0001
0010
0001
1000
0100
0010
0001
0100
0010
1000
0010
0100
0001
1000
0100
1000
,
0010
0100
0001
0100
0010
1000
0100
0010
0001
1000
0001
0100
0010
1000
0001
0010
,
0001
1000
0100
1000
0001
0100
0010
1000
0100
0010
0001
0100
0010
1000
0001
0100
,
0001
1000
0100
0010
0001
0100
0010
1000
0001
0010
0001
0100
0010
1000
0100
0010
,
0001
1000
0100
1000
0010
0100
0010
1000
0001
0100
0001
1000
0100
0010
0001
0010
,
0100
1000
0001
0100
0001
1000
0010
0100
0010
1000
0001
0010
0001
0100
0010
1000
,
0100
1000
0001
0100
0010
1000
0010
0100
0001
1000
0100
0010
0001
0010
0100
1000
,
0001
0010
0001
1000
0100
0010
0001
0100
0010
1000
0010
0100
0001
1000
0100
1000
,
0010
0100
0001
0100
0010
1000
0100
0010
0001
1000
0001
0100
0010
1000
0001
0010
,
0001
1000
0100
1000
0001
0100
0010
1000
0100
1000
0001
0100
0001
1000
0100
0010
,
0001
0100
0010
1000
0001
0010
0001
0100
0010
1000
0100
0010
0001
1000
0100
1000
,
0010
0100
0010
1000
0001
0100
0001
1000
0100
0010
0001
0010
0100
1000
0001
0100
,
0002
0000
0000
0000
0013
1000
0001
0010
0001
0100
0010
1000
0100
1000
0001
0100
,
0010
1000
0010
0100
0001
1000
0100
0010
0001
0010
0100
1000
0001
0010
0001
1000
,
0100
0010
0001
0100
0010
1000
0010
0100
0001
1000
0100
1000
0010
0100
0001
0100
,
0010
1000
0100
0010
0001
1000
0001
0100
0010
1000
0001
0010
0001
1000
0100
1000
,
0001
0100
0010
1000
0100
1000
0001
0100
0001
1000
0100
0010
0001
0100
0010
1000
,
0001
0010
0001
0100
0010
1000
0100
0010
0001
1000
0100
1000
0010
0100
0010
1000
,
0001
0100
0001
1000
0100
0010
0001
0010
0100
1000
0001
0100
0001
1000
0010
0100
,
0010
1000
0001
0010
0001
0100
0010
1000
0100
1000
0001
0100
0010
1000
0010
0100
,
0002
0000
0000
0000
1003
0010
0100
1000
0001
0010
0001
1000
0100
0010
0001
0100
,
0010
1000
0010
0100
0001
1000
0100
1000
0010
0100
0001
0100
0010
1000
0100
0010
,
0001
1000
0001
0100
0010
1000
0001
0010
0001
1000
0100
1000
0001
0100
0010
1000
,
0100
1000
0001
0100
0001
1000
0100
0010
0001
0100
0010
1000
0001
0010
0001
0100
,
0010
1000
0100
0010
0001
1000
0100
1000
0010
0100
0010
1000
0001
0100
0001
1000
,
0100
0010
0001
0010
0100
1000
0001
0100
0001
1000
0010
0100
0010
1000
0001
0010
,
0001
0100
0010
1000
0100
1000
0001
0100
0010
1000
0010
0100
0001
1000
0100
0010
,
0001
0010
0100
1000
0001
0010
0001
1000
0100
0010
0001
0100
0020
0000
0000
0000
,
0130
1000
0001
0100
0001
1000
0100
0010
0001
0100
0010
1000
0001
0010
0001
0100
,
0010
1000
0100
0010
0001
1000
0100
1000
0010
0100
0010
1000
0001
0100
0001
1000
,
0100
0010
0001
0010
0100
1000
0001
0100
0001
1000
0010
0100
0010
1000
0001
0010
,
0001
0100
0010
1000
0100
1000
0001
0100
0010
1000
0010
0100
0001
1000
0100
0010
,
0001
0010
0100
1000
0001
0010
0001
1000
0100
0010
0001
0100
0010
1000
0010
0100
,
0001
1000
0100
1000
0010
0100
0001
0100
0010
1000
0100
0010
0001
1000
0001
0100
,
0010
1000
0001
0010
0001
1000
0100
1000
0001
0100
0010
1000
0100
0010
0001
0100
,
0010
1000
0001
0100
0001
1000
0100
0010
0001
0100
0010
1000
0001
0010
0001
0100
,
0010
1000
0100
0010
0001
1000
0100
1000
0010
0100
0010
1000
0001
0100
0001
1000
,
0100
0010
0001
0010
0100
1000
0001
0100
0001
1000
0010
0100
0010
1000
0001
0010
,
0001
0100
0010
1000
0100
1000
0001
0100
0010
1000
0010
0100
0001
1000
0100
0010
,
0001
0010
0100
1000
0001
0010
0001
1000
0100
0010
0001
0100
0010
1000
0010
0100
,
0001
1000
0100
1000
0010
0100
0001
0100
0010
1000
0100
0010
0001
1000
0001
0100
,
0010
1000
0001
0010
0001
1000
0100
1000
0001
0100
0010
1000
0100
1000
0001
0100
,
0001
1000
0100
0010
0001
0100
0010
1000
0001
0010
0001
0100
0010
1000
0100
0010
,
0001
1000
0100
1000
0010
0100
0010
1000
0001
0100
0001
1000
0100
0010
0001
0010
,
0100
1000
0001
0100
0010
1000
0001
0100
0001
1000
0100
0010
0001
0100
0010
1000
,
0001
0010
0001
0100
0010
1000
0100
0010
0001
1000
0100
1000
0010
0100
0010
1000
,
0001
0100
0001
1000
0100
0010
0001
0010
0100
1000
0001
0100
0001
1000
0010
0100
,
0010
1000
0001
0010
0001
0100
0010
1000
0100
1000
0001
0100
0010
1000
0010
0100
,
0001
1000
0100
0010
0001
0010
0100
1000
0001
0010
0001
1000
0100
0010
0001
0100
,
0010
1000
0010
0100
0001
1000
0100
1000
0010
0100
0001
0100
0010
1000
0100
0010
,
0001
1000
0001
0100
0010
1000
0001
0010
0001
1000
0100
1000
0001
0100
0010
1000
,
0100
0010
0001
0100
0010
1000
0001
0100
0001
1000
0100
0010
0001
0100
0010
1000
,
0001
0010
0001
0100
0010
1000
0100
0010
0001
1000
0100
1000
0010
0100
0010
1000
,
0001
0100
0001
1000
0100
0010
0001
0010
0100
1000
0001
0100
0001
1000
0010
0100
,
0010
1000
0001
0010
0001
0100
0010
1000
0100
1000
0001
0100
0010
1000
0010
0100
,
0001
1000
0100
0010
0001
0010
0100
1000
0001
0010
0001
1000
0100
0010
0001
0100
,
0010
1000
0010
0100
0001
1000
0100
1000
0010
0100
0001
0100
0010
1000
0100
0010
,
0001
1000
0001
0100
0010
1000
0001
0010
0001
1000
0100
1000
0001
0100
0010
1000
,
0100
1000
0001
0100
0001
1000
0100
0010
0001
0100
0010
1000
0001
0010
0001
0100
,
0010
1000
0100
0010
0001
1000
0100
1000
0001
0010
0100
0001
2000
0000
0000
0000
,
0000
3002
0000
0000
0000
0000
0000
0000
,
0000
0000
0000
0000
,
2003
0000
0000
0000
,
3020
0000
0000
0000
0000
0000
2030
3002
,
0000
0000
0000
0000
,
0203
0000
0000
0000
,
0302
0000
0000
0000
,
2003
0000
0000
0000
0000
0000
0000
0000
0000
0000
0000
0000
0000
0000
0000
0000
0000
0000
0000
0000
3001
0100
0001
1000
0010
0100
0010
1000
0001
0100
0001
1000
,
0100
0010
0001
0100
0010
1000
0001
0010
0001
0100
0010
1000
0100
0010
0001
0100
0010
1000
0001
0100
0002
0000
0000
0000
0000
0000
0000
0000
0000
0000
0000
0000
,
0000
0000
0000
0000
0000
0000
0000
2003
,
0000
0000
0000
0000
,
3020
0000
0000
0000
0000
0000
2030
3002
,
0000
0000
0000
0000
0000
0000
0000
0203
,
0000
0000
0000
0000
0000
0000
0000
0302
,
0000
0000
0000
0000
0000
0000
0000
2003
,
0000
0000
0000
0000
0000
0000
0000
3220
,
0000
0000
0000
0000
,
0000
0000
0000
0000
,
0000
0000
0000
0000
,
0000
0000
0000
0000
,
0000
0000
0000
0000
,
0330
0000
0000
0000
,
0000
0000
0000
0000
;

//---------------dance-single - 40+ (owenviau1)----------------
#NOTES:
     dance-single:
     40+ (owenviau1):
     Challenge:
     40:
     1.000,1.000,0.149,0.458,1.000,5397.000,47.000,145.000,0.000,3.000:
2000
0000
0000
3002
0000
0000
0000
0000
0000
0000
0000
0000
0000
0000
0000
0000
,
0000
0000
0000
0000
,
2003
0000
0000
0000
,
0000
3020
0000
0000
0000
0000
0000
2030
,
3002
0000
0000
0000
,
0203
0000
0000
0000
,
0302
0000
0000
0000
,
2003
0000
0000
0000
,
3202
0303
0000
0000
0220
0330
0000
0000
,
2200
3300
0000
0000
2002
3003
0000
0000
,
2020
3030
0000
0000
0220
0330
0000
0000
,
0202
0303
0000
0000
2002
3003
0000
0000
,
2020
3030
0000
0000
2200
3300
0000
0000
,
0022
0033
0000
0000
2020
3030
0000
0000
,
0202
0303
0000
0000
2002
3003
0000
0000
,
0220
0330
0000
0000
0202
0303
0000
0000
,
2000
3100
0010
0001
1000
0001
0100
0010
,
1000
0001
0010
0001
0100
0010
1000
0100
,
0010
0001
1000
0001
0100
0010
1000
0001
,
0010
0100
1000
0100
1000
0010
0100
0001
,
1000
0001
0100
0010
1000
0001
0100
0001
,
1000
0100
1000
0010
0100
0001
1000
0100
,
0010
0001
1000
0001
0100
0010
1000
0001
,
0010
0001
0100
0010
1000
0100
0010
0001
,
1001
0000
0100
0000
0010
0000
1000
0000
0100
0000
0010
0001
1000
0000
0010
0000
,
0100
0001
0100
0010
1000
0000
0001
0000
0100
0000
0010
1000
0001
0000
0100
0000
,
0010
1000
0100
0010
0001
0000
0100
0000
0010
0000
1000
0001
0100
0000
0010
0000
,
1000
0001
1000
0010
0100
0000
0001
0000
1000
0000
0100
0000
1000
0000
0010
0000
,
0100
0000
0001
0000
1000
0000
0100
0000
0010
0000
0001
1000
0001
0000
0100
0000
,
0010
1000
0001
0100
0010
0000
1000
0000
0100
0000
0010
0001
1000
0000
0001
0000
,
0100
0010
1000
0001
0100
0000
0010
0000
1000
0000
0100
0010
0001
0000
1000
0000
,
0010
0100
0001
1000
0001
0000
0100
0000
0010
0000
1000
0001
0100
0000
0010
0000
,
1000
0001
0100
0010
1000
0001
0100
0001
1000
0100
1000
0010
0100
0001
1000
0100
,
0010
0001
1000
0001
0010
0100
1000
0010
0100
0001
0100
0010
1000
0100
1000
0001
,
0100
0010
1000
0100
0010
0001
1000
0010
0100
0010
1000
0001
0010
0001
0100
0010
,
1000
0100
0010
0001
1000
0001
0100
0010
1000
0001
0010
0001
1000
0100
1000
0010
,
0100
0001
1000
0100
0010
0001
0100
0010
1000
0001
0100
0010
1000
0001
0100
0001
,
1000
0100
1000
0010
0100
0001
1000
0100
0010
0001
1000
0001
0010
0100
1000
0010
,
0100
0001
0100
0010
1000
0100
1000
0001
0100
0010
1000
0100
0010
0001
1000
0010
,
0100
0010
1000
0001
0010
0001
0100
0010
1000
0100
0010
0001
1000
0001
0100
0010
,
1000
0001
0010
0001
1000
0100
1000
0010
0100
0001
1000
0100
0010
0001
0100
0010
,
1000
0001
0100
0010
1000
0001
0100
0001
1000
0100
1000
0010
0100
0001
1000
0100
,
0010
0001
1000
0001
0010
0100
1000
0010
0100
0001
0100
0010
1000
0100
1000
0001
,
0100
0010
1000
0100
0010
0001
1000
0010
0100
0010
1000
0001
0010
0001
0100
0010
,
1000
0100
0010
0001
1000
0001
0100
0010
1000
0001
0010
0001
1000
0100
1000
0010
,
0100
0001
1000
0100
0010
0001
0100
0010
1000
0001
0100
0010
1000
0001
0010
0001
,
1000
0100
0010
0001
1000
0001
0100
0010
1000
0001
0100
0001
1000
0010
0100
0001
,
1000
0100
0010
0001
1000
0001
0100
0010
1000
0100
1000
0001
0100
0010
1000
0001
,
0100
0000
0000
0000
0000
0000
0000
0000
1000
0000
0100
0000
0010
0000
0001
0000
0100
0010
1000
0000
0001
0100
0010
0000
1000
0000
0001
0000
0100
0010
1000
0000
,
0001
0010
0100
0000
1000
0000
0010
0000
0100
0001
1000
0000
0010
0100
0001
0000
1000
0000
0100
0000
0010
0000
0001
1000
0010
0000
0100
0000
0001
0000
1000
0000
,
0100
0000
0000
0000
0010
0000
0000
0000
0001
0000
0000
0000
1000
0000
0000
0000
0100
0000
0000
0000
0010
0000
0000
0000
0001
0000
0000
0000
0000
0000
0010
0000
0000
0000
0000
0000
0100
0000
0000
0000
0000
0000
1000
0000
0000
0000
0000
0000
0001
0000
0000
0100
0000
0000
0010
0000
0000
0000
0000
0000
1000
0000
0000
0001
0000
0000
0100
0000
0000
0000
0000
0000
0010
0000
0000
0000
0000
0000
1000
0000
0000
0000
0000
0000
0100
0000
0000
0010
0000
0000
0001
0000
0000
0000
0000
0000
,
1000
0010
0100
0000
0001
0000
1000
0000
0100
0010
0001
0000
1000
0010
0100
0000
0001
0000
0010
0000
0100
0000
1000
0001
0100
0000
0010
0000
1000
0000
0100
0000
,
0010
0000
0000
0000
0001
0000
0000
0000
1000
0000
0000
0000
0100
0000
0000
0000
0010
0000
0000
0000
0001
0000
0000
0000
1000
0000
0000
0000
0000
0000
0100
0000
0000
0000
0000
0000
0010
0000
0000
0000
0000
0000
0001
0000
0000
0000
0000
0000
0100
0000
0000
0010
0000
0000
1000
0000
0000
0000
0000
0000
0001
0000
0000
0100
0000
0000
0010
0000
0000
0000
0000
0000
1000
0000
0000
0000
0000
0000
0001
0000
0000
0000
0000
0000
0100
0000
0000
0010
0000
0000
1000
0000
0000
0000
0000
0000
,
0001
0010
0100
0000
1000
0000
0010
0000
0100
0001
1000
0000
0010
0100
0001
0000
1000
0000
0100
0000
0010
0000
0001
1000
0010
0000
0100
0000
0001
0000
1000
0000
,
0100
0000
0000
0000
0010
0000
0000
0000
0001
0000
0000
0000
1000
0000
0000
0000
0100
0000
0000
0000
0010
0000
0000
0000
0001
0000
0000
0000
0000
0000
0010
0000
0000
0000
0000
0000
0100
0000
0000
0000
0000
0000
1000
0000
0000
0000
0000
0000
0001
0000
0000
0100
0000
0000
0010
0000
0000
0000
0000
0000
1000
0000
0000
0001
0000
0000
0100
0000
0000
0000
0000
0000
0010
0000
0000
0000
0000
0000
1000
0000
0000
0000
0000
0000
0100
0000
0000
0010
0000
0000
0001
0000
0000
0000
0000
0000
,
1000
0010
0100
0000
0001
0000
1000
0000
0100
0010
0001
0000
1000
0010
0100
0000
0001
0000
0010
0000
0100
0000
1000
0001
0100
0000
0010
0000
1000
0000
0001
0000
,
0100
0000
0000
0000
0000
0000
0000
0000
1000
0000
0100
0000
0010
0000
0001
0000
0100
0010
1000
0000
0001
0100
0010
0000
1000
0000
0001
0000
0100
0010
1000
0000
,
0001
0010
0100
0000
1000
0000
0010
0000
0100
0001
1000
0000
0010
0100
0001
0000
1000
0000
0100
0000
0010
0000
0001
1000
0010
0000
0100
0000
0001
0000
1000
0000
,
0100
0000
0000
0000
0010
0000
0000
0000
0001
0000
0000
0000
1000
0000
0000
0000
0100
0000
0000
0000
0010
0000
0000
0000
0001
0000
0000
0000
0000
0000
0010
0000
0000
0000
0000
0000
0100
0000
0000
0000
0000
0000
1000
0000
0000
0000
0000
0000
0001
0000
0000
0100
0000
0000
0010
0000
0000
0000
0000
0000
1000
0000
0000
0001
0000
0000
0100
0000
0000
0000
0000
0000
0010
0000
0000
0000
0000
0000
1000
0000
0000
0000
0000
0000
0100
0000
0000
0010
0000
0000
0001
0000
0000
0000
0000
0000
,
1000
0010
0100
0000
0001
0000
1000
0000
0100
0010
0001
0000
1000
0010
0100
0000
0001
0000
0010
0000
0100
0000
1000
0001
0100
0000
0010
0000
1000
0000
0100
0000
,
0010
0000
0000
0000
0001
0000
0000
0000
1000
0000
0000
0000
0100
0000
0000
0000
0010
0000
0000
0000
0001
0000
0000
0000
1000
0000
0000
0000
0000
0000
0100
0000
0000
0000
0000
0000
0010
0000
0000
0000
0000
0000
0001
0000
0000
0000
0000
0000
0100
0000
0000
0010
0000
0000
1000
0000
0000
0000
0000
0000
0001
0000
0000
0100
0000
0000
0010
0000
0000
0000
0000
0000
1000
0000
0000
0000
0000
0000
0001
0000
0000
0000
0000
0000
0100
0000
0000
0010
0000
0000
1000
0000
0000
0000
0000
0000
,
0001
0010
0100
0000
1000
0000
0010
0000
0100
0001
1000
0000
0010
0100
0001
0000
1000
0000
0100
0000
0010
0000
0001
1000
0010
0000
0100
0000
0001
0000
1000
0000
,
0100
0000
0000
0000
0010
0000
0000
0000
0001
0000
0000
0000
1000
0000
0000
0000
0100
0000
0000
0000
0010
0000
0000
0000
0001
0000
0000
0000
0000
0000
0010
0000
0000
0000
0000
0000
0100
0000
0000
0000
0000
0000
1000
0000
0000
0000
0000
0000
0001
0000
0000
0100
0000
0000
0010
0000
0000
0000
0000
0000
1000
0000
0000
0001
0000
0000
0100
0000
0000
0000
0000
0000
0010
0000
0000
0000
0000
0000
1000
0000
0000
0000
0000
0000
0100
0000
0000
0010
0000
0000
0001
0000
0000
0000
0000
0000
,
1000
0010
0100
0000
0001
0000
1000
0000
0100
0010
0001
0000
1000
0010
0100
0000
0001
0000
0010
0000
0100
0000
1000
0001
0100
0000
0010
0000
1000
0000
0001
0000
,
0020
0000
0000
0000
0000
0000
0000
0000
1030
0000
0100
0000
0010
0000
0001
0000
0100
0010
1000
0000
0001
0100
0010
0000
1000
0000
0001
0000
0100
0010
1000
0000
,
0001
0010
0100
0000
1000
0000
0010
0000
0100
0001
1000
0000
0010
0100
0001
0000
1000
0000
0100
0000
0010
0000
0001
1000
0010
0000
0100
0000
0001
0000
1000
0000
,
0100
0000
0000
0000
0010
0000
0000
0000
0001
0000
0000
0000
1000
0000
0000
0000
0100
0000
0000
0000
0010
0000
0000
0000
0001
0000
0000
0000
0000
0000
0010
0000
0000
0000
0000
0000
0100
0000
0000
0000
0000
0000
1000
0000
0000
0000
0000
0000
0001
0000
0000
0100
0000
0000
0010
0000
0000
0000
0000
0000
1000
0000
0000
0001
0000
0000
0100
0000
0000
0000
0000
0000
0010
0000
0000
0000
0000
0000
1000
0000
0000
0000
0000
0000
0100
0000
0000
0010
0000
0000
0001
0000
0000
0000
0000
0000
,
1000
0010
0100
0000
0001
0000
1000
0000
0100
0010
0001
0000
1000
0010
0100
0000
0001
0000
0010
0000
0100
0000
1000
0001
0100
0000
0010
0000
1000
0000
0100
0000
,
0010
0000
0000
0000
0001
0000
0000
0000
1000
0000
0000
0000
0100
0000
0000
0000
0010
0000
0000
0000
0001
0000
0000
0000
1000
0000
0000
0000
0000
0000
0100
0000
0000
0000
0000
0000
0010
0000
0000
0000
0000
0000
0001
0000
0000
0000
0000
0000
0100
0000
0000
0010
0000
0000
1000
0000
0000
0000
0000
0000
0001
0000
0000
0100
0000
0000
0010
0000
0000
0000
0000
0000
1000
0000
0000
0000
0000
0000
0001
0000
0000
0000
0000
0000
0100
0000
0000
0010
0000
0000
1000
0000
0000
0000
0000
0000
,
0001
0010
0100
0000
1000
0000
0010
0000
0100
0001
1000
0000
0010
0100
0001
0000
1000
0000
0100
0000
0010
0000
0001
1000
0010
0000
0100
0000
0001
0000
1000
0000
,
0100
0000
0000
0000
0010
0000
0000
0000
0001
0000
0000
0000
1000
0000
0000
0000
0100
0000
0000
0000
0010
0000
0000
0000
0001
0000
0000
0000
0000
0000
0010
0000
0000
0000
0000
0000
0100
0000
0000
0000
0000
0000
1000
0000
0000
0000
0000
0000
0001
0000
0000
0100
0000
0000
0010
0000
0000
0000
0000
0000
1000
0000
0000
0001
0000
0000
0100
0000
0000
0000
0000
0000
0010
0000
0000
0000
0000
0000
1000
0000
0000
0000
0000
0000
0100
0000
0000
0010
0000
0000
0001
0000
0000
0000
0000
0000
,
1000
0010
0100
0000
0001
0000
1000
0000
0100
0010
0001
0000
1000
0010
0100
0000
0001
0000
0010
0000
0100
0000
1000
0001
0100
0000
0010
0000
1000
0000
0001
0000
,
0200
0000
0000
0000
0300
0000
0000
0000
0001
0000
0010
0000
0100
0000
1000
0000
0001
0100
0010
0000
1000
0001
0100
0000
0010
0000
0001
0000
0100
0010
1000
0000
,
0001
0010
0100
0000
1000
0000
0010
0000
0100
0001
1000
0000
0010
0100
0001
0000
1000
0000
0100
0000
0010
0000
0001
1000
0010
0000
0100
0000
0001
0000
1000
0000
,
0100
0000
0000
0000
0010
0000
0000
0000
0001
0000
0000
0000
1000
0000
0000
0000
0100
0000
0000
0000
0010
0000
0000
0000
0001
0000
0000
0000
0000
0000
0010
0000
0000
0000
0000
0000
0100
0000
0000
0000
0000
0000
1000
0000
0000
0000
0000
0000
0001
0000
0000
0100
0000
0000
0010
0000
0000
0000
0000
0000
1000
0000
0000
0001
0000
0000
0100
0000
0000
0000
0000
0000
0010
0000
0000
0000
0000
0000
1000
0000
0000
0000
0000
0000
0100
0000
0000
0010
0000
0000
0001
0000
0000
0000
0000
0000
,
1000
0010
0100
0000
0001
0000
1000
0000
0100
0010
0001
0000
1000
0010
0100
0000
0001
0000
0010
0000
0100
0000
1000
0001
0100
0000
0010
0000
1000
0000
0100
0000
,
0010
0000
0000
0000
0001
0000
0000
0000
1000
0000
0000
0000
0100
0000
0000
0000
0010
0000
0000
0000
0001
0000
0000
0000
1000
0000
0000
0000
0000
0000
0100
0000
0000
0000
0000
0000
0010
0000
0000
0000
0000
0000
0001
0000
0000
0000
0000
0000
0100
0000
0000
0010
0000
0000
1000
0000
0000
0000
0000
0000
0001
0000
0000
0100
0000
0000
0010
0000
0000
0000
0000
0000
1000
0000
0000
0000
0000
0000
0001
0000
0000
0000
0000
0000
0100
0000
0000
0010
0000
0000
1000
0000
0000
0000
0000
0000
,
0001
0010
0100
0000
1000
0000
0010
0000
0100
0001
1000
0000
0010
0100
0001
0000
1000
0000
0100
0000
0010
0000
0001
1000
0010
0000
0100
0000
0001
0000
1000
0000
,
0100
0000
0000
0000
0010
0000
0000
0000
0001
0000
0000
0000
1000
0000
0000
0000
0100
0000
0000
0000
0010
0000
0000
0000
0001
0000
0000
0000
0000
0000
0010
0000
0000
0000
0000
0000
0100
0000
0000
0000
0000
0000
1000
0000
0000
0000
0000
0000
0001
0000
0000
0100
0000
0000
0010
0000
0000
0000
0000
0000
1000
0000
0000
0001
0000
0000
0100
0000
0000
0000
0000
0000
0010
0000
0000
0000
0000
0000
1000
0000
0000
0000
0000
0000
0100
0000
0000
0010
0000
0000
0001
0000
0000
0000
0000
0000
,
1000
0010
0100
0000
0001
0000
1000
0000
0100
0010
0001
0000
1000
0010
0100
0000
0001
0000
0010
0000
0100
0000
1000
0001
0200
0000
0000
0000
0000
0000
0000
0000
,
0320
0000
0000
0000
0000
0000
0000
0000
1030
0000
0100
0000
0010
0000
0001
0000
0100
0010
1000
0000
0001
0100
0010
0000
1000
0000
0001
0000
0100
0010
1000
0000
,
0001
0010
0100
0000
1000
0000
0010
0000
0100
0001
1000
0000
0010
0100
0001
0000
1000
0000
0100
0000
0010
0000
0001
1000
0010
0000
0100
0000
0001
0000
1000
0000
,
0100
0000
0000
0000
0010
0000
0000
0000
0001
0000
0000
0000
1000
0000
0000
0000
0100
0000
0000
0000
0010
0000
0000
0000
0001
0000
0000
0000
0000
0000
0010
0000
0000
0000
0000
0000
0100
0000
0000
0000
0000
0000
1000
0000
0000
0000
0000
0000
0001
0000
0000
0100
0000
0000
0010
0000
0000
0000
0000
0000
1000
0000
0000
0001
0000
0000
0100
0000
0000
0000
0000
0000
0010
0000
0000
0000
0000
0000
1000
0000
0000
0000
0000
0000
0100
0000
0000
0010
0000
0000
0001
0000
0000
0000
0000
0000
,
1000
0010
0100
0000
0001
0000
1000
0000
0100
0010
0001
0000
1000
0010
0100
0000
0001
0000
0010
0000
0100
0000
1000
0001
0100
0000
0010
0000
1000
0000
0100
0000
,
0010
0000
0000
0000
0001
0000
0000
0000
1000
0000
0000
0000
0100
0000
0000
0000
0010
0000
0000
0000
0001
0000
0000
0000
1000
0000
0000
0000
0000
0000
0100
0000
0000
0000
0000
0000
0010
0000
0000
0000
0000
0000
0001
0000
0000
0000
0000
0000
0100
0000
0000
0010
0000
0000
1000
0000
0000
0000
0000
0000
0001
0000
0000
0100
0000
0000
0010
0000
0000
0000
0000
0000
1000
0000
0000
0000
0000
0000
0001
0000
0000
0000
0000
0000
0100
0000
0000
0010
0000
0000
1000
0000
0000
0000
0000
0000
,
0001
0010
0100
0000
1000
0000
0010
0000
0100
0001
1000
0000
0010
0100
0001
0000
1000
0000
0100
0000
0010
0000
0001
1000
0010
0000
0100
0000
0001
0000
1000
0000
,
0100
0000
0000
0000
0010
0000
0000
0000
0001
0000
0000
0000
1000
0000
0000
0000
0100
0000
0000
0000
0010
0000
0000
0000
0001
0000
0000
0000
0000
0000
0010
0000
0000
0000
0000
0000
0100
0000
0000
0000
0000
0000
1000
0000
0000
0000
0000
0000
0001
0000
0000
0100
0000
0000
0010
0000
0000
0000
0000
0000
1000
0000
0000
0001
0000
0000
0100
0000
0000
0000
0000
0000
0010
0000
0000
0000
0000
0000
1000
0000
0000
0000
0000
0000
0100
0000
0000
0010
0000
0000
0001
0000
0000
0000
0000
0000
,
1000
0010
0100
0000
0001
0000
1000
0000
0100
0010
0001
0000
1000
0010
0100
0000
0001
0000
0010
0000
0100
0000
1000
0001
0100
0000
0010
0000
1000
0000
0001
0000
,
0200
0000
0000
0000
0000
0000
0000
0000
1300
0000
0100
0000
0010
0000
0001
0000
0100
0010
1000
0000
0001
0100
0010
0000
1000
0000
0001
0000
0100
0010
1000
0000
,
0001
0010
0100
0000
1000
0000
0010
0000
0100
0001
1000
0000
0010
0100
0001
0000
1000
0000
0100
0000
0010
0000
0001
1000
0010
0000
0100
0000
0001
0000
1000
0000
,
0100
0000
0000
0000
0010
0000
0000
0000
0001
0000
0000
0000
1000
0000
0000
0000
0100
0000
0000
0000
0010
0000
0000
0000
0001
0000
0000
0000
0000
0000
0010
0000
0000
0000
0000
0000
0100
0000
0000
0000
0000
0000
1000
0000
0000
0000
0000
0000
0001
0000
0000
0100
0000
0000
0010
0000
0000
0000
0000
0000
1000
0000
0000
0001
0000
0000
0100
0000
0000
0000
0000
0000
0010
0000
0000
0000
0000
0000
1000
0000
0000
0000
0000
0000
0100
0000
0000
0010
0000
0000
0001
0000
0000
0000
0000
0000
,
1000
0010
0100
0000
0001
0000
1000
0000
0100
0010
0001
0000
1000
0010
0100
0000
0001
0000
0010
0000
0100
0000
1000
0001
0100
0000
0010
0000
1000
0000
0100
0000
,
0010
0000
0000
0000
0001
0000
0000
0000
1000
0000
0000
0000
0100
0000
0000
0000
0010
0000
0000
0000
0001
0000
0000
0000
1000
0000
0000
0000
0000
0000
0100
0000
0000
0000
0000
0000
0010
0000
0000
0000
0000
0000
0001
0000
0000
0000
0000
0000
0100
0000
0000
0010
0000
0000
1000
0000
0000
0000
0000
0000
0001
0000
0000
0100
0000
0000
0010
0000
0000
0000
0000
0000
1000
0000
0000
0000
0000
0000
0001
0000
0000
0000
0000
0000
0100
0000
0000
0010
0000
0000
1000
0000
0000
0000
0000
0000
,
0001
0010
0100
0000
1000
0000
0010
0000
0100
0001
1000
0000
0010
0100
0001
0000
1000
0000
0100
0000
0010
0000
0001
1000
0010
0000
0100
0000
0001
0000
1000
0000
,
0100
0000
0000
0000
0010
0000
0000
0000
0001
0000
0000
0000
1000
0000
0000
0000
0100
0000
0000
0000
0010
0000
0000
0000
0001
0000
0000
0000
0000
0000
0010
0000
0000
0000
0000
0000
0100
0000
0000
0000
0000
0000
1000
0000
0000
0000
0000
0000
0001
0000
0000
0100
0000
0000
0010
0000
0000
0000
0000
0000
1000
0000
0000
0001
0000
0000
0100
0000
0000
0000
0000
0000
0010
0000
0000
0000
0000
0000
1000
0000
0000
0000
0000
0000
0100
0000
0000
0010
0000
0000
0001
0000
0000
0000
0000
0000
,
1000
0010
0100
0000
0001
0000
1000
0000
0020
0000
0000
0000
0000
0000
0000
0000
0230
0000
0000
0000
0000
0000
0000
0000
0302
0000
0000
0000
0000
0000
0000
0000
,
0023
0000
0000
0000
0000
0000
0000
0000
1030
0000
0100
0000
0010
0000
0001
0000
0100
0010
1000
0000
0001
0100
0010
0000
1000
0000
0001
0000
0100
0010
1000
0000
,
0001
0010
0100
0000
1000
0000
0010
0000
0100
0001
1000
0000
0010
0100
0001
0000
1000
0000
0100
0000
0010
0000
0001
1000
0010
0000
0100
0000
0001
0000
1000
0000
,
0100
0000
0000
0000
0010
0000
0000
0000
0001
0000
0000
0000
1000
0000
0000
0000
0100
0000
0000
0000
0010
0000
0000
0000
0001
0000
0000
0000
0000
0000
0010
0000
0000
0000
0000
0000
0100
0000
0000
0000
0000
0000
1000
0000
0000
0000
0000
0000
0001
0000
0000
0100
0000
0000
0010
0000
0000
0000
0000
0000
1000
0000
0000
0001
0000
0000
0100
0000
0000
0000
0000
0000
0010
0000
0000
0000
0000
0000
1000
0000
0000
0000
0000
0000
0100
0000
0000
0010
0000
0000
0001
0000
0000
0000
0000
0000
,
1000
0010
0100
0000
0001
0000
1000
0000
0100
0010
0001
0000
1000
0010
0100
0000
0001
0000
0010
0000
0100
0000
1000
0001
0100
0000
0010
0000
1000
0000
0100
0000
,
0010
0000
0000
0000
0001
0000
0000
0000
1000
0000
0000
0000
0100
0000
0000
0000
0010
0000
0000
0000
0001
0000
0000
0000
1000
0000
0000
0000
0000
0000
0100
0000
0000
0000
0000
0000
0010
0000
0000
0000
0000
0000
0001
0000
0000
0000
0000
0000
0100
0000
0000
0010
0000
0000
1000
0000
0000
0000
0000
0000
0001
0000
0000
0100
0000
0000
0010
0000
0000
0000
0000
0000
1000
0000
0000
0000
0000
0000
0001
0000
0000
0000
0000
0000
0100
0000
0000
0010
0000
0000
1000
0000
0000
0000
0000
0000
,
0001
0010
0100
0000
1000
0000
0010
0000
0100
0001
1000
0000
0010
0100
0001
0000
1000
0000
0100
0000
0010
0000
0001
1000
0010
0000
0100
0000
0001
0000
1000
0000
,
0100
0000
0000
0000
0010
0000
0000
0000
0001
0000
0000
0000
1000
0000
0000
0000
0100
0000
0000
0000
0010
0000
0000
0000
0001
0000
0000
0000
0000
0000
0010
0000
0000
0000
0000
0000
0100
0000
0000
0000
0000
0000
1000
0000
0000
0000
0000
0000
0001
0000
0000
0100
0000
0000
0010
0000
0000
0000
0000
0000
1000
0000
0000
0001
0000
0000
0100
0000
0000
0000
0000
0000
0010
0000
0000
0000
0000
0000
1000
0000
0000
0000
0000
0000
0100
0000
0000
0010
0000
0000
0001
0000
0000
0000
0000
0000
,
1000
0010
0100
0000
0001
0000
1000
0000
0100
0010
0001
0000
1000
0010
0100
0000
0001
0000
0010
0000
0100
0000
1000
0001
0100
0000
0010
0000
1000
0000
0001
0000
,
0020
0000
0000
0000
0030
0000
0000
0000
1000
0000
0100
0000
0010
0000
0001
0000
0100
0010
1000
0000
0001
0100
0010
0000
1000
0000
0001
0000
0100
0010
1000
0000
,
0001
0010
0100
0000
1000
0000
0010
0000
0100
0001
1000
0000
0010
0100
0001
0000
1000
0000
0100
0000
0010
0000
0001
1000
0010
0000
0100
0000
0001
0000
1000
0000
,
0100
0000
0000
0000
0010
0000
0000
0000
0001
0000
0000
0000
1000
0000
0000
0000
0100
0000
0000
0000
0010
0000
0000
0000
0001
0000
0000
0000
0000
0000
0010
0000
0000
0000
0000
0000
0100
0000
0000
0000
0000
0000
1000
0000
0000
0000
0000
0000
0001
0000
0000
0100
0000
0000
0010
0000
0000
0000
0000
0000
1000
0000
0000
0001
0000
0000
0100
0000
0000
0000
0000
0000
0010
0000
0000
0000
0000
0000
1000
0000
0000
0000
0000
0000
0100
0000
0000
0010
0000
0000
0001
0000
0000
0000
0000
0000
,
1000
0010
0100
0000
0001
0000
1000
0000
0100
0010
0001
0000
1000
0010
0100
0000
0001
0000
0010
0000
0100
0000
1000
0001
0100
0000
0010
0000
1000
0000
0100
0000
,
0010
0000
0000
0000
0001
0000
0000
0000
1000
0000
0000
0000
0100
0000
0000
0000
0010
0000
0000
0000
0001
0000
0000
0000
1000
0000
0000
0000
0000
0000
0100
0000
0000
0000
0000
0000
0010
0000
0000
0000
0000
0000
0001
0000
0000
0000
0000
0000
0100
0000
0000
0010
0000
0000
1000
0000
0000
0000
0000
0000
0001
0000
0000
0100
0000
0000
0010
0000
0000
0000
0000
0000
1000
0000
0000
0000
0000
0000
0001
0000
0000
0000
0000
0000
0100
0000
0000
0010
0000
0000
1000
0000
0000
0000
0000
0000
,
0001
0010
0100
0000
1000
0000
0010
0000
0100
0001
1000
0000
0010
0100
0001
0000
1000
0000
0100
0000
0010
0000
0001
1000
0010
0000
0100
0000
0001
0000
1000
0000
,
0100
0000
0000
0000
0010
0000
0000
0000
0001
0000
0000
0000
1000
0000
0000
0000
0100
0000
0000
0000
0010
0000
0000
0000
0001
0000
0000
0000
0000
0000
0010
0000
0000
0000
0000
0000
0100
0000
0000
0000
0000
0000
1000
0000
0000
0000
0000
0000
0001
0000
0000
0100
0000
0000
0010
0000
0000
0000
0000
0000
1000
0000
0000
0001
0000
0000
0100
0000
0000
0000
0000
0000
0010
0000
0000
0000
0000
0000
1000
0000
0000
0000
0000
0000
0100
0000
0000
0010
0000
0000
0001
0000
0000
0000
0000
0000
,
1000
0010
0100
0000
0001
0000
1000
0000
0100
0010
0001
0000
1000
0010
0100
0000
0002
0000
0000
0000
0000
0000
0000
0000
0023
0000
0000
0000
0000
0000
0000
0000
,
0230
0000
0000
0000
0000
0000
0000
0000
1300
0000
0100
0000
0010
0000
0001
0000
0100
0010
1000
0000
0001
0100
0010
0000
1000
0000
0001
0000
0100
0010
1000
0000
,
0001
0010
0100
0000
1000
0000
0010
0000
0100
0001
1000
0000
0010
0100
0001
0000
1000
0000
0100
0000
0010
0000
0001
1000
0010
0000
0100
0000
0001
0000
1000
0000
,
0100
0000
0000
0000
0010
0000
0000
0000
0001
0000
0000
0000
1000
0000
0000
0000
0100
0000
0000
0000
0010
0000
0000
0000
0001
0000
0000
0000
0000
0000
0010
0000
0000
0000
0000
0000
0100
0000
0000
0000
0000
0000
1000
0000
0000
0000
0000
0000
0001
0000
0000
0100
0000
0000
0010
0000
0000
0000
0000
0000
1000
0000
0000
0001
0000
0000
0100
0000
0000
0000
0000
0000
0010
0000
0000
0000
0000
0000
1000
0000
0000
0000
0000
0000
0100
0000
0000
0010
0000
0000
0001
0000
0000
0000
0000
0000
,
1000
0010
0100
0000
0001
0000
1000
0000
0100
0010
0001
0000
1000
0010
0100
0000
0001
0000
0010
0000
0100
0000
1000
0001
0100
0000
0010
0000
1000
0000
0100
0000
,
0010
0000
0000
0000
0001
0000
0000
0000
1000
0000
0000
0000
0100
0000
0000
0000
0010
0000
0000
0000
0001
0000
0000
0000
1000
0000
0000
0000
0000
0000
0100
0000
0000
0000
0000
0000
0010
0000
0000
0000
0000
0000
0001
0000
0000
0000
0000
0000
0100
0000
0000
0010
0000
0000
1000
0000
0000
0000
0000
0000
0001
0000
0000
0100
0000
0000
0010
0000
0000
0000
0000
0000
1000
0000
0000
0000
0000
0000
0001
0000
0000
0000
0000
0000
0100
0000
0000
0010
0000
0000
1000
0000
0000
0000
0000
0000
,
0001
0010
0100
0000
1000
0000
0010
0000
0100
0001
1000
0000
0010
0100
0001
0000
1000
0000
0100
0000
0010
0000
0001
1000
0010
0000
0100
0000
0001
0000
1000
0000
,
0100
0000
0000
0000
0010
0000
0000
0000
0001
0000
0000
0000
1000
0000
0000
0000
0100
0000
0000
0000
0010
0000
0000
0000
0001
0000
0000
0000
0000
0000
0010
0000
0000
0000
0000
0000
0100
0000
0000
0000
0000
0000
1000
0000
0000
0000
0000
0000
0001
0000
0000
0100
0000
0000
0010
0000
0000
0000
0000
0000
1000
0000
0000
0001
0000
0000
0100
0000
0000
0000
0000
0000
0010
0000
0000
0000
0000
0000
1000
0000
0000
0000
0000
0000
0100
0000
0000
0010
0000
0000
0001
0000
0000
0000
0000
0000
,
1000
0010
0100
0000
0001
0000
1000
0000
0100
0010
0001
0000
1000
0010
0100
0000
0001
0000
0000
0000
1000
0000
0000
0000
0100
0000
0000
0000
0010
0000
0000
0000
,
0002
0000
0000
0000
0000
0000
0000
0000
1003
0000
0100
0000
0010
0000
0001
0000
0100
0010
1000
0000
0001
0100
0010
0000
1000
0000
0001
0000
0100
0010
1000
0000
,
0001
0010
0100
0000
1000
0000
0010
0000
0100
0001
1000
0000
0010
0100
0001
0000
1000
0000
0100
0000
0010
0000
0001
1000
0010
0000
0100
0000
0001
0000
1000
0000
,
0100
0000
0000
0000
0010
0000
0000
0000
0001
0000
0000
0000
1000
0000
0000
0000
0100
0000
0000
0000
0010
0000
0000
0000
0001
0000
0000
0000
0000
0000
0010
0000
0000
0000
0000
0000
0100
0000
0000
0000
0000
0000
1000
0000
0000
0000
0000
0000
0001
0000
0000
0100
0000
0000
0010
0000
0000
0000
0000
0000
1000
0000
0000
0001
0000
0000
0100
0000
0000
0000
0000
0000
0010
0000
0000
0000
0000
0000
1000
0000
0000
0000
0000
0000
0100
0000
0000
0010
0000
0000
0001
0000
0000
0000
0000
0000
,
1000
0010
0100
0000
0001
0000
1000
0000
0100
0010
0001
0000
1000
0010
0100
0000
0001
0000
0010
0000
0100
0000
1000
0001
0100
0000
0010
0000
1000
0000
0100
0000
,
0010
0000
0000
0000
0001
0000
0000
0000
1000
0000
0000
0000
0100
0000
0000
0000
0010
0000
0000
0000
0001
0000
0000
0000
1000
0000
0000
0000
0000
0000
0100
0000
0000
0000
0000
0000
0010
0000
0000
0000
0000
0000
0001
0000
0000
0000
0000
0000
0100
0000
0000
0010
0000
0000
1000
0000
0000
0000
0000
0000
0001
0000
0000
0100
0000
0000
0010
0000
0000
0000
0000
0000
1000
0000
0000
0000
0000
0000
0001
0000
0000
0000
0000
0000
0100
0000
0000
0010
0000
0000
1000
0000
0000
0000
0000
0000
,
0001
0010
0100
0000
1000
0000
0010
0000
0100
0001
1000
0000
0010
0100
0001
0000
1000
0000
0100
0000
0010
0000
0001
1000
0010
0000
0100
0000
0001
0000
1000
0000
,
0100
0000
0000
0000
0010
0000
0000
0000
0001
0000
0000
0000
1000
0000
0000
0000
0100
0000
0000
0000
0010
0000
0000
0000
0001
0000
0000
0000
0000
0000
0010
0000
0000
0000
0000
0000
0100
0000
0000
0000
0000
0000
1000
0000
0000
0000
0000
0000
0001
0000
0000
0100
0000
0000
0010
0000
0000
0000
0000
0000
1000
0000
0000
0001
0000
0000
0100
0000
0000
0000
0000
0000
0010
0000
0000
0000
0000
0000
1000
0000
0000
0000
0000
0000
0100
0000
0000
0010
0000
0000
0001
0000
0000
0000
0000
0000
,
1000
0010
0100
0000
0001
0000
1000
0000
0100
0010
0001
0000
1000
0010
0100
0000
0001
0000
0010
0000
0100
0000
1000
0001
0200
0000
0000
0000
0000
0000
0000
0000
,
0320
0000
0000
0000
0000
0000
0000
0000
1030
0000
0100
0000
0010
0000
0001
0000
0100
0010
1000
0000
0001
0100
0010
0000
1000
0000
0001
0000
0100
0010
1000
0000
,
0001
0010
0100
0000
1000
0000
0010
0000
0100
0001
1000
0000
0010
0100
0001
0000
1000
0000
0100
0000
0010
0000
0001
1000
0010
0000
0100
0000
0001
0000
1000
0000
,
0100
0000
0000
0000
0010
0000
0000
0000
0001
0000
0000
0000
1000
0000
0000
0000
0100
0000
0000
0000
0010
0000
0000
0000
0001
0000
0000
0000
0000
0000
0010
0000
0000
0000
0000
0000
0100
0000
0000
0000
0000
0000
1000
0000
0000
0000
0000
0000
0001
0000
0000
0100
0000
0000
0010
0000
0000
0000
0000
0000
1000
0000
0000
0001
0000
0000
0100
0000
0000
0000
0000
0000
0010
0000
0000
0000
0000
0000
1000
0000
0000
0000
0000
0000
0100
0000
0000
0010
0000
0000
0001
0000
0000
0000
0000
0000
,
1000
0010
0100
0000
0001
0000
1000
0000
0100
0010
0001
0000
1000
0010
0100
0000
0001
0000
0010
0000
0100
0000
1000
0001
0100
0000
0010
0000
1000
0000
0100
0000
,
0010
0000
0000
0000
0001
0000
0000
0000
1000
0000
0000
0000
0100
0000
0000
0000
0010
0000
0000
0000
0001
0000
0000
0000
1000
0000
0000
0000
0000
0000
0100
0000
0000
0000
0000
0000
0010
0000
0000
0000
0000
0000
0001
0000
0000
0000
0000
0000
0100
0000
0000
0010
0000
0000
1000
0000
0000
0000
0000
0000
0001
0000
0000
0100
0000
0000
0010
0000
0000
0000
0000
0000
1000
0000
0000
0000
0000
0000
0001
0000
0000
0000
0000
0000
0100
0000
0000
0010
0000
0000
1000
0000
0000
0000
0000
0000
,
0001
0010
0100
0000
1000
0000
0010
0000
0100
0001
1000
0000
0010
0100
0001
0000
1000
0000
0100
0000
0010
0000
0001
1000
0010
0000
0100
0000
0001
0000
1000
0000
,
0100
0000
0000
0000
0010
0000
0000
0000
0001
0000
0000
0000
1000
0000
0000
0000
0100
0000
0000
0000
0010
0000
0000
0000
0001
0000
0000
0000
0000
0000
0010
0000
0000
0000
0000
0000
0100
0000
0000
0000
0000
0000
1000
0000
0000
0000
0000
0000
0001
0000
0000
0100
0000
0000
0010
0000
0000
0000
0000
0000
1000
0000
0000
0001
0000
0000
0100
0000
0000
0000
0000
0000
0010
0000
0000
0000
0000
0000
1000
0000
0000
0000
0000
0000
0100
0000
0000
0010
0000
0000
0001
0000
0000
0000
0000
0000
,
1000
0010
0100
0000
0001
0000
1000
0000
0100
0010
0001
0000
1000
0010
0100
0000
0001
0000
0010
0000
0100
0000
1000
0001
0100
0000
0000
0000
0010
0000
0000
0000
,
0002
0000
0000
0000
0000
0000
0000
0000
1003
0000
0100
0000
0010
0000
0001
0000
0100
0010
1000
0000
0001
0100
0010
0000
1000
0000
0001
0000
0100
0010
1000
0000
,
0001
0010
0100
0000
1000
0000
0010
0000
0100
0001
1000
0000
0010
0100
0001
0000
1000
0000
0100
0000
0010
0000
0001
1000
0010
0000
0100
0000
0001
0000
1000
0000
,
0100
0000
0000
0000
0010
0000
0000
0000
0001
0000
0000
0000
1000
0000
0000
0000
0100
0000
0000
0000
0010
0000
0000
0000
0001
0000
0000
0000
0000
0000
0010
0000
0000
0000
0000
0000
0100
0000
0000
0000
0000
0000
1000
0000
0000
0000
0000
0000
0001
0000
0000
0100
0000
0000
0010
0000
0000
0000
0000
0000
1000
0000
0000
0001
0000
0000
0100
0000
0000
0000
0000
0000
0010
0000
0000
0000
0000
0000
1000
0000
0000
0000
0000
0000
0100
0000
0000
0010
0000
0000
0001
0000
0000
0000
0000
0000
,
1000
0010
0100
0000
0001
0000
1000
0000
0100
0010
0001
0000
1000
0010
0100
0000
0001
0000
0010
0000
0100
0000
1000
0001
0100
0000
0010
0000
1000
0000
0100
0000
,
0010
0000
0000
0000
0001
0000
0000
0000
1000
0000
0000
0000
0100
0000
0000
0000
0010
0000
0000
0000
0001
0000
0000
0000
1000
0000
0000
0000
0000
0000
0100
0000
0000
0000
0000
0000
0010
0000
0000
0000
0000
0000
0001
0000
0000
0000
0000
0000
0100
0000
0000
0010
0000
0000
1000
0000
0000
0000
0000
0000
0001
0000
0000
0100
0000
0000
0010
0000
0000
0000
0000
0000
1000
0000
0000
0000
0000
0000
0001
0000
0000
0000
0000
0000
0100
0000
0000
0010
0000
0000
1000
0000
0000
0000
0000
0000
,
0001
0010
0100
0000
1000
0000
0010
0000
0100
0001
1000
0000
0010
0100
0001
0000
1000
0000
0100
0000
0010
0000
0001
1000
0010
0000
0100
0000
0001
0000
1000
0000
,
0100
0000
0000
0000
0010
0000
0000
0000
0001
0000
0000
0000
1000
0000
0000
0000
0100
0000
0000
0000
0010
0000
0000
0000
0001
0000
0000
0000
0000
0000
0010
0000
0000
0000
0000
0000
0100
0000
0000
0000
0000
0000
1000
0000
0000
0000
0000
0000
0001
0000
0000
0100
0000
0000
0010
0000
0000
0000
0000
0000
1000
0000
0000
0001
0000
0000
0100
0000
0000
0000
0000
0000
0010
0000
0000
0000
0000
0000
1000
0000
0000
0000
0000
0000
0100
0000
0000
0010
0000
0000
0001
0000
0000
0000
0000
0000
,
1000
0010
0100
0000
0001
0000
1000
0000
0100
0010
0001
0000
1000
0010
0100
0000
0001
0000
0010
0000
0100
0000
1000
0001
0100
0000
0010
0000
1000
0000
0001
0000
,
0010
0001
0100
0010
1000
0001
0100
0001
1000
0100
1000
0010
0100
0001
1000
0100
,
0010
0001
1000
0001
0010
0100
1000
0010
0100
0001
0100
0010
1000
0100
1000
0001
,
0100
0010
1000
0100
0010
0001
1000
0010
0100
0010
1000
0001
0010
0001
0100
0010
,
1000
0100
0010
0001
1000
0001
0100
0010
1000
0001
0010
0001
1000
0100
1000
0010
,
0100
0001
1000
0100
0010
0001
0100
0010
1000
0001
0100
0010
1000
0001
0010
0001
,
0100
0010
1000
0100
0010
0001
1000
0001
0100
0010
1000
0001
0010
0001
1000
0010
,
1000
0001
0100
0010
1000
0001
0100
0010
0100
0001
1000
0010
0100
0010
1000
0001
,
1000
0010
0100
0001
1000
0100
0010
0001
0010
0100
1000
0001
0100
0010
1000
0001
,
1000
0100
0010
0000
0001
0010
0100
0000
1000
0000
0010
0000
0100
0000
0001
0000
1000
0010
0100
0000
0001
1000
0010
0000
0100
0000
0001
0000
1000
0100
0010
0000
,
0001
1000
0001
0000
0100
0000
0010
0000
1000
0001
0010
0000
0100
1000
0001
0000
0100
0000
0010
0000
1000
0100
0010
0000
0001
0000
0100
0000
0010
0000
1000
0000
,
0001
0000
0000
0000
0010
0000
0000
0000
0100
0000
0000
0000
1000
0000
0000
0000
0001
0000
0000
0000
0010
0000
0000
0000
0100
0000
0000
0000
0000
0000
1000
0000
0000
0000
0000
0000
0010
0000
0000
0000
0000
0000
0100
0000
0000
0000
0000
0000
0001
0000
0000
1000
0000
0000
0001
0000
0000
0000
0000
0000
0100
0000
0000
0010
0000
0000
1000
0000
0000
0000
0000
0000
0001
0000
0000
0000
0000
0000
0100
0000
0000
0000
0000
0000
0010
0000
0000
1000
0000
0000
0001
0000
0000
0000
0000
0000
,
0100
0010
1000
0000
0001
0000
0100
0000
0010
1000
0001
0000
0100
0000
0010
0000
1000
0000
0001
0000
0010
0000
0100
1000
0001
0000
0100
0000
0010
0000
1000
0000
,
0001
0000
0000
0000
0010
0000
0000
0000
0100
0000
0000
0000
1000
0000
0000
0000
0001
0000
0000
0000
0010
0000
0000
0000
1000
0000
0000
0000
0000
0000
0100
0000
0000
0000
0000
0000
0010
0000
0000
0000
0000
0000
0001
0000
0000
0000
0000
0000
0100
0000
0000
0010
0000
0000
1000
0000
0000
0000
0000
0000
0001
0000
0000
0100
0000
0000
0010
0000
0000
0000
0000
0000
1000
0000
0000
0000
0000
0000
0001
0000
0000
0000
0000
0000
0100
0000
0000
0010
0000
0000
1000
0000
0000
0000
0000
0000
,
0001
0010
0100
0000
1000
0000
0010
0000
0100
0001
1000
0000
0010
0100
0001
0000
1000
0000
0100
0000
0010
0000
0001
1000
0010
0000
0100
0000
0001
0000
1000
0000
,
0100
0000
0000
0000
0010
0000
0000
0000
0001
0000
0000
0000
1000
0000
0000
0000
0100
0000
0000
0000
0010
0000
0000
0000
0001
0000
0000
0000
0000
0000
0010
0000
0000
0000
0000
0000
0100
0000
0000
0000
0000
0000
1000
0000
0000
0000
0000
0000
0001
0000
0000
0100
0000
0000
0010
0000
0000
0000
0000
0000
1000
0000
0000
0001
0000
0000
0100
0000
0000
0000
0000
0000
0010
0000
0000
0000
0000
0000
1000
0000
0000
0000
0000
0000
0100
0000
0000
0010
0000
0000
0001
0000
0000
0000
0000
0000
,
2000
3020
0230
0302
2003
3200
2300
3020
,
0230
0000
0000
0000
0302
0000
0000
0000
2003
0000
0000
0000
3020
0000
0000
0000
0130
0010
1000
0000
0001
0100
0010
0000
1000
0000
0001
0000
0100
0010
1000
0000
,
0001
0010
0100
0000
1000
0000
0010
0000
0100
0001
1000
0000
0010
0100
0001
0000
1000
0000
0100
0000
0010
0000
0001
1000
0010
0000
0100
0000
0001
0000
1000
0000
,
0100
0000
0000
0000
0010
0000
0000
0000
0001
0000
0000
0000
1000
0000
0000
0000
0100
0000
0000
0000
0010
0000
0000
0000
0001
0000
0000
0000
0000
0000
0010
0000
0000
0000
0000
0000
0100
0000
0000
0000
0000
0000
1000
0000
0000
0000
0000
0000
0001
0000
0000
0100
0000
0000
0010
0000
0000
0000
0000
0000
1000
0000
0000
0001
0000
0000
0100
0000
0000
0000
0000
0000
0010
0000
0000
0000
0000
0000
1000
0000
0000
0000
0000
0000
0100
0000
0000
0010
0000
0000
0001
0000
0000
0000
0000
0000
,
1000
0010
0100
0000
0001
0000
1000
0000
0100
0010
0001
0000
1000
0010
0100
0000
0001
0000
0010
0000
0100
0000
1000
0001
0100
0000
0010
0000
1000
0000
0001
0000
,
0100
0000
0000
0000
0010
0000
0000
0000
1000
0000
0000
0000
0001
0000
0000
0000
0100
0000
0000
0000
0010
0000
0000
0000
1000
0000
0000
0000
0000
0000
0100
0000
0000
0000
0000
0000
0010
0000
0000
0000
0000
0000
0001
0000
0000
0000
0000
0000
0100
0000
0000
0010
0000
0000
1000
0000
0000
0000
0000
0000
0001
0000
0000
0100
0000
0000
0010
0000
0000
0000
0000
0000
1000
0000
0000
0000
0000
0000
0001
0000
0000
0000
0000
0000
0100
0000
0000
0010
0000
0000
1000
0000
0000
0000
0000
0000
,
0001
0010
0100
0000
1000
0000
0010
0000
0100
0001
1000
0000
0010
0100
0001
0000
1000
0000
0100
0000
0010
0000
0001
1000
0010
0000
0100
0000
0001
0000
1000
0000
,
0100
0000
0000
0000
0010
0000
0000
0000
0001
0000
0000
0000
1000
0000
0000
0000
0100
0000
0000
0000
0010
0000
0000
0000
0001
0000
0000
0000
0000
0000
0010
0000
0000
0000
0000
0000
0100
0000
0000
0000
0000
0000
1000
0000
0000
0000
0000
0000
0001
0000
0000
0100
0000
0000
0010
0000
0000
0000
0000
0000
1000
0000
0000
0001
0000
0000
0100
0000
0000
0000
0000
0000
0010
0000
0000
0000
0000
0000
1000
0000
0000
0000
0000
0000
0100
0000
0000
0010
0000
0000
0001
0000
0000
0000
0000
0000
,
1000
0010
0100
0000
0001
0000
1000
0000
0100
0010
0001
0000
1000
0010
0100
0000
0001
0000
0010
0000
0100
0000
1000
0001
0100
0000
0010
0000
1000
0000
0100
0000
,
0020
0000
0000
0000
0000
0000
0000
0000
1030
0000
0100
0000
0010
0000
0001
0000
0100
0010
1000
0000
0001
0100
0010
0000
1000
0000
0001
0000
0100
0010
1000
0000
,
0001
0010
0100
0000
1000
0000
0010
0000
0100
0001
1000
0000
0010
0100
0001
0000
1000
0000
0100
0000
0010
0000
0001
1000
0010
0000
0100
0000
0001
0000
1000
0000
,
0100
0000
0000
0000
0010
0000
0000
0000
0001
0000
0000
0000
1000
0000
0000
0000
0100
0000
0000
0000
0010
0000
0000
0000
0001
0000
0000
0000
0000
0000
0010
0000
0000
0000
0000
0000
0100
0000
0000
0000
0000
0000
1000
0000
0000
0000
0000
0000
0001
0000
0000
0100
0000
0000
0010
0000
0000
0000
0000
0000
1000
0000
0000
0001
0000
0000
0100
0000
0000
0000
0000
0000
0010
0000
0000
0000
0000
0000
1000
0000
0000
0000
0000
0000
0100
0000
0000
0010
0000
0000
0001
0000
0000
0000
0000
0000
,
1000
0010
0100
0000
0001
0000
1000
0000
0100
0010
0001
0000
1000
0010
0100
0000
0001
0000
0010
0000
0100
0000
1000
0001
0100
0000
0010
0000
1000
0000
0001
0000
,
0100
0000
0000
0000
0010
0000
0000
0000
1000
0000
0000
0000
0001
0000
0000
0000
0100
0000
0000
0000
0010
0000
0000
0000
1000
0000
0000
0000
0000
0000
0100
0000
0000
0000
0000
0000
0010
0000
0000
0000
0000
0000
0001
0000
0000
0000
0000
0000
0100
0000
0000
0010
0000
0000
1000
0000
0000
0000
0000
0000
0001
0000
0000
0100
0000
0000
0010
0000
0000
0000
0000
0000
1000
0000
0000
0000
0000
0000
0001
0000
0000
0000
0000
0000
0100
0000
0000
0010
0000
0000
1000
0000
0000
0000
0000
0000
,
0001
0010
0100
0000
1000
0000
0010
0000
0100
0001
1000
0000
0010
0100
0001
0000
1000
0000
0100
0000
0010
0000
0001
1000
0010
0000
0100
0000
0001
0000
1000
0000
,
0100
0000
0000
0000
0010
0000
0000
0000
0001
0000
0000
0000
1000
0000
0000
0000
0100
0000
0000
0000
0010
0000
0000
0000
0001
0000
0000
0000
0000
0000
0010
0000
0000
0000
0000
0000
0100
0000
0000
0000
0000
0000
1000
0000
0000
0000
0000
0000
0001
0000
0000
0100
0000
0000
0010
0000
0000
0000
0000
0000
1000
0000
0000
0001
0000
0000
0100
0000
0000
0000
0000
0000
0010
0000
0000
0000
0000
0000
1000
0000
0000
0000
0000
0000
0100
0000
0000
0010
0000
0000
0001
0000
0000
0000
0000
0000
,
1000
0010
0100
0000
0001
0000
1000
0000
0100
0010
0001
0000
1000
0010
0100
0000
0001
0000
0010
0000
0100
0000
1000
0001
0100
0000
0010
0000
1000
0000
0100
0000
,
0010
0000
0000
0000
0001
0000
0000
0000
1000
0000
0000
0000
0100
0000
0000
0000
0010
0000
0000
0000
0001
0000
0000
0000
1000
0000
0000
0000
0000
0000
0100
0000
0000
0000
0000
0000
0010
0000
0000
0000
0000
0000
0001
0000
0000
0000
0000
0000
0100
0000
0000
0010
0000
0000
1000
0000
0000
0000
0000
0000
0001
0000
0000
0100
0000
0000
0010
0000
0000
0000
0000
0000
1000
0000
0000
0000
0000
0000
0001
0000
0000
0000
0000
0000
0100
0000
0000
0010
0000
0000
1000
0000
0000
0000
0000
0000
,
0001
0010
0100
0000
1000
0000
0010
0000
0100
0001
1000
0000
0010
0100
0001
0000
1000
0000
0100
0000
0010
0000
0001
1000
0010
0000
0100
0000
0001
0000
1000
0000
,
0100
0000
0000
0000
0010
0000
0000
0000
0001
0000
0000
0000
1000
0000
0000
0000
0100
0000
0000
0000
0010
0000
0000
0000
0001
0000
0000
0000
0000
0000
0010
0000
0000
0000
0000
0000
0100
0000
0000
0000
0000
0000
1000
0000
0000
0000
0000
0000
0001
0000
0000
0100
0000
0000
0010
0000
0000
0000
0000
0000
1000
0000
0000
0001
0000
0000
0100
0000
0000
0000
0000
0000
0010
0000
0000
0000
0000
0000
1000
0000
0000
0000
0000
0000
0100
0000
0000
0010
0000
0000
0001
0000
0000
0000
0000
0000
,
1000
0010
0100
0000
0001
0000
1000
0000
0100
0010
0001
0000
1000
0010
0100
0000
0001
0000
0010
0000
0100
0000
1000
0001
0100
0000
0010
0000
1000
0000
0001
0000
,
0100
0000
0000
0000
0001
0000
0000
0000
1000
0000
0000
0000
0100
0000
0000
0000
0010
0000
0000
0000
0001
0000
0000
0000
1000
0000
0000
0000
0000
0000
0100
0000
0000
0000
0000
0000
0010
0000
0000
0000
0000
0000
0001
0000
0000
0000
0000
0000
0100
0000
0000
0010
0000
0000
1000
0000
0000
0000
0000
0000
0001
0000
0000
0100
0000
0000
0010
0000
0000
0000
0000
0000
1000
0000
0000
0000
0000
0000
0001
0000
0000
0000
0000
0000
0100
0000
0000
0010
0000
0000
1000
0000
0000
0000
0000
0000
,
0001
0010
0100
0000
1000
0000
0010
0000
0100
0001
1000
0000
0010
0100
0001
0000
1000
0000
0100
0000
0010
0000
0001
1000
0010
0000
0100
0000
0001
0000
1000
0000
,
0100
0000
0000
0000
0010
0000
0000
0000
0001
0000
0000
0000
1000
0000
0000
0000
0100
0000
0000
0000
0010
0000
0000
0000
0001
0000
0000
0000
0000
0000
0010
0000
0000
0000
0000
0000
0100
0000
0000
0000
0000
0000
1000
0000
0000
0000
0000
0000
0001
0000
0000
0100
0000
0000
0010
0000
0000
0000
0000
0000
1000
0000
0000
0001
0000
0000
0100
0000
0000
0000
0000
0000
0010
0000
0000
0000
0000
0000
1000
0000
0000
0000
0000
0000
0100
0000
0000
0010
0000
0000
0001
0000
0000
0000
0000
0000
,
1000
0010
0100
0000
0001
0000
1000
0000
0100
0010
0001
0000
1000
0010
0100
0000
0001
0000
0010
0000
0100
0000
1000
0001
0100
0000
0010
0000
1000
0000
0001
0000
,
1000
0010
0100
0001
1000
0001
0100
0010
,
1000
0001
0010
0001
0100
0010
1000
0100
,
0010
0001
0100
0010
0100
0001
1000
0100
,
0010
0001
1000
0001
0100
0010
1000
0100
,
0001
0010
0100
1000
0010
0100
0001
0010
,
0001
1000
0010
0100
0010
1000
0001
0010
,
0100
1000
0001
0100
0001
1000
0010
0100
,
0001
1000
0100
0010
0001
1000
0001
0100
0010
1000
0001
0100
0001
1000
0100
0010
,
0002
0000
0000
0000
0000
0000
0000
0000
1003
0000
0100
0000
0010
0000
0001
0000
0100
0010
1000
0000
0001
0100
0010
0000
1000
0000
0001
0000
0100
0010
1000
0000
,
0001
0010
0100
0000
1000
0000
0010
0000
0100
0001
1000
0000
0010
0100
0001
0000
1000
0000
0100
0000
0010
0000
0001
1000
0010
0000
0100
0000
0001
0000
1000
0000
,
0100
0000
0000
0000
0010
0000
0000
0000
0001
0000
0000
0000
1000
0000
0000
0000
0100
0000
0000
0000
0010
0000
0000
0000
0001
0000
0000
0000
0000
0000
0010
0000
0000
0000
0000
0000
0100
0000
0000
0000
0000
0000
1000
0000
0000
0000
0000
0000
0001
0000
0000
0100
0000
0000
0010
0000
0000
0000
0000
0000
1000
0000
0000
0001
0000
0000
0100
0000
0000
0000
0000
0000
0010
0000
0000
0000
0000
0000
1000
0000
0000
0000
0000
0000
0100
0000
0000
0010
0000
0000
0001
0000
0000
0000
0000
0000
,
1000
0010
0100
0000
0001
0000
1000
0000
0100
0010
0001
0000
1000
0010
0100
0000
0001
0000
0010
0000
0100
0000
1000
0001
0100
0000
0010
0000
1000
0000
0001
0000
,
0100
0000
0000
0000
0010
0000
0000
0000
1000
0000
0000
0000
0001
0000
0000
0000
0100
0000
0000
0000
0010
0000
0000
0000
1000
0000
0000
0000
0000
0000
0100
0000
0000
0000
0000
0000
0010
0000
0000
0000
0000
0000
0001
0000
0000
0000
0000
0000
0100
0000
0000
0010
0000
0000
1000
0000
0000
0000
0000
0000
0001
0000
0000
0100
0000
0000
0010
0000
0000
0000
0000
0000
1000
0000
0000
0000
0000
0000
0001
0000
0000
0000
0000
0000
0100
0000
0000
0010
0000
0000
1000
0000
0000
0000
0000
0000
,
0001
0010
0100
0000
1000
0000
0010
0000
0100
0001
1000
0000
0010
0100
0001
0000
1000
0000
0100
0000
0010
0000
0001
1000
0010
0000
0100
0000
0001
0000
1000
0000
,
0100
0000
0000
0000
0010
0000
0000
0000
0001
0000
0000
0000
1000
0000
0000
0000
0100
0000
0000
0000
0010
0000
0000
0000
0001
0000
0000
0000
0000
0000
0010
0000
0000
0000
0000
0000
0100
0000
0000
0000
0000
0000
1000
0000
0000
0000
0000
0000
0001
0000
0000
0100
0000
0000
0010
0000
0000
0000
0000
0000
1000
0000
0000
0001
0000
0000
0100
0000
0000
0000
0000
0000
0010
0000
0000
0000
0000
0000
1000
0000
0000
0000
0000
0000
0100
0000
0000
0010
0000
0000
0001
0000
0000
0000
0000
0000
,
1000
0010
0100
0000
0001
0000
1000
0000
0100
0010
0001
0000
1000
0010
0100
0000
0001
0000
0010
0000
0100
0000
1000
0001
0100
0000
0010
0000
1000
0000
0100
0000
,
0020
0000
0000
0000
0000
0000
0000
0000
1030
0000
0100
0000
0010
0000
0001
0000
0100
0010
1000
0000
0001
0100
0010
0000
1000
0000
0001
0000
0100
0010
1000
0000
,
0001
0010
0100
0000
1000
0000
0010
0000
0100
0001
1000
0000
0010
0100
0001
0000
1000
0000
0100
0000
0010
0000
0001
1000
0010
0000
0100
0000
0001
0000
1000
0000
,
0100
0000
0000
0000
0010
0000
0000
0000
0001
0000
0000
0000
1000
0000
0000
0000
0100
0000
0000
0000
0010
0000
0000
0000
0001
0000
0000
0000
0000
0000
0010
0000
0000
0000
0000
0000
0100
0000
0000
0000
0000
0000
1000
0000
0000
0000
0000
0000
0001
0000
0000
0100
0000
0000
0010
0000
0000
0000
0000
0000
1000
0000
0000
0001
0000
0000
0100
0000
0000
0000
0000
0000
0010
0000
0000
0000
0000
0000
1000
0000
0000
0000
0000
0000
0100
0000
0000
0010
0000
0000
0001
0000
0000
0000
0000
0000
,
1000
0010
0100
0000
0001
0000
1000
0000
0100
0010
0001
0000
1000
0010
0100
0000
0001
0000
0010
0000
0100
0000
1000
0001
0100
0000
0010
0000
1000
0000
0001
0000
,
0100
0000
0000
0000
0001
0000
0000
0000
1000
0000
0000
0000
0100
0000
0000
0000
0010
0000
0000
0000
0001
0000
0000
0000
1000
0000
0000
0000
0000
0000
0100
0000
0000
0000
0000
0000
0010
0000
0000
0000
0000
0000
0001
0000
0000
0000
0000
0000
0100
0000
0000
0010
0000
0000
1000
0000
0000
0000
0000
0000
0001
0000
0000
0100
0000
0000
0010
0000
0000
0000
0000
0000
1000
0000
0000
0000
0000
0000
0001
0000
0000
0000
0000
0000
0100
0000
0000
0010
0000
0000
1000
0000
0000
0000
0000
0000
,
0001
0010
0100
0000
1000
0000
0010
0000
0100
0001
1000
0000
0010
0100
0001
0000
1000
0000
0100
0000
0010
0000
0001
1000
0010
0000
0100
0000
0001
0000
1000
0000
,
0100
0000
0000
0000
0010
0000
0000
0000
0001
0000
0000
0000
1000
0000
0000
0000
0100
0000
0000
0000
0010
0000
0000
0000
0001
0000
0000
0000
0000
0000
0010
0000
0000
0000
0000
0000
0100
0000
0000
0000
0000
0000
1000
0000
0000
0000
0000
0000
0001
0000
0000
0100
0000
0000
0010
0000
0000
0000
0000
0000
1000
0000
0000
0001
0000
0000
0100
0000
0000
0000
0000
0000
0010
0000
0000
0000
0000
0000
1000
0000
0000
0000
0000
0000
0100
0000
0000
0010
0000
0000
0001
0000
0000
0000
0000
0000
,
1000
0010
0100
0000
0001
0000
1000
0000
0100
0010
0001
0000
1000
0010
0100
0000
0001
0000
0010
0000
0100
0000
1000
0001
0100
0000
0010
0000
1000
0000
0001
0000
,
0020
0000
0000
0000
0000
0000
0000
0000
1030
0000
0100
0000
0010
0000
0001
0000
0100
0010
1000
0000
0001
0100
0010
0000
1000
0000
0001
0000
0100
0010
1000
0000
,
0001
0010
0100
0000
1000
0000
0010
0000
0100
0001
1000
0000
0010
0100
0001
0000
1000
0000
0100
0000
0010
0000
0001
1000
0010
0000
0100
0000
0001
0000
1000
0000
,
0100
0000
0000
0000
0010
0000
0000
0000
0001
0000
0000
0000
1000
0000
0000
0000
0100
0000
0000
0000
0010
0000
0000
0000
0001
0000
0000
0000
0000
0000
0010
0000
0000
0000
0000
0000
0100
0000
0000
0000
0000
0000
1000
0000
0000
0000
0000
0000
0001
0000
0000
0100
0000
0000
0010
0000
0000
0000
0000
0000
1000
0000
0000
0001
0000
0000
0100
0000
0000
0000
0000
0000
0010
0000
0000
0000
0000
0000
1000
0000
0000
0000
0000
0000
0100
0000
0000
0010
0000
0000
0001
0000
0000
0000
0000
0000
,
1000
0010
0100
0000
0001
0000
1000
0000
0100
0010
0001
0000
1000
0010
0100
0000
0001
0000
0010
0000
0100
0000
1000
0001
0100
0000
0010
0000
1000
0000
0001
0000
,
0100
0000
0000
0000
0010
0000
0000
0000
1000
0000
0000
0000
0001
0000
0000
0000
0100
0000
0000
0000
0010
0000
0000
0000
1000
0000
0000
0000
0000
0000
0100
0000
0000
0000
0000
0000
0010
0000
0000
0000
0000
0000
0001
0000
0000
0000
0000
0000
0100
0000
0000
0010
0000
0000
1000
0000
0000
0000
0000
0000
0001
0000
0000
0100
0000
0000
0010
0000
0000
0000
0000
0000
1000
0000
0000
0000
0000
0000
0001
0000
0000
0000
0000
0000
0100
0000
0000
0010
0000
0000
1000
0000
0000
0000
0000
0000
,
0001
0010
0100
0000
1000
0000
0010
0000
0100
0001
1000
0000
0010
0100
0001
0000
1000
0000
0100
0000
0010
0000
0001
1000
0010
0000
0100
0000
0001
0000
1000
0000
,
0100
0000
0000
0000
0010
0000
0000
0000
0001
0000
0000
0000
1000
0000
0000
0000
0100
0000
0000
0000
0010
0000
0000
0000
0001
0000
0000
0000
0000
0000
0010
0000
0000
0000
0000
0000
0100
0000
0000
0000
0000
0000
1000
0000
0000
0000
0000
0000
0001
0000
0000
0100
0000
0000
0010
0000
0000
0000
0000
0000
1000
0000
0000
0001
0000
0000
0100
0000
0000
0000
0000
0000
0010
0000
0000
0000
0000
0000
1000
0000
0000
0000
0000
0000
0100
0000
0000
0010
0000
0000
0001
0000
0000
0000
0000
0000
,
1000
0010
0100
0000
0001
0000
1000
0000
0100
0010
0001
0000
1000
0010
0100
0000
0001
0000
0010
0000
0100
0000
1000
0001
0100
0000
0010
0000
1000
0000
0100
0000
,
0010
0000
0000
0000
0001
0000
0000
0000
1000
0000
0000
0000
0100
0000
0000
0000
0010
0000
0000
0000
0001
0000
0000
0000
1000
0000
0000
0000
0000
0000
0100
0000
0000
0000
0000
0000
0010
0000
0000
0000
0000
0000
0001
0000
0000
0000
0000
0000
0100
0000
0000
0010
0000
0000
1000
0000
0000
0000
0000
0000
0001
0000
0000
0100
0000
0000
0010
0000
0000
0000
0000
0000
1000
0000
0000
0000
0000
0000
0001
0000
0000
0000
0000
0000
0100
0000
0000
0010
0000
0000
1000
0000
0000
0000
0000
0000
,
0001
0010
0100
0000
1000
0000
0010
0000
0100
0001
1000
0000
0010
0100
0001
0000
1000
0000
0100
0000
0010
0000
0001
1000
0010
0000
0100
0000
0001
0000
1000
0000
,
0100
0000
0000
0000
0010
0000
0000
0000
0001
0000
0000
0000
1000
0000
0000
0000
0100
0000
0000
0000
0010
0000
0000
0000
0001
0000
0000
0000
0000
0000
0010
0000
0000
0000
0000
0000
0100
0000
0000
0000
0000
0000
1000
0000
0000
0000
0000
0000
0001
0000
0000
0100
0000
0000
0010
0000
0000
0000
0000
0000
1000
0000
0000
0001
0000
0000
0100
0000
0000
0000
0000
0000
0010
0000
0000
0000
0000
0000
1000
0000
0000
0000
0000
0000
0100
0000
0000
0010
0000
0000
0001
0000
0000
0000
0000
0000
,
1000
0010
0100
0000
0001
0000
1000
0000
0100
0010
0001
0000
1000
0010
0100
0000
0001
0000
0010
0000
0100
0000
1000
0001
0100
0000
0010
0000
1000
0000
0001
0000
,
0100
0000
0000
0000
0001
0000
0000
0000
1000
0000
0000
0000
0100
0000
0000
0000
0010
0000
0000
0000
0001
0000
0000
0000
1000
0000
0000
0000
0000
0000
0100
0000
0000
0000
0000
0000
0010
0000
0000
0000
0000
0000
0001
0000
0000
0000
0000
0000
0100
0000
0000
0010
0000
0000
1000
0000
0000
0000
0000
0000
0001
0000
0000
0100
0000
0000
0010
0000
0000
0000
0000
0000
1000
0000
0000
0000
0000
0000
0001
0000
0000
0000
0000
0000
0100
0000
0000
0010
0000
0000
1000
0000
0000
0000
0000
0000
,
0001
0010
0100
0000
1000
0000
0010
0000
0100
0001
1000
0000
0010
0100
0001
0000
1000
0000
0100
0000
0010
0000
0001
1000
0010
0000
0100
0000
0001
0000
1000
0000
,
0100
0000
0000
0000
0010
0000
0000
0000
0001
0000
0000
0000
1000
0000
0000
0000
0100
0000
0000
0000
0010
0000
0000
0000
0001
0000
0000
0000
0000
0000
0010
0000
0000
0000
0000
0000
0100
0000
0000
0000
0000
0000
1000
0000
0000
0000
0000
0000
0001
0000
0000
0100
0000
0000
0010
0000
0000
0000
0000
0000
1000
0000
0000
0001
0000
0000
0100
0000
0000
0000
0000
0000
0010
0000
0000
0000
0000
0000
1000
0000
0000
0000
0000
0000
0100
0000
0000
0010
0000
0000
0001
0000
0000
0000
0000
0000
,
1000
0010
0100
0000
0001
0000
1000
0000
0100
0010
0001
0000
1000
0010
0100
0000
0001
0000
0010
0000
0100
0000
1000
0001
0200
0000
0000
0000
0000
0000
0000
0000
,
0300
0000
0000
0000
0000
0000
0000
2020
,
3030
0000
0000
0220
0330
0000
0000
0202
,
0303
0000
0000
0000
0000
0000
0000
2002
,
3003
0000
0000
0000
0000
2020
3030
0220
,
0330
0000
0000
0000
0000
0000
0000
2002
,
3003
0000
0000
0202
0303
0000
0000
0220
,
0330
0000
0000
0000
0000
0000
0000
2200
,
3300
0000
0000
0000
0000
2002
3003
0202
,
0303
0000
0000
0000
0000
0000
0000
0220
,
0330
0000
0000
2200
3300
0000
0000
2002
,
3003
0000
0000
0000
0000
0000
0000
0202
,
0303
0000
0000
0000
0000
0220
0330
2200
,
3300
0000
0000
0000
0000
0000
0000
2002
,
3003
0000
0000
0202
0303
0000
0000
0220
,
0330
0000
0000
0000
0000
0000
0000
2200
,
3311
0000
1100
0110
0011
1001
0101
0110
,
1000
0001
0100
0010
1000
0001
0100
0001
1000
0100
1000
0010
0100
0001
1000
0100
,
0010
0001
1000
0001
0010
0100
1000
0010
0100
0001
0100
0010
1000
0100
1000
0001
,
0100
0010
1000
0100
0010
0001
1000
0010
0100
0010
1000
0001
0010
0001
0100
0010
,
1000
0100
0010
0001
1000
0001
0100
0010
1000
0001
0010
0001
1000
0100
1000
0010
,
0100
0001
1000
0100
0010
0001
0100
0010
1000
0001
0100
0010
1000
0001
0100
0001
,
1000
0100
1000
0010
0100
0001
1000
0100
0010
0001
1000
0001
0010
0100
1000
0010
,
0100
0001
0100
0010
1000
0100
1000
0001
0100
0010
1000
0100
0010
0001
1000
0010
,
0100
0010
1000
0001
0010
0001
0100
0010
1000
0100
0010
0001
1000
0001
0100
0010
,
1000
0001
0010
0001
1000
0100
1000
0010
0100
0001
1000
0100
0010
0001
0100
0010
,
1000
0001
0100
0010
1000
0001
0100
0001
1000
0100
1000
0010
0100
0001
1000
0100
,
0010
0001
1000
0001
0010
0100
1000
0010
0100
0001
0100
0010
1000
0100
1000
0001
,
0100
0010
1000
0100
0010
0001
1000
0010
0100
0010
1000
0001
0010
0001
0100
0010
,
1000
0100
0010
0001
1000
0001
0100
0010
1000
0001
0010
0001
1000
0100
1000
0010
,
0100
0001
1000
0100
0010
0001
0100
0010
1000
0001
0100
0001
1000
0100
1000
0010
,
0100
0001
1000
0100
0010
0001
1000
0001
0100
0010
1000
0001
0010
0001
1000
0100
,
1000
0000
0010
0000
0100
0000
0001
0000
1000
0000
0100
0000
0010
0000
0001
0000
1000
0000
0001
0000
0100
0000
0010
0000
1000
0000
0100
0000
0010
0001
0010
0100
,
1000
0000
0010
0000
0100
0000
0001
0000
1000
0000
0100
0000
0010
0000
0001
0000
0100
0010
1000
0000
0001
0100
0010
0000
1000
0000
0001
0000
0100
0010
1000
0000
,
0001
0010
0100
0000
1000
0000
0010
0000
0100
0001
1000
0000
0010
0100
0001
0000
1000
0000
0100
0000
0010
0000
0001
1000
0010
0000
0100
0000
0001
0000
1000
0000
,
0100
0000
0000
0000
0010
0000
0000
0000
0001
0000
0000
0000
1000
0000
0000
0000
0100
0000
0000
0000
0010
0000
0000
0000
0001
0000
0000
0000
0000
0000
0010
0000
0000
0000
0000
0000
0100
0000
0000
0000
0000
0000
1000
0000
0000
0000
0000
0000
0001
0000
0000
0100
0000
0000
0010
0000
0000
0000
0000
0000
1000
0000
0000
0001
0000
0000
0100
0000
0000
0000
0000
0000
0010
0000
0000
0000
0000
0000
1000
0000
0000
0000
0000
0000
0100
0000
0000
0010
0000
0000
0001
0000
0000
0000
0000
0000
,
1000
0010
0100
0000
0001
0000
1000
0000
0100
0010
0001
0000
1000
0010
0100
0000
0001
0000
0010
0000
0100
0000
1000
0001
0100
0000
0010
0000
1000
0000
0001
0000
,
0100
0000
0000
0000
0010
0000
0000
0000
1000
0000
0000
0000
0001
0000
0000
0000
0100
0000
0000
0000
0010
0000
0000
0000
1000
0000
0000
0000
0000
0000
0100
0000
0000
0000
0000
0000
0010
0000
0000
0000
0000
0000
0001
0000
0000
0000
0000
0000
0100
0000
0000
0010
0000
0000
1000
0000
0000
0000
0000
0000
0001
0000
0000
0100
0000
0000
0010
0000
0000
0000
0000
0000
1000
0000
0000
0000
0000
0000
0001
0000
0000
0000
0000
0000
0100
0000
0000
0010
0000
0000
1000
0000
0000
0000
0000
0000
,
0001
0010
0100
0000
1000
0000
0010
0000
0100
0001
1000
0000
0010
0100
0001
0000
1000
0000
0100
0000
0010
0000
0001
1000
0010
0000
0100
0000
0001
0000
1000
0000
,
0100
0000
0000
0000
0010
0000
0000
0000
0001
0000
0000
0000
1000
0000
0000
0000
0100
0000
0000
0000
0010
0000
0000
0000
0001
0000
0000
0000
0000
0000
0010
0000
0000
0000
0000
0000
0100
0000
0000
0000
0000
0000
1000
0000
0000
0000
0000
0000
0001
0000
0000
0100
0000
0000
0010
0000
0000
0000
0000
0000
1000
0000
0000
0001
0000
0000
0100
0000
0000
0000
0000
0000
0010
0000
0000
0000
0000
0000
1000
0000
0000
0000
0000
0000
0100
0000
0000
0010
0000
0000
0001
0000
0000
0000
0000
0000
,
1000
0010
0100
0000
0001
0000
1000
0000
0100
0010
0001
0000
1000
0010
0100
0000
0001
0000
0010
0000
0100
0000
1000
0001
0100
0000
0010
0000
1000
0000
0100
0000
,
0010
0000
0000
0000
0001
0000
0000
0000
1000
0000
0000
0000
0100
0000
0000
0000
0010
0000
0000
0000
0001
0000
0000
0000
1000
0000
0000
0000
0000
0000
0100
0000
0000
0000
0000
0000
0010
0000
0000
0000
0000
0000
0001
0000
0000
0000
0000
0000
0100
0000
0000
0010
0000
0000
1000
0000
0000
0000
0000
0000
0001
0000
0000
0100
0000
0000
0010
0000
0000
0000
0000
0000
1000
0000
0000
0000
0000
0000
0001
0000
0000
0000
0000
0000
0100
0000
0000
0010
0000
0000
1000
0000
0000
0000
0000
0000
,
0001
0010
0100
0000
1000
0000
0010
0000
0100
0001
1000
0000
0010
0100
0001
0000
1000
0000
0100
0000
0010
0000
0001
1000
0010
0000
0100
0000
0001
0000
1000
0000
,
0100
0000
0000
0000
0010
0000
0000
0000
0001
0000
0000
0000
1000
0000
0000
0000
0100
0000
0000
0000
0010
0000
0000
0000
0001
0000
0000
0000
0000
0000
0010
0000
0000
0000
0000
0000
0100
0000
0000
0000
0000
0000
1000
0000
0000
0000
0000
0000
0001
0000
0000
0100
0000
0000
0010
0000
0000
0000
0000
0000
1000
0000
0000
0001
0000
0000
0100
0000
0000
0000
0000
0000
0010
0000
0000
0000
0000
0000
1000
0000
0000
0000
0000
0000
0100
0000
0000
0010
0000
0000
0001
0000
0000
0000
0000
0000
,
1000
0010
0100
0000
0001
0000
1000
0000
0100
0010
0001
0000
1000
0010
0100
0000
0001
0000
0010
0000
0100
0000
1000
0001
0100
0000
0010
0000
1000
0000
0001
0000
,
0100
0000
0000
0000
0001
0000
0000
0000
1000
0000
0000
0000
0100
0000
0000
0000
0010
0000
0000
0000
0001
0000
0000
0000
1000
0000
0000
0000
0000
0000
0100
0000
0000
0000
0000
0000
0010
0000
0000
0000
0000
0000
0001
0000
0000
0000
0000
0000
0100
0000
0000
0010
0000
0000
1000
0000
0000
0000
0000
0000
0001
0000
0000
0100
0000
0000
0010
0000
0000
0000
0000
0000
1000
0000
0000
0000
0000
0000
0001
0000
0000
0000
0000
0000
0100
0000
0000
0010
0000
0000
1000
0000
0000
0000
0000
0000
,
0001
0010
0100
0000
1000
0000
0010
0000
0100
0001
1000
0000
0010
0100
0001
0000
1000
0000
0100
0000
0010
0000
0001
1000
0010
0000
0100
0000
0001
0000
1000
0000
,
0100
0000
0000
0000
0010
0000
0000
0000
0001
0000
0000
0000
1000
0000
0000
0000
0100
0000
0000
0000
0010
0000
0000
0000
0001
0000
0000
0000
0000
0000
0010
0000
0000
0000
0000
0000
0100
0000
0000
0000
0000
0000
1000
0000
0000
0000
0000
0000
0001
0000
0000
0100
0000
0000
0010
0000
0000
0000
0000
0000
1000
0000
0000
0001
0000
0000
0100
0000
0000
0000
0000
0000
0010
0000
0000
0000
0000
0000
1000
0000
0000
0000
0000
0000
0100
0000
0000
0010
0000
0000
0001
0000
0000
0000
0000
0000
,
1000
0010
0100
0000
0001
0000
1000
0000
0100
0010
0001
0000
1000
0010
0100
0000
0001
0000
0010
0000
0100
0000
1000
0001
0100
0000
0010
0000
1000
0000
0001
0000
,
0200
0000
0000
0000
0000
0000
0000
0000
1300
0000
0100
0000
0010
0000
0001
0000
0100
0010
1000
0000
0001
0100
0010
0000
1000
0000
0001
0000
0100
0010
1000
0000
,
0001
0010
0100
0000
1000
0000
0010
0000
0100
0001
1000
0000
0010
0100
0001
0000
1000
0000
0100
0000
0010
0000
0001
1000
0010
0000
0100
0000
0001
0000
1000
0000
,
0100
0000
0000
0000
0010
0000
0000
0000
0001
0000
0000
0000
1000
0000
0000
0000
0100
0000
0000
0000
0010
0000
0000
0000
0001
0000
0000
0000
0000
0000
0010
0000
0000
0000
0000
0000
0100
0000
0000
0000
0000
0000
1000
0000
0000
0000
0000
0000
0001
0000
0000
0100
0000
0000
0010
0000
0000
0000
0000
0000
1000
0000
0000
0001
0000
0000
0100
0000
0000
0000
0000
0000
0010
0000
0000
0000
0000
0000
1000
0000
0000
0000
0000
0000
0100
0000
0000
0010
0000
0000
0001
0000
0000
0000
0000
0000
,
1000
0010
0100
0000
0001
0000
1000
0000
0100
0010
0001
0000
1000
0010
0100
0000
0001
0000
0010
0000
0100
0000
1000
0001
0100
0000
0010
0000
1000
0000
0001
0000
,
0100
0000
0000
0000
0010
0000
0000
0000
1000
0000
0000
0000
0001
0000
0000
0000
0100
0000
0000
0000
0010
0000
0000
0000
1000
0000
0000
0000
0000
0000
0100
0000
0000
0000
0000
0000
0010
0000
0000
0000
0000
0000
0001
0000
0000
0000
0000
0000
0100
0000
0000
0010
0000
0000
1000
0000
0000
0000
0000
0000
0001
0000
0000
0100
0000
0000
0010
0000
0000
0000
0000
0000
1000
0000
0000
0000
0000
0000
0001
0000
0000
0000
0000
0000
0100
0000
0000
0010
0000
0000
1000
0000
0000
0000
0000
0000
,
0001
0010
0100
0000
1000
0000
0010
0000
0100
0001
1000
0000
0010
0100
0001
0000
1000
0000
0100
0000
0010
0000
0001
1000
0010
0000
0100
0000
0001
0000
1000
0000
,
0100
0000
0000
0000
0010
0000
0000
0000
0001
0000
0000
0000
1000
0000
0000
0000
0100
0000
0000
0000
0010
0000
0000
0000
0001
0000
0000
0000
0000
0000
0010
0000
0000
0000
0000
0000
0100
0000
0000
0000
0000
0000
1000
0000
0000
0000
0000
0000
0001
0000
0000
0100
0000
0000
0010
0000
0000
0000
0000
0000
1000
0000
0000
0001
0000
0000
0100
0000
0000
0000
0000
0000
0010
0000
0000
0000
0000
0000
1000
0000
0000
0000
0000
0000
0100
0000
0000
0010
0000
0000
0001
0000
0000
0000
0000
0000
,
1000
0010
0100
0000
0001
0000
1000
0000
0100
0010
0001
0000
1000
0010
0100
0000
0001
0000
0010
0000
0100
0000
1000
0001
0100
0000
0010
0000
1000
0000
0100
0000
,
0002
0000
0000
0000
0000
0000
0000
0000
1003
0000
0100
0000
0010
0000
0001
0000
0100
0010
1000
0000
0001
0100
0010
0000
1000
0000
0001
0000
0100
0010
1000
0000
,
0001
0010
0100
0000
1000
0000
0010
0000
0100
0001
1000
0000
0010
0100
0001
0000
1000
0000
0100
0000
0010
0000
0001
1000
0010
0000
0100
0000
0001
0000
1000
0000
,
0100
0000
0000
0000
0010
0000
0000
0000
0001
0000
0000
0000
1000
0000
0000
0000
0100
0000
0000
0000
0010
0000
0000
0000
0001
0000
0000
0000
0000
0000
0010
0000
0000
0000
0000
0000
0100
0000
0000
0000
0000
0000
1000
0000
0000
0000
0000
0000
0001
0000
0000
0100
0000
0000
0010
0000
0000
0000
0000
0000
1000
0000
0000
0001
0000
0000
0100
0000
0000
0000
0000
0000
0010
0000
0000
0000
0000
0000
1000
0000
0000
0000
0000
0000
0100
0000
0000
0010
0000
0000
0001
0000
0000
0000
0000
0000
,
1000
0010
0100
0000
0001
0000
1000
0000
0100
0010
0001
0000
1000
0010
0100
0000
0001
0000
0010
0000
0100
0000
1000
0001
0100
0000
0010
0000
1000
0000
0001
0000
,
0100
0000
0000
0000
0001
0000
0000
0000
1000
0000
0000
0000
0100
0000
0000
0000
0010
0000
0000
0000
0001
0000
0000
0000
1000
0000
0000
0000
0000
0000
0100
0000
0000
0000
0000
0000
0010
0000
0000
0000
0000
0000
0001
0000
0000
0000
0000
0000
0100
0000
0000
0010
0000
0000
1000
0000
0000
0000
0000
0000
0001
0000
0000
0100
0000
0000
0010
0000
0000
0000
0000
0000
1000
0000
0000
0000
0000
0000
0001
0000
0000
0000
0000
0000
0100
0000
0000
0010
0000
0000
1000
0000
0000
0000
0000
0000
,
0001
0010
0100
0000
1000
0000
0010
0000
0100
0001
1000
0000
0010
0100
0001
0000
1000
0000
0100
0000
0010
0000
0001
1000
0010
0000
0100
0000
0001
0000
1000
0000
,
0100
0000
0000
0000
0010
0000
0000
0000
0001
0000
0000
0000
1000
0000
0000
0000
0100
0000
0000
0000
0010
0000
0000
0000
0001
0000
0000
0000
0000
0000
0010
0000
0000
0000
0000
0000
0100
0000
0000
0000
0000
0000
1000
0000
0000
0000
0000
0000
0001
0000
0000
0100
0000
0000
0010
0000
0000
0000
0000
0000
1000
0000
0000
0001
0000
0000
0100
0000
0000
0000
0000
0000
0010
0000
0000
0000
0000
0000
1000
0000
0000
0000
0000
0000
0100
0000
0000
0010
0000
0000
0001
0000
0000
0000
0000
0000
,
1000
0010
0100
0000
0001
0000
1000
0000
0100
0010
0001
0000
1000
0010
0100
0000
0001
0000
0010
0000
0100
0000
1000
0001
0200
0000
0000
0000
0000
0000
0000
0000
,
1300
0000
0100
0000
0010
0000
0001
0000
0100
0010
1000
0000
0001
0100
0010
0000
1000
0000
0001
0000
0100
0010
1000
0000
0001
0010
0100
0000
1000
0000
0010
0000
,
0100
0000
0000
0001
0000
0000
1000
0000
0000
0000
0000
0000
0010
0000
0000
0100
0000
0000
0001
0000
0000
0000
0000
0000
1000
0000
0000
0000
0000
0000
0100
0000
0000
0000
0000
0000
0010
0000
0000
0000
0000
0000
0001
0000
0000
1000
0000
0000
0010
0000
0000
0000
0000
0000
0100
0000
0000
0000
0000
0000
0001
0000
0000
0000
0000
0000
1000
0000
0000
0000
0000
0000
0100
0000
0000
0000
0010
0000
0000
0000
0001
0000
0000
0000
1000
0000
0000
0000
0100
0000
0000
0000
0010
0000
0000
0000
,
0001
0000
0010
0000
0100
0000
1000
0000
0001
0100
0010
0000
1000
0001
0100
0000
0010
0000
1000
0000
0100
0010
0001
0000
1000
0010
0100
0000
0001
0000
1000
0000
,
0100
0000
0000
0010
0000
0000
0001
0000
0000
0000
0000
0000
1000
0000
0000
0010
0000
0000
0100
0000
0000
0000
0000
0000
0001
0000
0000
0000
0000
0000
0010
0000
0000
0000
0000
0000
0100
0000
0000
0000
0000
0000
1000
0000
0000
0001
0000
0000
0100
0000
0000
0000
0000
0000
0010
0000
0000
0000
0000
0000
1000
0000
0000
0000
0000
0000
0001
0000
0000
0000
0000
0000
0100
0000
0000
0000
0010
0000
0000
0000
1000
0000
0000
0000
0001
0000
0000
0000
0100
0000
0000
0000
0010
0000
0000
0000
,
1000
0000
0100
0000
0010
0000
0001
0000
0100
0010
1000
0000
0001
0100
0010
0000
1000
0000
0001
0000
0100
0010
1000
0000
0001
0010
0100
0000
1000
0000
0010
0000
,
0100
0000
0000
0001
0000
0000
1000
0000
0000
0000
0000
0000
0010
0000
0000
0100
0000
0000
0001
0000
0000
0000
0000
0000
1000
0000
0000
0000
0000
0000
0100
0000
0000
0000
0000
0000
0010
0000
0000
0000
0000
0000
0001
0000
0000
1000
0000
0000
0010
0000
0000
0000
0000
0000
0100
0000
0000
0000
0000
0000
0001
0000
0000
0000
0000
0000
1000
0000
0000
0000
0000
0000
0100
0000
0000
0000
0010
0000
0000
0000
0001
0000
0000
0000
1000
0000
0000
0000
0100
0000
0000
0000
0010
0000
0000
0000
,
0001
0000
0010
0000
0100
0000
1000
0000
0001
0100
0010
0000
1000
0001
0100
0000
0010
0000
1000
0000
0100
0010
0001
0000
1000
0010
0100
0000
0001
0000
1000
0000
,
0100
0010
0001
0000
1000
0010
0100
0000
0001
0000
0010
0000
0100
0000
1000
0001
0100
0000
0010
0000
1000
0000
0100
0000
0002
0000
0000
0000
0000
0000
0000
0000
,
1003
0000
0100
0000
0010
0000
0001
0000
0100
0010
1000
0000
0001
0100
0010
0000
1000
0000
0001
0000
0100
0010
1000
0000
0001
0010
0100
0000
1000
0000
0010
0000
,
0100
0000
0000
0001
0000
0000
1000
0000
0000
0000
0000
0000
0010
0000
0000
0100
0000
0000
0001
0000
0000
0000
0000
0000
1000
0000
0000
0000
0000
0000
0100
0000
0000
0000
0000
0000
0010
0000
0000
0000
0000
0000
0001
0000
0000
1000
0000
0000
0010
0000
0000
0000
0000
0000
0100
0000
0000
0000
0000
0000
0001
0000
0000
0000
0000
0000
1000
0000
0000
0000
0000
0000
0100
0000
0000
0000
0010
0000
0000
0000
0001
0000
0000
0000
1000
0000
0000
0000
0100
0000
0000
0000
0010
0000
0000
0000
,
0001
0000
0010
0000
0100
0000
1000
0000
0001
0100
0010
0000
1000
0001
0100
0000
0010
0000
1000
0000
0100
0010
0001
0000
1000
0010
0100
0000
0001
0000
1000
0000
,
0100
0000
0000
0010
0000
0000
0001
0000
0000
0000
0000
0000
1000
0000
0000
0010
0000
0000
0100
0000
0000
0000
0000
0000
0001
0000
0000
0000
0000
0000
0010
0000
0000
0000
0000
0000
0100
0000
0000
0000
0000
0000
1000
0000
0000
0001
0000
0000
0100
0000
0000
0000
0000
0000
0010
0000
0000
0000
0000
0000
1000
0000
0000
0000
0000
0000
0001
0000
0000
0000
0000
0000
0100
0000
0000
0000
0001
0000
0000
0000
1000
0000
0000
0000
0100
0000
0000
0000
0010
0000
0000
0000
0001
0000
0000
0000
,
1000
0000
0100
0000
0010
0000
0001
0000
0100
0010
1000
0000
0001
0100
0010
0000
1000
0000
0001
0000
0100
0010
1000
0000
0001
0010
0100
0000
1000
0000
0010
0000
,
0100
0000
0000
0001
0000
0000
1000
0000
0000
0000
0000
0000
0010
0000
0000
0100
0000
0000
0001
0000
0000
0000
0000
0000
1000
0000
0000
0000
0000
0000
0100
0000
0000
0000
0000
0000
0010
0000
0000
0000
0000
0000
0001
0000
0000
1000
0000
0000
0010
0000
0000
0000
0000
0000
0100
0000
0000
0000
0000
0000
0001
0000
0000
0000
0000
0000
1000
0000
0000
0000
0000
0000
0100
0000
0000
0000
0010
0000
0000
0000
0001
0000
0000
0000
1000
0000
0000
0000
0100
0000
0000
0000
0010
0000
0000
0000
,
0001
0000
0010
0000
0100
0000
1000
0000
0001
0100
0010
0000
1000
0001
0100
0000
0010
0000
1000
0000
0100
0010
0001
0000
1000
0010
0100
0000
0001
0000
1000
0000
,
0100
0010
0001
0000
1000
0010
0100
0000
0001
0000
0010
0000
0100
0000
1000
0001
0200
0000
0000
0000
0000
0000
0000
0000
1300
0000
0100
0000
0010
0000
0001
0000
,
0100
0010
1000
0000
0001
0100
0010
0000
1000
0000
0001
0000
0100
0010
1000
0000
0001
0010
0100
0000
1000
0000
0010
0000
0100
0001
1000
0000
0010
0100
0001
0000
,
1000
0000
0000
0000
0000
0000
0100
0000
0000
0000
0000
0000
0010
0000
0000
0000
0000
0000
0001
0000
0000
1000
0000
0000
0010
0000
0000
0000
0000
0000
0100
0000
0000
0000
0000
0000
0001
0000
0000
0000
0000
0000
1000
0000
0000
0000
0000
0000
0100
0000
0000
0000
0010
0000
0000
0000
0001
0000
0000
0000
1000
0000
0000
0000
0100
0000
0000
0000
0010
0000
0000
0000
0001
0000
0000
0000
0000
0000
0010
0000
0000
0000
0000
0000
0100
0000
0000
0000
0000
0000
1000
0000
0000
0000
0000
0000
,
0001
0100
0010
0000
1000
0001
0100
0000
0010
0000
1000
0000
0100
0010
0001
0000
1000
0010
0100
0000
0001
0000
1000
0000
0100
0010
0001
0000
1000
0010
0100
0000
,
0001
0000
0000
0000
0000
0000
0010
0000
0000
0000
0000
0000
0100
0000
0000
0000
0000
0000
1000
0000
0000
0001
0000
0000
0100
0000
0000
0000
0000
0000
0010
0000
0000
0000
0000
0000
1000
0000
0000
0000
0000
0000
0001
0000
0000
0000
0000
0000
0100
0000
0000
0000
0010
0000
0000
0000
1000
0000
0000
0000
0001
0000
0000
0000
0100
0000
0000
0000
0010
0000
0000
0000
1000
0000
0000
0000
0000
0000
0100
0000
0000
0000
0000
0000
0010
0000
0000
0000
0000
0000
0001
0000
0000
0000
0000
0000
,
0100
0010
1000
0000
0001
0100
0010
0000
1000
0000
0001
0000
0100
0010
1000
0000
0001
0010
0100
0000
1000
0000
0010
0000
0100
0001
1000
0000
0010
0100
0001
0000
,
1000
0000
0000
0000
0000
0000
0100
0000
0000
0000
0000
0000
0010
0000
0000
0000
0000
0000
0001
0000
0000
1000
0000
0000
0010
0000
0000
0000
0000
0000
0100
0000
0000
0000
0000
0000
0001
0000
0000
0000
0000
0000
1000
0000
0000
0000
0000
0000
0100
0000
0000
0000
0010
0000
0000
0000
0001
0000
0000
0000
1000
0000
0000
0000
0100
0000
0000
0000
0010
0000
0000
0000
0001
0000
0000
0000
0000
0000
0010
0000
0000
0000
0000
0000
0100
0000
0000
0000
0000
0000
1000
0000
0000
0000
0000
0000
,
0001
0100
0010
0000
1000
0001
0100
0000
0010
0000
1000
0000
0100
0010
0001
0000
1000
0010
0100
0000
0001
0000
1000
0000
0100
0010
0001
0000
1000
0010
0100
0000
,
0001
0000
0010
0000
0100
0000
1000
0001
0100
0000
0010
0000
1000
0000
0100
0000
0002
0000
0000
0000
0000
0000
0000
0000
1003
0000
0100
0000
0010
0000
0001
0000
,
0100
0010
1000
0000
0001
0100
0010
0000
1000
0000
0001
0000
0100
0010
1000
0000
0001
0010
0100
0000
1000
0000
0010
0000
0100
0001
1000
0000
0010
0100
0001
0000
,
1000
0000
0000
0000
0000
0000
0100
0000
0000
0000
0000
0000
0010
0000
0000
0000
0000
0000
0001
0000
0000
1000
0000
0000
0010
0000
0000
0000
0000
0000
0100
0000
0000
0000
0000
0000
0001
0000
0000
0000
0000
0000
1000
0000
0000
0000
0000
0000
0100
0000
0000
0000
0010
0000
0000
0000
0001
0000
0000
0000
1000
0000
0000
0000
0100
0000
0000
0000
0010
0000
0000
0000
0001
0000
0000
0000
0000
0000
0010
0000
0000
0000
0000
0000
0100
0000
0000
0000
0000
0000
1000
0000
0000
0000
0000
0000
,
0001
0100
0010
0000
1000
0001
0100
0000
0010
0000
1000
0000
0100
0010
0001
0000
1000
0010
0100
0000
0001
0000
1000
0000
0100
0010
0001
0000
1000
0010
0100
0000
,
0001
0000
0000
0000
0000
0000
0010
0000
0000
0000
0000
0000
0100
0000
0000
0000
0000
0000
1000
0000
0000
0001
0000
0000
0100
0000
0000
0000
0000
0000
0010
0000
0000
0000
0000
0000
1000
0000
0000
0000
0000
0000
0001
0000
0000
0000
0000
0000
0100
0000
0000
0000
0001
0000
0000
0000
1000
0000
0000
0000
0100
0000
0000
0000
0010
0000
0000
0000
0001
0000
0000
0000
1000
0000
0000
0000
0000
0000
0100
0000
0000
0000
0000
0000
0010
0000
0000
0000
0000
0000
0001
0000
0000
0000
0000
0000
,
0100
0010
1000
0000
0001
0100
0010
0000
1000
0000
0001
0000
0100
0010
1000
0000
0001
0010
0100
0000
1000
0000
0010
0000
0100
0001
1000
0000
0010
0100
0001
0000
,
1000
0000
0000
0000
0000
0000
0100
0000
0000
0000
0000
0000
0010
0000
0000
0000
0000
0000
0001
0000
0000
1000
0000
0000
0010
0000
0000
0000
0000
0000
0100
0000
0000
0000
0000
0000
0001
0000
0000
0000
0000
0000
1000
0000
0000
0000
0000
0000
0100
0000
0000
0000
0010
0000
0000
0000
0001
0000
0000
0000
1000
0000
0000
0000
0100
0000
0000
0000
0010
0000
0000
0000
0001
0000
0000
0000
0000
0000
0010
0000
0000
0000
0000
0000
0100
0000
0000
0000
0000
0000
1000
0000
0000
0000
0000
0000
,
0001
0100
0010
0000
1000
0001
0100
0000
0010
0000
1000
0000
0100
0010
0001
0000
1000
0010
0100
0000
0001
0000
1000
0000
0100
0010
0001
0000
1000
0010
0100
0000
,
0001
0000
0010
0000
0100
0000
1000
0001
0010
0000
0100
0010
0001
0000
1000
0010
0100
0000
0001
0000
0010
0000
0100
0000
2000
0000
0000
0000
0000
0000
0000
0000
,
0000
3002
0000
0000
0000
0000
0000
0000
,
0000
0000
0000
0000
,
2003
0000
0000
0000
,
3020
0000
0000
0000
0000
0000
2030
3002
,
0000
0000
0000
0000
,
0203
0000
0000
0000
,
0302
0000
0000
0000
,
2003
0000
0000
0000
0000
0000
0000
0000
0000
0000
0000
0000
0000
0000
0000
0000
0000
0000
0000
0000
0000
0000
0000
0000
0000
0000
0000
0000
0000
0000
0000
0000
0000
0000
0000
0000
0000
0000
0000
0000
0000
0000
0000
0000
0000
0000
0000
0000
0000
0000
0000
0000
0000
0000
0000
0000
0000
0000
0000
0000
3001
0000
0000
0100
0000
0000
0010
0000
0000
1000
0000
0000
0100
0000
0000
0010
0000
0000
0001
0000
0000
0100
0000
0000
0010
0000
1000
0000
0100
0000
0010
0000
0001
0000
1000
0000
,
0001
0000
0100
0000
0010
0000
1000
0000
0100
0000
0010
0000
0001
0000
0000
0100
0000
0000
0010
0000
0000
1000
0000
0000
0001
0000
0000
0100
0000
0000
0001
0000
0000
1000
0000
0000
0010
0000
0100
0000
0001
0000
1000
0000
0100
0000
0010
0000
0001
0000
1000
0000
0001
0000
0100
0000
0010
0000
1000
0000
0002
0000
0000
0000
0000
0000
0000
0000
0000
0000
0000
0000
0000
0000
0000
0000
0000
0000
0000
0000
0000
0000
0000
0000
0000
0000
0000
0000
0000
0000
0000
0000
0000
0000
0000
0000
,
0000
0000
0000
0000
0000
0000
0000
2003
,
0000
0000
0000
0000
,
3020
0000
0000
0000
0000
0000
2030
3002
,
0000
0000
0000
0000
0000
0000
0000
0203
,
0000
0000
0000
0000
0000
0000
0000
0302
,
0000
0000
0000
0000
0000
0000
0000
2003
,
0000
0000
0000
0000
0000
0000
0000
3220
,
0000
0000
0000
0000
,
0000
0000
0000
0000
,
0000
0000
0000
0000
,
0000
0000
0000
0000
,
0000
0000
0000
0000
,
0330
0000
0000
0000
,
0000
0000
0000
0000
;
