#TITLE:Genesis Beyond the Beginning;
#SUBTITLE:Ys Origin (2006);
#ARTIST:Yukihiro Jindo;
#TITLETRANSLIT:;
#SUBTITLETRANSLIT:;
#ARTISTTRANSLIT:;
#CREDIT:;
#BANNER:Genesis Beyond the Beginning.jpg;
#BACKGROUND:Genesis Beyond the Beginning-bg.jpg;
#LYRICSPATH:;
#CDTITLE:!HSTTitle.png;
#MUSIC:Genesis Beyond the Beginning.mp3;
#OFFSET:0.835;
#SAMPLESTART:38.596;
#SAMPLELENGTH:12.000;
#SELECTABLE:YES;
#BPMS:0.000=164.040;
#STOPS:;
#BGCHANGES:;
// cache tags:
#FIRSTBEAT:4.000;
#LASTBEAT:371.333;
#SONGFILENAME:Songs/VGMP 3/Genesis Beyond the Beginning (HST)/Genesis Beyond the Beginning.sm;
#HASMUSIC:1;
#HASBANNER:1;
#MUSICLENGTH:141.609;
// end cache tags

//---------------dance-single - ----------------
#NOTES:
     dance-single:
     :
     Challenge:
     14:
     1.000,1.000,1.000,0.360,0.879,849.000,297.000,51.000,0.000,73.000:
0000
0000
0000
0000
,
1000
0000
0000
0000
0000
0100
1000
0100
,
0001
0000
0000
0010
0000
0000
0100
0000
,
1000
0000
0000
0000
0000
0000
0000
0000
0000
0000
0000
0000
0000
0000
0000
0000
0000
0000
0000
0000
0000
1000
0000
0000
0000
0010
0000
0000
0000
0100
0000
0000
,
0000
0001
0000
0000
0000
0000
0000
0000
0000
0000
0000
0000
0010
0000
0000
0000
0000
0000
0000
0000
0000
0000
0000
0000
0100
0000
0000
0000
0000
0000
0000
0000
,
0000
1000
0000
0000
0000
0000
0000
0000
0000
0000
0000
0000
0000
0000
0000
0000
0000
0000
0000
0000
0000
1000
0000
0000
0000
0100
0000
0000
0000
1000
0000
0000
,
0000
0001
0000
0000
0000
0000
0000
0000
0000
0000
0000
0000
0010
0000
0000
0000
0000
0000
0000
0000
1000
0000
0000
0000
0101
0000
0000
0000
1000
0000
0000
0000
,
1010
0000
1100
0000
,
1101
0000
0000
0000
0000
0000
0000
0000
0000
0000
0000
0000
0100
0000
0000
0000
0000
0000
0000
0000
0000
0000
0000
0000
1100
0000
0000
0001
0000
0000
0100
0000
0000
0010
1000
0000
0001
0000
0000
0100
0000
0000
0010
0000
0000
0000
0000
0000
,
1102
0000
0000
0000
0000
0000
1003
0001
,
0010
0000
0000
0000
0000
0000
0200
0000
0000
0000
0000
0000
0000
0000
0000
0000
0000
0000
0000
0000
0000
0000
0000
0000
0000
0000
0000
0000
0000
0000
0000
0000
0000
0000
0000
0000
0300
0000
0000
0000
1000
0000
0000
0000
0000
0001
0000
0000
,
0110
1000
0001
0010
0100
0010
1000
0010
0001
0010
0100
0010
,
1002
0000
0000
0000
0000
0000
0000
0000
0000
0000
0000
0000
0000
0000
0000
0000
0000
0000
0000
0000
0000
0000
0000
0000
0000
0000
0000
0000
0000
0000
0000
0000
0000
0000
0000
0000
0000
0000
0000
0000
0000
0000
0000
0000
0000
0000
0000
0000
0000
0000
0000
0000
0000
0000
0000
0000
0000
0000
0000
0000
0000
0000
0000
0000
0000
0000
0000
0000
0000
0000
0000
0000
0000
0000
0000
0000
0000
0000
0000
0000
0023
0000
0000
0000
0000
0000
0000
0000
0000
0000
0000
0000
0000
0000
0000
0000
0000
0000
0000
0000
0000
0000
0000
0000
0000
0000
0000
0000
0000
0000
0000
0000
0000
0000
0000
0000
0000
0000
0000
0000
1000
0000
0000
0000
0000
0000
0000
0000
0000
0000
0000
0000
0000
0000
0000
0000
0000
0000
0000
0000
0000
0000
0000
0000
0001
0000
0000
0000
0000
0000
0000
0000
0000
0000
0000
0000
0000
0000
0000
0000
0130
0000
0000
0000
0000
0000
0000
0000
1000
0000
0000
0000
0000
0000
0000
0000
0010
0000
0000
0000
0000
0000
0000
0000
0000
0000
0100
0000
0000
0000
0000
0000
,
1001
0100
0010
0001
1000
0010
0100
0001
0010
0100
0010
1000
0002
0000
1003
0001
0010
0100
0010
1000
0001
0100
0001
0010
,
0100
0000
1000
0000
0010
0000
0100
0000
0001
0000
0010
0000
0100
0000
0010
0000
1000
0000
0002
0000
0000
0000
0000
0000
0000
0000
0000
0000
0000
0000
0000
0000
0000
0000
0000
0000
0000
0000
0000
0000
1003
0000
0000
0000
0000
0100
0000
0000
,
0011
0000
0100
0000
1000
0000
0100
0000
0010
0000
1000
0000
0010
0000
0100
0000
0001
0000
0010
0000
0100
1000
0010
0001
0200
0000
0000
0000
0000
0000
0300
0000
1000
0000
0001
0010
0100
0000
1000
0000
0010
0000
0100
0000
0010
0000
0000
0000
,
0102
0000
0000
0000
0100
0000
0000
0000
0113
0001
1000
0001
1000
0001
1000
0001
,
1110
1100
0001
0110
0001
1100
0001
1010
,
0100
0101
0010
1001
0001
1100
0010
0110
,
0011
1100
0100
0011
1000
0110
0010
0101
,
1010
0000
0110
0000
0001
0000
1010
0000
0001
0000
0110
0000
1000
0010
1101
0000
,
1010
0110
1000
0101
0100
1010
0100
1001
,
0100
1010
0100
0011
0100
0101
1000
0110
,
1010
1100
1000
0101
0100
1010
0100
1001
,
0011
0000
0100
1000
0000
0000
0110
0000
0000
0000
0000
0000
0011
0000
0100
1000
0000
0000
0011
0000
0000
0100
0000
0000
1001
0000
0000
0010
0000
0000
0101
0000
0000
1000
0000
0000
0110
0000
0000
0001
0000
0000
1100
0000
0000
0010
0000
0000
,
2202
0000
0000
0000
0310
0000
3100
0003
,
0001
0000
0100
0010
0000
0000
1000
0000
0000
0001
0000
0000
0100
0000
0000
0010
0000
0000
1000
0000
0001
0100
0000
0000
0010
0000
0000
1000
0000
0000
0001
0000
0000
0100
0000
0000
0010
0000
1000
0001
0000
0000
0100
0000
0000
0010
0000
0000
,
1101
0000
0001
0000
0010
0101
1010
0100
,
1001
0000
0001
1010
0000
1000
0101
0010
,
1010
0000
0001
0000
0100
1100
0011
0110
,
0111
0000
1000
0000
0100
0000
1011
0000
0010
0000
0010
0000
1101
0010
1100
0000
,
1010
0000
0001
0000
0010
1010
0101
1000
,
0011
0000
1000
0110
0000
0100
1010
0100
,
1110
0000
0010
0000
1101
1000
0001
1000
,
0111
0000
1000
0000
0001
0000
1000
0000
1000
0000
2022
0000
0000
3033
0100
0010
,
2202
0000
0010
0000
0303
0000
0001
3000
0100
0000
1010
0000
0001
0000
1100
0000
,
0010
0100
0001
1010
0000
0010
0101
0010
,
0010
0000
0001
0000
0010
1010
0101
0110
,
1011
0000
0100
0000
0001
0000
1110
0000
0001
0000
0001
0000
1100
0001
1010
0000
,
1101
0000
0010
0000
1000
1000
0110
0001
,
1010
0000
0001
1000
0000
1000
0110
1001
,
1010
0000
0001
0000
1000
1000
0111
1000
,
0001
0000
0100
0010
0000
0000
1000
0000
0000
0001
0000
0000
0100
0000
0000
0010
0000
0000
1000
0000
0001
0100
0000
0000
1010
0000
0000
0001
0000
0000
1100
0000
0000
0010
0000
0000
0101
0000
1000
0010
0000
0000
0101
0000
0000
1000
0000
0000
,
0111
0000
0111
1100
0010
1100
0110
1010
,
0011
0000
0100
0000
0011
0000
0110
0000
0001
0000
1010
0000
0001
0000
0100
0010
,
1101
0110
1100
0111
0010
0010
1101
0010
,
1001
0010
1100
0010
0101
0010
1100
0001
0110
1000
0101
0010
1100
0010
1001
0010
,
1101
0000
0010
1000
0010
0000
1100
0001
0100
0000
0010
0100
1010
0000
0100
0001
,
0110
0000
0001
1000
0101
0000
1010
0001
1000
0000
1100
0001
1000
0000
0110
1001
,
0110
0000
1000
0010
1000
0000
0010
0100
0010
0000
1100
0001
0110
0000
0110
1000
,
0101
1000
0011
0100
1010
0001
0110
1000
0101
0010
1001
0010
1100
0001
1010
0100
,
1011
0000
0000
0000
0001
0000
1100
0000
0010
0000
1100
0001
1010
0000
0110
0000
,
0101
0000
1000
0000
0011
0000
1010
0000
0001
0000
0100
0000
0010
0000
0001
0100
,
1001
0010
0010
1011
0010
0010
0111
0000
,
1001
0010
1100
0010
0101
0010
1100
0001
0110
1000
0101
0010
1100
0010
1001
0010
,
1101
0110
1000
0111
,
1110
0000
0000
1011
0000
0000
1110
0001
0010
0100
1000
0010
,
1001
0000
0110
0000
0100
0000
0110
1011
,
1010
0000
0100
0001
0000
0000
1010
0000
0000
0100
0000
0000
0011
0000
0000
0000
0000
0000
1010
0000
0100
0001
0000
0000
1010
0000
0000
0100
0000
0000
0011
0000
0000
0100
0000
0000
1010
0000
0100
0001
0000
0000
1010
0000
0000
0001
0000
0000
,
2110
0000
0100
3021
0000
0001
0130
0001
,
2001
0000
0010
3102
1000
1000
1003
0010
,
1002
0000
0100
2013
0000
0010
3102
1000
,
0023
0000
1000
0000
0001
0000
1000
0000
0001
0000
1031
0000
0101
1000
0110
0000
,
1001
0000
0000
0000
0010
0000
0000
0000
0100
0000
0000
0000
1000
0000
0000
0000
0100
0000
0000
0000
0010
0000
0100
0000
0001
0000
0000
1000
0000
0000
0001
0000
0000
0100
0000
0000
0010
0000
0000
0001
0000
0000
0010
0000
0000
1000
0000
0000
,
0200
0000
0310
0100
0100
0000
0010
1000
0001
0010
0100
0010
1000
0001
0010
0100
,
1000
0000
0000
0010
0000
0000
0100
0000
0000
0010
0000
0000
1000
0000
0000
0010
0000
0000
0100
0000
0000
0010
1000
0000
0002
0000
0000
0003
0000
0000
0010
0000
0000
0100
0000
0000
0001
0000
0000
0010
0000
0000
0100
0000
0000
0010
0000
0000
,
1000
0000
0000
0100
0000
0000
0010
0000
0000
1000
0100
0000
0002
0000
0000
0000
0000
0000
0003
0000
0000
0000
0000
0000
0020
0000
0000
0000
0000
0000
0031
0000
0000
0100
0000
0000
0001
0000
0000
0010
0000
0000
0100
0000
0000
1000
0000
0000
,
0120
0000
1000
0132
0000
1023
0231
2301
,
3120
0000
0032
0000
1023
0000
0131
1000
0210
0000
0010
0000
0301
0000
0110
1000
,
0001
0000
0000
0010
0000
0000
0100
0000
0000
0010
0000
0000
1000
0000
0000
0010
0000
0000
0100
0000
0001
0000
0010
0000
1000
0000
0001
0000
0100
0000
1000
0000
0010
0000
0100
0000
0001
0000
0000
1000
0000
0000
0002
0000
0000
0000
0000
0000
,
0013
0000
0100
0000
1000
0000
0010
0000
0100
0000
0010
0000
1000
0000
0100
0000
0010
0000
0002
0000
0000
0000
0000
0000
0000
0000
0000
0000
0000
0000
0000
0000
0000
0000
0000
0000
0100
0000
0000
1000
0000
0000
0010
0000
0000
0000
0000
0000
,
1113
0000
0000
0000
0101
0000
1010
0000
0000
0000
1100
0000
0120
0000
1031
0110
,
1002
0000
0000
0000
1013
0000
0101
0000
0010
0000
1010
0000
0011
0100
1010
0100
,
1012
0000
0000
0000
0000
0000
0000
0000
0000
0000
0000
0000
1013
0000
0000
0000
0000
0000
0101
0000
0000
0000
0000
0000
0000
0000
0000
0000
0000
0000
1001
0000
0000
0010
0000
0000
1100
0000
0010
0000
0100
0000
0001
0000
1000
0000
0010
0000
,
1201
0000
0000
0000
0000
0000
0010
0000
0000
0000
0000
0000
1300
0000
0000
0000
0000
0000
1100
0000
0000
0000
0000
0000
1012
0000
0100
0010
0000
0000
1103
0000
0000
0010
0000
0000
0101
0000
0010
1000
0000
0000
0101
0000
0000
0010
0000
0000
,
1101
0010
0001
1000
0001
1010
0101
1001
,
0011
0000
0100
0000
0001
0000
1010
0000
0100
0000
1001
0000
0101
0000
0011
1000
,
0111
1000
0010
0101
1000
0110
1100
1010
,
0111
0000
1000
0000
0011
0000
0110
0000
1000
0000
0011
0000
0110
1000
0101
0000
,
1110
0000
0000
0001
0000
0000
1000
0000
0000
0100
0000
0000
1001
0000
0000
0100
0001
0000
1100
0000
0001
0100
0000
0000
,
1101
0000
0000
1000
0110
0000
0001
0000
1010
0100
0000
0000
1010
0000
0000
0001
0000
0000
0100
0000
0000
0010
0000
0000
,
1101
0000
0010
0000
0100
0000
1001
0010
1101
0000
0010
0000
0100
0000
0011
0100
,
1011
0000
0000
0000
0000
0000
0100
0000
0000
0000
0000
0000
1011
0000
0000
0000
0000
0000
0100
0000
0000
0000
0000
0000
0001
0000
0100
0010
0000
0000
1000
0000
0000
0001
0000
0000
0100
0000
0010
1000
0000
0000
0001
0000
0000
1000
0000
0000
,
0111
1010
0100
0011
0100
1010
0100
1001
,
0010
0101
1000
0011
0100
1010
0001
0110
,
1011
0101
1000
0011
0100
1010
0001
0110
,
1011
0000
1100
0000
0010
0000
0101
0000
1000
0000
0110
0000
0001
0100
1010
0001
,
0110
1010
0100
0011
0100
1010
0100
1001
,
0010
0101
1000
0011
0100
1010
0001
0110
,
1011
0101
1000
0011
0100
1010
0001
0110
,
0001
0000
0100
0010
0000
0000
1000
0000
0000
0010
0000
0000
0100
0000
0001
1000
0000
0000
0010
0000
0000
0100
0000
0000
0001
0000
1000
0010
0000
0000
0100
0000
0000
0001
0000
0000
1000
0000
0010
0100
0000
0000
0001
0000
0000
0100
0000
0000
,
1002
0000
0103
1002
0010
0103
1101
2222
,
0000
0000
0000
0000
0000
0000
0000
0000
0000
0000
0000
0000
0000
0000
0000
0000
0003
0030
0000
0300
3000
0000
0000
0000
;

//---------------dance-single - ----------------
#NOTES:
     dance-single:
     :
     Hard:
     13:
     1.000,1.000,1.000,0.318,0.766,816.000,230.000,45.000,0.000,14.000:
0000
0000
0000
0000
,
1000
0000
0000
0000
0000
0010
1000
0100
,
0001
0000
0000
0010
0000
0000
1000
0000
,
0010
0000
0000
0000
0000
1000
0010
0100
,
0001
0000
0000
0010
0000
0000
0100
0000
,
1000
0000
0000
0000
0000
1000
0100
1000
,
0001
0000
0000
0010
0000
1000
0101
1000
,
1010
0000
1010
0000
,
1001
0000
0000
0000
0000
0000
0000
0000
0000
0000
0000
0000
1001
0000
0000
0000
0000
0000
0000
0000
0000
0000
0000
0000
1000
0000
0000
0001
0000
0000
0100
0000
0000
0010
1000
0000
0001
0000
0000
0100
0000
0000
0010
0000
0000
0000
0000
0000
,
1002
0000
0000
0000
0000
0000
1003
0001
,
0010
0000
0000
0000
0000
0000
0200
0000
0000
0000
0000
0000
0000
0000
0000
0000
0000
0000
0000
0000
0000
0000
0000
0000
0000
0000
0000
0000
0000
0000
0000
0000
0000
0000
0000
0000
0300
0000
0000
0000
1000
0000
0000
0000
0000
0001
0000
0000
,
0110
1000
0001
0010
0100
1000
0010
0100
0001
0010
0100
0010
,
1002
0000
0000
0000
0000
0000
0000
0000
0000
0000
0000
0000
0000
0000
0000
0000
0000
0000
0000
0000
0000
0000
0000
0000
0000
0000
0000
0000
0000
0000
0000
0000
0000
0000
0000
0000
0000
0000
0000
0000
0000
0000
0000
0000
0000
0000
0000
0000
0000
0000
0000
0000
0000
0000
0000
0000
0000
0000
0000
0000
0000
0000
0000
0000
0000
0000
0000
0000
0000
0000
0000
0000
0000
0000
0000
0000
0000
0000
0000
0000
0023
0000
0000
0000
0000
0000
0000
0000
0000
0000
0000
0000
0000
0000
0000
0000
0000
0000
0000
0000
0000
0000
0000
0000
0000
0000
0000
0000
0000
0000
0000
0000
0000
0000
0000
0000
0000
0000
0000
0000
0000
0000
0000
0000
0000
0000
0000
0000
0000
0000
0000
0000
0000
0000
0000
0000
0000
0000
0000
0000
0000
0000
0000
0000
0000
0000
0000
0000
0000
0000
0000
0000
0000
0000
0000
0000
0000
0000
0000
0000
0030
0000
0000
0000
0000
0000
0000
0000
1000
0000
0000
0000
0000
0000
0000
0000
0010
0000
0000
0000
0000
0000
0000
0000
0000
0000
0100
0000
0000
0000
0000
0000
,
0001
0010
0100
1000
0010
0100
0001
0010
0100
1000
0010
0100
0002
0000
1003
0001
0010
0100
0010
0001
1000
0010
0100
0010
,
1000
0000
0010
0000
0100
0000
0001
0000
0010
0000
0100
0000
1000
0000
0010
0000
0100
0000
0002
0000
0000
0000
0000
0000
0000
0000
0000
0000
0000
0000
0000
0000
0000
0000
0000
0000
0000
0000
0000
0000
1003
0000
0000
0000
0000
0010
0000
0000
,
0100
0000
0001
0000
1000
0000
0100
0000
0010
0000
0001
0000
1000
0000
0010
0000
0100
0000
0001
0000
0020
0000
0000
0000
0000
0000
0000
0000
0000
0000
0031
0000
1000
0000
0010
0100
0001
0000
0010
0000
0100
0000
1000
0000
0010
0000
0000
0000
,
0200
0000
0000
0000
0001
0000
0000
0000
0301
1000
0001
1000
0001
1000
0001
1000
,
0101
1100
0001
0110
0001
1100
0001
1010
,
0100
0101
0010
1001
0001
1100
0010
0110
,
0011
1100
0100
0011
1000
0110
0010
0101
,
1010
0000
0110
0000
0001
0000
1010
0000
0001
0000
0110
0000
1000
0001
0010
0000
,
1001
0110
1000
0101
0100
1010
0100
1001
,
0100
1010
0100
0011
0100
0101
1000
0110
,
1010
1100
1000
0101
0100
1010
0100
1001
,
0001
0000
0010
0100
0000
0000
1000
0000
0000
0000
0000
0000
0001
0000
0010
0100
0000
0000
1000
0000
0000
0010
0000
0000
0100
0000
0000
0001
0000
0000
0010
0000
0000
0100
0000
0000
1000
0000
0000
0010
0000
0000
0100
0000
0000
0010
0000
0000
,
2002
0000
0000
0000
0000
0000
3000
0003
,
0001
0000
0100
0010
0000
0000
1000
0000
0000
0001
0000
0000
0100
0000
0000
0010
0000
0000
1000
0000
0001
0100
0000
0000
0010
0000
0000
1000
0000
0000
0001
0000
0000
0100
0000
0000
0010
0000
1000
0001
0000
0000
0100
0000
0000
0010
0000
0000
,
1001
0000
0001
0000
0010
0101
1010
0100
,
1001
0000
0001
1010
0000
1000
0101
0010
,
1010
0000
0001
0000
0100
1100
0011
0110
,
0101
0000
1000
0000
0100
0000
1010
0000
0010
0000
0010
0000
1000
0010
0100
0000
,
1010
0000
0001
0000
0010
1010
0101
1000
,
0011
0000
1000
0110
0000
0100
1010
0100
,
0110
0000
0010
0000
1001
1000
0001
1000
,
0110
0000
1000
0000
0001
0000
1000
0000
1000
0000
0022
0000
0000
0033
0100
0010
,
2002
0000
0000
0000
3003
1010
0001
1100
,
0010
0100
0001
1010
0000
0010
0101
0010
,
0010
0000
0001
0000
0010
1010
0101
0110
,
0011
0000
0100
0000
0001
0000
1010
0000
0001
0000
0001
0000
1000
0001
0010
0000
,
1001
0000
0010
0000
1000
1000
0110
0001
,
1010
0000
0001
1000
0000
1000
0110
1001
,
1010
0000
0001
0000
1000
1000
0101
1000
,
0001
0000
0100
0010
0000
0000
1000
0000
0000
0001
0000
0000
0100
0000
0000
0010
0000
0000
1000
0000
0001
0100
0000
0000
0010
0000
0000
1000
0000
0000
0100
0000
0000
0010
0000
0000
0001
0000
1000
0010
0000
0000
0100
0000
0000
0001
0000
0000
,
1010
0000
0101
1100
0010
1100
0110
1010
,
0011
0000
0100
0000
0011
0000
0110
0000
0001
0000
1010
0000
0001
0000
0100
0010
,
1001
0110
1100
0101
0010
0010
1001
0010
,
0001
0010
0100
0010
1000
0010
0100
0001
0010
0100
1000
0010
0100
0001
0010
0100
,
1001
0000
0010
1000
0010
0000
0100
0001
0100
0000
0001
1000
0001
0000
0010
0100
,
0010
0000
0001
1000
0001
0000
1000
0010
1000
0000
0100
0010
0100
0000
1000
0010
,
0100
0000
0001
0010
0100
0000
1000
0010
0100
0000
0001
1000
0001
0000
1000
0010
,
1100
0011
1010
0110
1010
0101
0110
1100
,
1001
0000
0000
0000
0001
0000
1100
0000
0010
0000
1000
0001
0010
0000
0110
0000
,
0101
0000
1000
0000
0011
0000
1010
0000
0001
0000
0100
0000
0010
0000
0001
0100
,
1001
0010
0010
0101
0010
0010
1010
0000
,
1001
1100
0101
1100
0110
0101
1100
1001
,
0101
0110
1000
0101
,
1010
0000
0000
0011
0000
0000
0100
0001
0010
0100
1000
0010
,
1001
0000
0110
0000
0100
0000
0110
1001
,
0010
0000
0100
0001
0000
0000
1000
0000
0000
0100
0000
0000
0010
0000
0000
0000
0000
0000
0001
0000
0100
0010
0000
0000
1000
0000
0000
0100
0000
0000
0010
0000
0000
0100
0000
0000
1000
0000
0010
0100
0000
0000
0001
0000
0000
0010
0000
0000
,
2100
0100
0100
3021
0001
0001
0130
0001
,
2001
0010
0010
3102
1000
1000
1003
0010
,
1002
0100
0100
2013
0010
0010
3102
1000
,
0023
0100
0100
0100
0100
1031
0101
0110
,
1001
0000
0000
0000
0010
0000
0000
0000
0100
0000
0000
0000
1000
0000
0000
0000
0100
0000
0000
0000
1000
0000
0001
0000
0100
0000
0000
0010
0000
0000
1000
0000
0000
0100
0000
0000
0010
0000
0000
0001
0000
0000
0010
0000
0000
0100
0000
0000
,
0020
0000
0031
0100
0100
0000
0010
1000
0001
0010
0100
0010
0001
1000
0010
0100
,
0010
0000
0000
1000
0000
0000
0010
0000
0000
0100
0000
0000
0001
0000
0000
0010
0000
0000
1000
0000
0000
0100
0010
0000
0002
0000
0000
0003
0000
0000
0010
0000
0000
0100
0000
0000
1000
0000
0000
0010
0000
0000
0100
0000
0000
0001
0000
0000
,
0010
0000
0000
0100
0000
0000
1000
0000
0000
0100
0010
0000
0002
0000
0000
0000
0000
0000
0003
0000
0000
0000
0000
0000
0020
0000
0000
0000
0000
0000
0031
0000
0000
0100
0000
0000
0001
0000
0000
0010
0000
0000
0100
0000
0000
1000
0000
0000
,
0120
0000
1000
0132
0000
1023
0231
2301
,
3120
0000
0032
0000
1023
0000
0130
0001
0210
0000
0010
0000
0301
0000
0010
1000
,
0001
0000
0000
0010
0000
0000
0100
0000
0000
0010
0000
0000
0001
0000
0000
0010
0000
0000
0100
0000
1000
0000
0010
0000
0100
0000
0001
0000
0010
0000
0100
0000
1000
0000
0010
0000
0100
0000
0000
0001
0000
0000
0200
0000
0000
0000
0000
0000
,
0310
1000
0100
0010
0001
0010
0100
1000
0000
0002
0000
0000
0000
0000
0000
0000
0000
0000
0000
0000
0000
0000
0000
0000
,
1013
0000
0000
0000
0101
0000
1010
0000
0000
0000
1100
0000
0120
0000
1030
0010
,
1002
0000
0000
0000
1013
0000
0101
0000
0010
0000
1010
0000
0001
0100
0010
1000
,
0012
0000
0000
0000
0000
0000
0000
0000
0000
0000
0000
0000
1013
0000
0000
0000
0000
0000
0101
0000
0000
0000
0000
0000
0000
0000
0000
0000
0000
0000
1001
0000
0000
0010
0000
0000
0100
0000
1000
0000
0010
0000
0100
0000
0001
0000
0010
0000
,
1200
0000
0000
0000
0000
0000
1000
0000
0000
0000
0000
0000
1300
0000
0000
0000
0000
0000
1010
0000
0000
0000
0000
0000
1000
0000
0100
0010
0000
0000
0001
0000
0000
0010
0000
0000
0100
0000
1000
0010
0000
0000
0100
0000
0000
0001
0000
0000
,
0110
0010
0001
1000
0001
1010
0101
1001
,
0011
0000
0100
0000
0001
0000
1010
0000
0100
0000
1001
0000
0101
0000
0010
1000
,
0101
1000
0010
0101
1000
0110
1100
1010
,
0011
0000
1000
0000
0011
0000
0110
0000
1000
0000
0011
0000
0100
1000
0101
0000
,
1010
0000
0000
0001
0000
0000
1000
0000
0000
0010
0000
0000
0101
0000
0000
0000
0101
0000
0000
0000
0101
0000
0000
0000
,
0101
0000
0000
0000
0110
0000
0000
0000
1010
0000
0000
0000
1100
0000
0000
0001
0000
0000
0100
0000
0000
0010
0000
0000
,
1001
0000
0010
0000
0100
0000
0010
0100
1001
0000
0010
0000
0100
0000
0010
0100
,
1001
0000
0000
0000
0000
0000
0100
0000
0000
0000
0000
0000
1001
0000
0000
0000
0000
0000
0100
0000
0000
0000
0000
0000
0001
0000
0100
0010
0000
0000
1000
0000
0000
0001
0000
0000
0100
0000
0010
1000
0000
0000
0001
0000
0000
1000
0000
0000
,
0101
1010
0100
0011
0100
1010
0100
1001
,
0010
0101
1000
0011
0100
1010
0001
0110
,
1001
0101
1000
0011
0100
1010
0001
0110
,
1001
0000
1100
0000
0010
0000
0101
0000
1000
0000
0110
0000
0001
0100
0010
1000
,
0101
1010
0100
0011
0100
1010
0100
1001
,
0010
0101
1000
0011
0100
1010
0001
0110
,
1001
0101
1000
0011
0100
1010
0001
0110
,
0001
0000
0100
0010
0000
0000
1000
0000
0000
0010
0000
0000
0100
0000
0001
1000
0000
0000
0010
0000
0000
0100
0000
0000
0001
0000
1000
0010
0000
0000
0100
0000
0000
0001
0000
0000
1000
0000
0010
0100
0000
0000
0001
0000
0000
0100
0000
0000
,
1002
0000
0103
1002
0010
0103
1001
2002
,
0000
0000
0000
0000
0000
0000
0000
0000
0003
0000
3000
0000
;

//---------------dance-solo - ----------------
#NOTES:
     dance-solo:
     :
     Hard:
     13:
     1.000,1.000,1.000,0.360,0.879,849.000,297.000,51.000,0.000,73.000:
000000
000000
000000
000000
,
000100
000000
000000
000000
000000
001000
100000
001000
,
000010
000000
000000
000100
000000
000000
010000
000000
,
001000
000000
000000
000000
000000
000000
000000
000000
000000
000000
000000
000000
000000
000000
000000
000000
000000
000000
000000
000000
000000
010000
000000
000000
000000
000010
000000
000000
000000
001000
000000
000000
,
000000
000001
000000
000000
000000
000000
000000
000000
000000
000000
000000
000000
000100
000000
000000
000000
000000
000000
000000
000000
000000
000000
000000
000000
010000
000000
000000
000000
000000
000000
000000
000000
,
000000
100000
000000
000000
000000
000000
000000
000000
000000
000000
000000
000000
000000
000000
000000
000000
000000
000000
000000
000000
000000
100000
000000
000000
000000
001000
000000
000000
000000
100000
000000
000000
,
000000
000100
000000
000000
000000
000000
000000
000000
000000
000000
000000
000000
001000
000000
000000
000000
000000
000000
000000
000000
100000
000000
000000
000000
000110
000000
000000
000000
100000
000000
000000
000000
,
100010
000000
100100
000000
,
110010
000000
000000
000000
000000
000000
000000
000000
000000
000000
000000
000000
000010
000000
000000
000000
000000
000000
000000
000000
000000
000000
000000
000000
110000
000000
000000
000010
000000
000000
010000
000000
000000
000100
001000
000000
000001
000000
000000
100000
000000
000000
000100
000000
000000
000000
000000
000000
,
001012
000000
000000
000000
000000
000000
100003
000010
,
000100
000000
000000
000000
000000
000000
002000
000000
000000
000000
000000
000000
000000
000000
000000
000000
000000
000000
000000
000000
000000
000000
000000
000000
000000
000000
000000
000000
000000
000000
000000
000000
000000
000000
000000
000000
000000
000000
000000
003000
100000
000000
000000
000000
000000
001000
000000
000000
,
000110
100000
001000
010000
000100
001000
000010
010000
000001
100000
000010
001000
,
010002
000000
000000
000000
000000
000000
000000
000000
000000
000000
000000
000000
000000
000000
000000
000000
000000
000000
000000
000000
000000
000000
000000
000000
000000
000000
000000
000000
000000
000000
000000
000000
000000
000000
000000
000000
000000
000000
000000
000000
000000
000000
000000
000000
000000
000000
000000
000000
000000
000000
000000
000000
000000
000000
000000
000000
000000
000000
000000
000000
000000
000000
000000
000000
000000
000000
000000
000000
000000
000000
000000
000000
000000
000000
000000
000000
000000
000000
000000
000000
000203
000000
000000
000000
000000
000000
000000
000000
000000
000000
000000
000000
000000
000000
000000
000000
000000
000000
000000
000000
000000
000000
000000
000000
000000
000000
000000
000000
000000
000000
000000
000000
000000
000000
000000
000000
000000
000000
000000
000000
100000
000000
000000
000000
000000
000000
000000
000000
000000
000000
000000
000000
000000
000000
000000
000000
000000
000000
000000
000000
000000
000000
000000
000000
001000
000000
000000
000000
000000
000000
000000
000000
000000
000000
000000
000000
000000
000000
000000
000000
000301
000000
000000
000000
000000
000000
000000
000000
000010
000000
000000
000000
000000
000000
000000
000000
001000
000000
000000
000000
000000
000000
000000
000000
000000
000000
000100
000000
000000
000000
000000
000000
,
110000
001000
000100
000010
000001
000010
000100
001000
010000
100000
000100
100000
000200
000000
100300
001000
010000
000100
001000
000010
000100
000001
000010
000100
,
001000
000000
010000
000000
100000
000000
000001
000000
000010
000000
000100
000000
001000
000000
000100
000000
001000
000000
020000
000000
000000
000000
000000
000000
000000
000000
000000
000000
000000
000000
000000
000000
000000
000000
000000
000000
000000
000000
000000
000000
130000
000000
000000
000000
000000
010000
000000
000000
,
000110
000000
001000
000000
010000
000000
100000
000000
001000
000000
010000
000000
000100
000000
001000
000000
010000
000000
100000
000000
010000
001000
000100
000010
000002
000000
000000
000000
000000
000000
000000
000000
000103
000000
000010
000100
001000
000000
010000
000000
100000
000000
000100
000000
001000
000000
000000
000000
,
010020
000000
000000
000000
010000
000000
000000
000000
010031
000100
010000
000100
010000
000100
010000
000100
,
111000
110000
000100
000011
000100
110000
000100
000110
,
010000
010100
001000
100100
000100
110000
001000
011000
,
001100
110000
010000
001100
100000
011000
001000
010100
,
101000
000000
011000
000000
000100
000000
101000
000000
000100
000000
011000
000000
100000
001000
110100
000000
,
101000
011000
100000
010100
010000
101000
010000
100100
,
010000
101000
010000
001100
010000
010100
100000
011000
,
101000
110000
100000
010100
010000
101000
010000
100100
,
001100
000000
010000
100000
000000
000000
011000
000000
000000
000000
000000
000000
001100
000000
010000
100000
000000
000000
001100
000000
000000
010000
000000
000000
100100
000000
000000
001000
000000
000000
010100
000000
000000
100000
000000
000000
011000
000000
000000
000100
000000
000000
110000
000000
000000
001000
000000
000000
,
220200
000000
000000
000000
031000
000000
310000
000300
,
000100
000000
010000
001000
000000
000000
100000
000000
000000
000100
000000
000000
010000
000000
000000
001000
000000
000000
100000
000000
000100
010000
000000
000000
001000
000000
000000
100000
000000
000000
000100
000000
000000
010000
000000
000000
001000
000000
100000
000100
000000
000000
010000
000000
000000
001000
000000
000000
,
110100
000000
000100
000000
001000
010100
101000
010000
,
100100
000000
000100
101000
000000
100000
010100
001000
,
101000
000000
000100
000000
010000
110000
001100
011000
,
011100
000000
100000
000000
010000
000000
101100
000000
001000
000000
001000
000000
110100
001000
110000
000000
,
101000
000000
000100
000000
001000
101000
010100
100000
,
001100
000000
100000
011000
000000
010000
101000
010000
,
111000
000000
001000
000000
110100
100000
000100
100000
,
011100
000000
100000
000000
000100
000000
100000
000000
100000
000000
202200
000000
000000
303300
010000
001000
,
220200
000000
001000
000000
030300
000000
000100
300000
010000
000000
101000
000000
000100
000000
110000
000000
,
001000
010000
000100
101000
000000
001000
010100
001000
,
001000
000000
000100
000000
001000
101000
010100
011000
,
101100
000000
010000
000000
000100
000000
111000
000000
000100
000000
000100
000000
110000
000100
101000
000000
,
110100
000000
001000
000000
100000
100000
011000
000100
,
101000
000000
000100
100000
000000
100000
011000
100100
,
101000
000000
000100
000000
100000
100000
011100
100000
,
000100
000000
010000
001000
000000
000000
100000
000000
000000
000100
000000
000000
010000
000000
000000
001000
000000
000000
100000
000000
000100
010000
000000
000000
101000
000000
000000
000100
000000
000000
110000
000000
000000
001000
000000
000000
010100
000000
100000
001000
000000
000000
010100
000000
000000
100000
000000
000000
,
011100
000000
011100
110000
001000
110000
011000
101000
,
001100
000000
010000
000000
001100
000000
011000
000000
000100
000000
101000
000000
000100
000000
010000
001000
,
110100
011000
110000
011100
001000
001000
110100
001000
,
100100
001000
110000
001000
010100
001000
110000
000100
011000
100000
010100
001000
110000
001000
100100
001000
,
110100
000000
001000
100000
001000
000000
110000
000100
010000
000000
001000
010000
101000
000000
010000
000100
,
011000
000000
000100
100000
010100
000000
101000
000100
100000
000000
110000
000100
100000
000000
011000
100100
,
011000
000000
100000
001000
100000
000000
001000
010000
001000
000000
110000
000100
011000
000000
011000
100000
,
010100
100000
001100
010000
101000
000100
011000
100000
010100
001000
100100
001000
110000
000100
101000
010000
,
101100
000000
000000
000000
000100
000000
110000
000000
001000
000000
110000
000100
101000
000000
011000
000000
,
010100
000000
100000
000000
001100
000000
101000
000000
000100
000000
010000
000000
001000
000000
000100
010000
,
100100
001000
001000
101100
001000
001000
011100
000000
,
100100
001000
110000
001000
010100
001000
110000
000100
011000
100000
010100
001000
110000
001000
100100
001000
,
110100
011000
100000
011100
,
111000
000000
000000
101100
000000
000000
111000
000100
001000
010000
100000
001000
,
100100
000000
011000
000000
010000
000000
011000
101100
,
101000
000000
010000
000100
000000
000000
101000
000000
000000
010000
000000
000000
001100
000000
000000
000000
000000
000000
101000
000000
010000
000100
000000
000000
101000
000000
000000
010000
000000
000000
001100
000000
000000
010000
000000
000000
101000
000000
010000
000100
000000
000000
101000
000000
000000
000100
000000
000000
,
211000
000000
010000
302100
000000
000100
013000
000100
,
200100
000000
001000
310200
100000
100000
100300
001000
,
100200
000000
010000
201300
000000
001000
310200
100000
,
002300
000000
100000
000000
000100
000000
100000
000000
000100
000000
103100
000000
010100
100000
011000
000000
,
100100
000000
000000
000000
001000
000000
000000
000000
010000
000000
000000
000000
100000
000000
000000
000000
010000
000000
000000
000000
001000
000000
010000
000000
000100
000000
000000
100000
000000
000000
000100
000000
000000
010000
000000
000000
001000
000000
000000
000100
000000
000000
001000
000000
000000
100000
000000
000000
,
020000
000000
031000
010000
010000
000000
001000
100000
000100
001000
010000
001000
100000
000100
001000
010000
,
100000
000000
000000
001000
000000
000000
010000
000000
000000
001000
000000
000000
100000
000000
000000
001000
000000
000000
010000
000000
000000
001000
100000
000000
000200
000000
000000
000300
000000
000000
001000
000000
000000
010000
000000
000000
000100
000000
000000
001000
000000
000000
010000
000000
000000
001000
000000
000000
,
100000
000000
000000
010000
000000
000000
001000
000000
000000
100000
010000
000000
000200
000000
000000
000000
000000
000000
000300
000000
000000
000000
000000
000000
002000
000000
000000
000000
000000
000000
003100
000000
000000
010000
000000
000000
000100
000000
000000
001000
000000
000000
010000
000000
000000
100000
000000
000000
,
012000
000000
100000
013200
000000
102300
023100
230100
,
312000
000000
003200
000000
102300
000000
013100
100000
021000
000000
001000
000000
030100
000000
011000
100000
,
000100
000000
000000
001000
000000
000000
010000
000000
000000
001000
000000
000000
100000
000000
000000
001000
000000
000000
010000
000000
000100
000000
001000
000000
100000
000000
000100
000000
010000
000000
100000
000000
001000
000000
010000
000000
000100
000000
000000
100000
000000
000000
000200
000000
000000
000000
000000
000000
,
001300
000000
010000
000000
100000
000000
001000
000000
010000
000000
001000
000000
100000
000000
010000
000000
001000
000000
000200
000000
000000
000000
000000
000000
000000
000000
000000
000000
000000
000000
000000
000000
000000
000000
000000
000000
010000
000000
000000
100000
000000
000000
001000
000000
000000
000000
000000
000000
,
111300
000000
000000
000000
010100
000000
101000
000000
000000
000000
110000
000000
012000
000000
103100
011000
,
100200
000000
000000
000000
101300
000000
010100
000000
001000
000000
101000
000000
001100
010000
101000
010000
,
101200
000000
000000
000000
000000
000000
000000
000000
000000
000000
000000
000000
101300
000000
000000
000000
000000
000000
010100
000000
000000
000000
000000
000000
000000
000000
000000
000000
000000
000000
100100
000000
000000
001000
000000
000000
110000
000000
001000
000000
010000
000000
000100
000000
100000
000000
001000
000000
,
120100
000000
000000
000000
000000
000000
001000
000000
000000
000000
000000
000000
130000
000000
000000
000000
000000
000000
110000
000000
000000
000000
000000
000000
101200
000000
010000
001000
000000
000000
110300
000000
000000
001000
000000
000000
010100
000000
001000
100000
000000
000000
010100
000000
000000
001000
000000
000000
,
110100
001000
000100
100000
000100
101000
010100
100100
,
001100
000000
010000
000000
000100
000000
101000
000000
010000
000000
100100
000000
010100
000000
001100
100000
,
011100
100000
001000
010100
100000
011000
110000
101000
,
011100
000000
100000
000000
001100
000000
011000
000000
100000
000000
001100
000000
011000
100000
010100
000000
,
111000
000000
000000
000100
000000
000000
100000
000000
000000
010000
000000
000000
100100
000000
000000
010000
000100
000000
110000
000000
000100
010000
000000
000000
,
110100
000000
000000
100000
011000
000000
000100
000000
101000
010000
000000
000000
101000
000000
000000
000100
000000
000000
010000
000000
000000
001000
000000
000000
,
110100
000000
001000
000000
010000
000000
100100
001000
110100
000000
001000
000000
010000
000000
001100
010000
,
101100
000000
000000
000000
000000
000000
010000
000000
000000
000000
000000
000000
101100
000000
000000
000000
000000
000000
010000
000000
000000
000000
000000
000000
000100
000000
010000
001000
000000
000000
100000
000000
000000
000100
000000
000000
010000
000000
001000
100000
000000
000000
000100
000000
000000
100000
000000
000000
,
011100
101000
010000
001100
010000
101000
010000
100100
,
001000
010100
100000
001100
010000
101000
000100
011000
,
101100
010100
100000
001100
010000
101000
000100
011000
,
101100
000000
110000
000000
001000
000000
010100
000000
100000
000000
011000
000000
000100
010000
101000
000100
,
011000
101000
010000
001100
010000
101000
010000
100100
,
001000
010100
100000
001100
010000
101000
000100
011000
,
101100
010100
100000
001100
010000
101000
000100
011000
,
000100
000000
010000
001000
000000
000000
100000
000000
000000
001000
000000
000000
010000
000000
000100
100000
000000
000000
001000
000000
000000
010000
000000
000000
000100
000000
100000
001000
000000
000000
010000
000000
000000
000100
000000
000000
100000
000000
001000
010000
000000
000000
000100
000000
000000
010000
000000
000000
,
100200
000000
010300
100200
001000
010300
110100
222200
,
000000
000000
000000
000000
000000
000000
000000
000000
000000
000000
000000
000000
000000
000000
000000
000000
000300
003000
000000
030000
300000
000000
000000
000000
;
