#TITLE:HYPERION;
#SUBTITLE:;
#ARTIST:L.E.D.;
#TITLETRANSLIT:;
#SUBTITLETRANSLIT:;
#ARTISTTRANSLIT:;
#CREDIT:;
#BANNER:HYPERION-bn.png;
#BACKGROUND:HYPERION-bg.jpg;
#LYRICSPATH:;
#CDTITLE:Type MARS.png;
#MUSIC:HYPERION.mp3;
#OFFSET:-0.500;
#SAMPLESTART:93.300;
#SAMPLELENGTH:12.800;
#SELECTABLE:YES;
#BPMS:0.000=150.000;
#STOPS:;
#BGCHANGES:;
// cache tags:
#FIRSTBEAT:0.000;
#LASTBEAT:296.000;
#SONGFILENAME:Songs/Definitive Keyboard Megapack/HYPERION(Type MARS)/HYPERION.sm;
#HASMUSIC:1;
#HASBANNER:1;
#MUSICLENGTH:123.776;
// end cache tags

//---------------dance-single - ----------------
#NOTES:
     dance-single:
     :
     Hard:
     12:
     1.000,1.000,0.355,0.170,1.000,1013.000,44.000,21.000,0.000,0.000:

2001
0100
0010
0100
0001
0010
0100
0010
0001
0100
0010
0100
0001
0010
0100
0010
,
0001
0100
0010
0100
0001
0010
0100
0010
0001
0100
0010
0100
0001
0010
0100
0010
,
3002
0100
0010
1000
0010
0100
1000
0100
0010
1000
0100
1000
0010
0100
1000
0010
,
0203
1000
0010
0001
0010
1000
0001
0010
0001
1000
0010
0001
0010
1000
0001
1000
,
0320
0001
0100
1000
0100
0001
1000
0100
1000
0001
0100
1000
0100
0001
1000
0100
,
1000
0001
0100
1000
0100
0001
1000
0100
1000
0001
0100
1000
0100
0001
1000
0100
,
2030
0001
0100
0010
0001
0010
0100
0001
0010
0001
0100
0010
0001
0010
0100
0010
,
3002
0100
0010
1000
0100
0010
0100
1000
0010
0100
1000
0100
0010
1000
0100
0000
,
1003
0110
0101
2001
0000
0010
0001
0000
,
0100
0000
0000
0100
0010
0000
0100
0000
3002
0000
0010
0000
0203
0000
0010
0000
,
0301
1100
0101
0120
0000
0100
1000
0000
,
1000
0000
0000
1000
0100
0000
0001
0000
0100
0000
1000
0000
0100
0000
0000
0000
,
1030
0101
1010
1002
0000
0100
1000
0000
,
0010
0000
0000
0010
0100
0000
0010
0000
2003
0000
0100
0000
3020
0000
0000
0000
,
0230
0000
0000
0001
0010
0000
0010
0000
0000
0000
0001
0000
0001
0000
0000
0000
,
0302
0000
0000
1000
0100
0000
0010
0000
2003
0000
0100
0000
0010
0000
0010
0000
,
3002
0010
0100
1000
0100
0010
1000
0100
1000
0010
0100
1000
0100
0010
1000
0100
,
1000
0010
0100
1000
0100
0010
1000
0100
1000
0010
0100
0010
0100
1000
0010
1000
,
0010
0100
1000
0100
1000
0010
0100
1000
0010
0100
1000
0010
1000
0100
0010
1000
,
0100
1000
0010
0100
0010
1000
0100
0010
0100
1000
0010
0100
1000
0100
0010
1000
,
0103
0010
0100
0010
0100
0010
0100
0010
0100
0010
0100
0010
0100
0010
1001
0000
,
1001
0100
0010
0100
0010
0100
0010
0100
0010
0100
0010
0100
0010
0100
1001
0000
,
1001
0010
0001
0010
0001
0010
1001
0000
1001
0100
1000
0100
1000
0100
1001
0000
,
1001
0010
0011
1000
1100
0100
0110
0001
,
2002
0000
0000
0000
0000
0000
0000
0000
0000
0000
0000
0000
0000
0000
0000
3003
,
0010
1000
0100
0000
0001
0000
0100
0010
0000
1000
0100
0000
0001
0100
0000
0010
,
1000
0000
0100
0010
0000
0001
0100
0000
1000
0100
0000
0010
0001
0000
0100
0010
,
1000
0100
0001
0000
0100
0010
0000
1000
0100
0000
0010
0001
0000
0100
0010
0000
,
1000
0100
0000
0001
0010
0000
0100
1000
0000
0010
0100
0000
0001
0010
0000
0100
,
1000
0010
0100
0001
0010
0100
0000
1000
0100
0000
0010
0001
0000
0100
0010
0000
,
1000
0100
0000
0001
0100
0000
0010
1000
0000
0100
0001
0000
1000
0010
0000
0100
,
0001
1000
0010
0000
0100
0001
0000
0010
0100
0000
1000
0010
0000
0100
0001
0000
,
1000
0100
0000
0010
0001
0000
0100
0010
0000
1000
0000
0001
0000
0100
0000
0010
,
1000
0100
0010
1000
0100
0010
0100
0010
0001
0100
0010
0001
0100
0010
0001
0010
,
1000
0001
0100
1000
0001
0100
1000
0001
0100
0010
1000
0100
0010
1000
0100
0010
,
1000
0100
0001
1000
0100
0001
1000
0100
0001
0010
1000
0001
0010
1000
0001
0010
,
1000
0100
0010
1000
0100
0001
0010
0100
0001
0010
0100
0001
0100
1000
0001
0100
,
1000
0010
0001
0100
0010
0001
0100
0010
0001
1000
0100
0010
1000
0100
0010
1000
,
0100
0001
1000
0100
0001
1000
0100
0001
1000
0100
0010
1000
0100
0010
1000
0100
,
0001
1000
0010
0001
1000
0010
0001
1000
0010
0100
0001
0010
0100
0001
0010
0100
,
0001
1000
0010
0001
1000
0010
0001
1000
0010
0100
0001
1000
0010
0100
0001
0010
,
0100
1000
0010
0100
0001
0010
0100
1000
0010
0100
0001
0010
1000
0100
0010
0001
,
0100
0010
1000
0100
0001
0010
0100
1000
0010
0001
0100
0010
1000
0100
0001
0010
,
0100
1000
0100
0010
0001
1000
0100
0010
0100
1000
0100
0010
0001
1000
0100
0010
,
0100
0001
0010
0100
1000
0001
0010
0100
0010
0001
0010
0100
1000
0001
0010
0100
,
0010
0001
0100
1000
0010
0001
0100
0010
1000
0100
0010
0001
0100
1000
0010
0001
,
0100
0010
1000
0100
0010
1000
0100
0001
0010
1000
0100
0010
0100
1000
0010
0001
,
0100
0010
1000
0001
0100
0010
1000
0100
0001
0010
0100
0001
1000
0010
0100
0001
,
0010
0100
0010
0001
0100
0010
1000
0100
0010
0100
1000
0010
0100
0001
0010
0100
,
0001
0010
0100
1000
0110
0000
1000
0100
0010
0001
0010
0100
1001
0010
0100
0001
,
1000
0100
0010
0001
0110
0000
1000
0100
0010
0001
0100
0010
1001
0010
0100
0001
,
0010
1000
0100
0010
1001
0000
0010
0001
0100
0010
1000
0100
1001
0010
0100
1000
,
0001
0010
0100
0010
1001
0000
0100
0010
1000
0100
0010
0001
1100
0010
0001
0100
,
0011
1000
0100
1000
0100
1000
0100
1000
0100
1000
0100
1000
0100
1000
0011
0000
,
1100
0010
0001
0010
0001
0010
0001
0010
0001
0010
0001
0010
0001
0010
1001
0000
,
0101
0010
0001
0010
0001
0010
1001
0000
1100
0010
0001
0010
0001
0010
1001
0000
,
0101
0000
0010
0000
1100
0000
0010
0000
0101
0000
0010
0000
1001
0000
0100
0010
,
2002
0000
0000
0000
0000
0000
0000
0000
0000
0000
0000
0000
0000
0000
0000
3003
,
0001
0010
0100
1000
0100
0010
0001
0010
0100
1000
0100
0010
0001
0010
0100
1000
,
0001
0100
0010
1000
0010
0100
0001
0100
0010
1000
0010
0100
0001
0100
0010
1000
,
0001
0100
1000
0100
0001
0010
1000
0010
0001
0100
1000
0100
0001
0010
0100
1000
,
0010
0100
0001
1000
0010
0001
0100
1000
0010
0100
0001
1000
0010
0001
0100
1000
,
0001
0010
0100
0010
0001
0010
0100
1000
0001
0010
0100
0010
0001
0010
0100
1000
,
0010
0100
1000
0100
0010
1000
0100
0001
0010
0100
1000
0100
0010
1000
0100
0001
,
1000
0100
0010
1000
0100
0010
1000
0100
0001
0010
0100
0001
0010
0100
1000
0100
,
0001
0010
1000
0001
0010
1000
0001
0010
1000
0010
0001
1000
0010
0001
0100
0010
,
1000
0100
0010
0001
0010
0100
1000
0100
0010
0001
0010
0100
1000
0100
0010
0001
,
1000
0010
0100
0001
0100
0010
1000
0010
0100
0001
0100
0010
1000
0100
0010
0001
,
1000
0010
0001
0100
1000
0010
1000
0100
0001
1000
0010
0100
1000
0010
0100
0001
,
1000
0100
0010
0001
0100
1000
0010
0001
0010
0100
1000
0010
0001
0100
1000
0100
,
0001
0010
0100
0001
0010
0100
0001
0010
1000
0100
0010
0001
1000
0100
0010
0001
,
1000
0100
0010
1000
0100
0010
1000
0100
0001
0010
0100
1000
0001
0010
0100
1000
,
0001
0100
0010
1000
0100
0010
0001
0100
0010
1000
0001
0010
0100
1000
0100
0010
,
0001
0100
0010
1000
0100
0010
1000
0001
0100
0010
1000
0100
0001
0010
0001
0100
,
1001
0000
0000
0000
;
