#TITLE:Xuxa;
#SUBTITLE:;
#ARTIST:☺;
#TITLETRANSLIT:;
#SUBTITLETRANSLIT:;
#ARTISTTRANSLIT:;
#CREDIT:;
#BANNER:Xuxa-banner.png;
#BACKGROUND:Xuxa-bg.png;
#LYRICSPATH:;
#CDTITLE:;
#MUSIC:Smiley - Xuxa.ogg;
#OFFSET:0.005;
#SAMPLESTART:12.000;
#SAMPLELENGTH:12.920;
#SELECTABLE:YES;
#DISPLAYBPM:160.000;
#BPMS:0.000=160.000,96.000=3.265,96.021=160.000,97.000=3.265,97.021=160.000,310.000=3.265,310.021=160.000,311.000=3.265,311.021=160.000;
#STOPS:;
#BGCHANGES:;
// cache tags:
#FIRSTBEAT:16.000;
#LASTBEAT:315.000;
#SONGFILENAME:Songs/In The Dump/Xuxa/Xuxa.sm;
#HASMUSIC:1;
#HASBANNER:1;
#MUSICLENGTH:120.859;
// end cache tags

//---------------dance-single - @320 16----------------
#NOTES:
     dance-single:
     @320 16:
     Challenge:
     25:
     1.000,1.000,0.058,0.256,1.000,815.000,7.000,31.000,0.000,0.000:

0000
0000
0000
0000
,
0000
0000
0000
0000
,
0000
0000
0000
0000
,
0000
0000
0000
0000
,
1000
0000
0001
1000
0001
0000
1000
0000
0001
0000
0100
0001
0100
0010
0100
0000
,
0001
0000
1000
0100
0010
0001
1000
0100
0010
0001
0010
0001
1000
0001
0100
0000
,
0001
0000
0010
0100
1000
0000
0010
0000
0100
0000
0010
1000
0001
0010
0100
0000
,
0010
0000
0001
1000
0010
0100
0010
1000
0001
0100
0010
1000
0010
0100
0001
0000
,
1000
0000
0001
0100
0010
0000
1000
0001
0100
0000
0010
1000
0001
0000
0100
0000
,
0000
0001
0010
0100
0000
1000
0010
0000
,
1000
0000
0010
0100
0001
0000
1000
0100
0010
0000
0001
0010
0001
0000
0100
0000
,
0000
0000
0010
0000
0000
0000
1000
0000
0001
0000
1000
0010
0100
0001
1000
0010
,
0100
0000
0010
0100
0001
0000
1000
0100
0010
0000
0001
1000
0010
0000
0100
0000
,
0000
0001
0000
0100
0001
0000
1000
0000
,
0001
0000
0010
0100
0010
0000
0001
0010
0100
0000
1000
0001
0100
0000
0010
0000
,
0000
0000
0100
0000
0000
0010
1000
0000
0100
0000
0000
0010
0001
0000
1000
0000
,
0010
0000
0100
0001
0100
0000
0010
0100
0001
0000
1000
0001
0010
0000
0100
0000
,
0000
0010
0010
0001
0000
1000
0010
0000
,
0100
0000
0010
0100
0001
0000
1000
0001
0100
0000
0010
1000
0100
0000
1000
0000
,
0000
0000
0010
0000
0000
0000
0100
0000
0001
0000
0100
0010
1000
0001
0100
0010
,
0100
0000
0001
1000
0100
0000
1000
0100
0010
0000
0100
0010
0001
0000
0100
0000
,
0000
0000
0010
0000
1000
0000
0100
0000
0010
0000
0000
0001
0100
0000
0010
0000
,
0100
0000
0010
1000
0001
0000
1000
0100
0010
0000
0001
0100
0010
0000
1000
0000
,
0000
0000
0100
0000
0000
0010
0000
0000
0001
0000
0000
0100
0001
0000
1000
0000
,
2100
3000
0000
0000
0000
0000
0000
0000
0012
0003
0000
0000
0000
0000
0000
0000
1001
0000
0000
0000
0000
0000
0000
0000
1000
0000
0001
0000
1000
0000
0001
0000
,
1000
0000
0000
0000
0010
0000
0000
0000
2000
0000
3000
0010
1000
0000
1000
0000
,
0010
1000
0001
0100
0010
0000
0200
0000
0300
0000
0000
0010
1000
0000
0100
0000
,
0010
0001
1000
0010
0100
0001
2000
0000
3100
0010
0001
0000
0200
0010
0300
0000
,
0010
0000
0000
1000
0010
1000
0001
0000
0000
0000
0010
0000
0010
0000
0001
0000
,
1000
0010
0100
0001
1000
0001
0010
0100
2000
3000
0000
0000
0020
0000
0030
0000
,
0010
0000
0000
1000
0100
0000
0100
0000
0000
0000
0010
0000
0000
0000
0000
0000
,
0002
0000
0003
0000
0100
0000
0010
1000
0002
0000
0003
0000
0000
0000
0000
0000
,
0020
0030
0000
0020
0030
0000
0002
0003
,
1000
0000
0100
0000
0010
0000
0001
0000
1000
0000
0001
0000
1000
0000
0000
0000
0001
0100
0010
1000
0100
0010
0001
1000
0010
0100
0001
1000
0100
0010
0001
1000
,
0010
0100
0001
1000
0100
0010
0001
0100
0010
1000
0001
0010
0100
1000
0001
0100
0010
1000
0001
0010
0100
0010
0001
0100
0010
1000
0001
0010
0100
1000
0001
0100
,
0010
1000
0001
0010
0100
1000
0001
0100
0010
1000
0001
0010
0100
1000
0010
1000
0001
0010
0100
1000
0001
0100
0010
1000
0001
0010
0100
1000
0001
0100
0010
1000
,
0001
0010
0100
1000
0010
0100
0001
1000
0100
1000
0001
0100
0010
1000
0001
0010
0100
1000
0001
0100
0010
1000
0001
0010
0100
1000
0010
0100
0001
1000
0100
0010
,
0001
1000
0010
0100
0001
1000
0100
0010
0100
1000
0010
0100
0001
1000
0100
0010
0001
1000
0010
0100
0001
1000
0100
0010
0001
1000
0010
0100
0001
1000
0100
0010
,
0001
0100
0001
1000
0100
0010
0001
1000
0010
0100
0001
1000
0100
0010
0001
1000
0010
0100
0001
0010
0100
1000
0001
0100
0010
1000
0001
0010
0001
1000
0010
0100
,
0001
1000
0100
0010
0001
0100
0010
1000
0001
0010
0100
1000
0001
0100
0010
1000
0001
0010
0100
1000
0001
0100
0001
0010
0100
1000
0001
0100
0010
1000
0001
0010
,
0100
1000
0001
0100
0010
1000
0001
0010
0100
1000
0001
0100
0010
1000
0100
0010
0001
1000
0010
1000
0001
0010
0100
1000
0001
0100
0010
1000
0001
0010
0100
1000
,
0001
0100
0010
1000
0100
0010
0001
1000
0010
0100
0001
1000
0100
1000
0001
0010
0100
0000
0000
0000
1000
0000
0000
0000
0010
0000
0000
0000
1000
0000
0000
0000
,
0002
0000
0000
0000
0103
0000
0100
0000
0200
0000
0000
0000
0300
0000
0010
0100
,
0002
0000
0000
0000
0013
0000
0000
0000
0001
0100
0001
1000
0100
1000
0001
0000
,
0020
0000
0000
0230
0000
0000
2300
3000
0010
1000
0001
0100
0010
0100
0001
1000
,
0200
0300
0000
0000
2000
3000
0010
1000
,
0002
0000
0003
0000
0100
0000
0010
0000
2000
0000
3000
0000
0000
0000
0100
0010
,
0001
0000
0000
0000
0100
0000
0000
0000
0010
1000
0001
1000
0100
1000
0001
0000
,
0020
0000
0030
0001
0000
0000
0100
0000
0020
0000
0000
0000
0030
0000
0000
0000
,
0100
0000
0000
0000
0100
0000
0000
0000
1001
0000
0010
1000
0001
0000
0001
0000
,
0120
0000
1030
0000
0010
0000
0010
0000
1002
0000
0000
0000
0003
0000
0100
0010
,
2000
0000
0000
0000
3002
0000
0000
0000
0203
0000
0310
0100
0001
0000
0001
0000
,
0100
0000
0000
0010
0000
0000
0010
0000
0010
1000
0001
0100
0001
1000
0001
0010
,
0200
0000
0000
0000
0300
0000
0000
0000
0000
0000
0000
0000
0000
0000
0000
0000
0100
0000
0000
0000
0000
0000
0010
0000
1000
0000
0000
0000
0000
0000
1000
0000
,
0100
0000
0000
0100
0001
0000
0000
0001
0100
0000
0000
0100
1000
0000
0000
1000
,
0010
0000
0000
0010
1000
0000
0010
1000
0001
0100
0000
0010
0000
0000
0000
1000
,
0100
0000
0000
0100
0001
0000
0000
0001
0100
0000
0000
0100
1000
0000
0000
1000
,
0010
0000
0000
0010
0100
0000
0001
0100
0010
1000
0000
0001
0100
0000
0000
0100
,
1000
0000
0000
1000
0100
0000
0000
0100
0001
0000
0000
0001
0010
0000
0000
0100
,
1000
0000
0000
1000
0001
0000
0100
0010
1000
0010
0000
1000
0001
0000
0000
0001
,
0010
0000
0100
1000
0001
1000
0000
0010
0100
0000
0000
0000
0000
0000
0000
0000
,
1000
0010
1000
0001
1000
0100
1000
0001
0100
0000
0001
0100
0010
0000
1000
0001
,
0010
0000
0100
0010
0100
0000
1000
0000
0000
0000
0001
0000
0100
0000
0010
0000
,
0000
0000
1000
0000
0100
0000
0000
0000
1000
0000
0010
0100
0001
0000
0100
0010
,
1000
0000
0010
0100
0001
0000
1000
0000
0000
0000
0100
0000
0000
0000
1000
0000
,
1000
0000
0001
1000
0010
1000
0010
0100
0001
0000
0010
0001
1000
0000
0010
0100
,
0001
0000
0100
0010
1000
0000
0100
0000
0000
0000
0010
0000
0000
0000
0001
0000
,
1000
0000
0000
0000
0001
0000
0000
0000
0100
0000
0010
0100
0001
0000
0100
0010
,
0100
0000
0001
0100
0001
0000
1000
0000
0000
0000
0100
0000
0000
0100
1000
0000
,
1000
0000
0000
0010
0100
0000
0001
0000
1000
0000
0001
0100
0010
0000
1000
0001
,
1000
0000
0010
1000
0010
0000
0100
0000
0000
0000
0001
0000
0001
0000
0001
0000
,
0000
0000
1000
0000
0100
0000
0000
0000
1000
0000
0010
0100
0001
0000
0100
0010
,
1000
0000
0010
0100
0001
0000
0010
0000
0000
0000
0010
0000
0000
0000
0010
0000
,
0001
0000
0100
0010
1000
0001
1000
0100
0010
0000
0100
0010
0001
0000
0100
0010
,
1000
0000
0100
0010
0100
0000
0010
0000
0000
0000
0010
0000
0000
0000
0010
0000
,
0001
0000
0000
0000
1000
0000
0000
0000
0010
0000
0100
0010
1000
0000
0010
0100
,
0010
0000
1000
0001
0010
0000
0100
0000
0000
0000
0100
0000
0000
1000
0001
0000
,
1000
0000
0000
0001
1000
0000
0001
0000
0000
0000
0000
0000
0000
0000
0000
0000
,
0000
0000
0000
0000
0000
0000
0000
0000
0000
0000
0000
0000
0000
0000
0000
0000
0000
0000
0000
0000
0000
0000
0000
0000
0000
0000
0000
0000
0000
0000
0000
0000
0000
0000
0000
0000
0000
0000
0000
0000
0000
0000
0000
0000
0000
0000
0000
0000
1001
0000
0000
0000
0000
0000
0000
0000
0000
0000
0000
0000
0000
0000
0000
0000
;

//---------------dance-single - @280 14----------------
#NOTES:
     dance-single:
     @280 14:
     Hard:
     21:
     0.970,1.000,0.058,0.256,1.000,783.000,7.000,31.000,0.000,0.000:
0000
0000
0000
0000
,
0000
0000
0000
0000
,
0000
0000
0000
0000
,
0000
0000
0000
0000
,
1000
0000
0001
1000
0001
0000
1000
0000
0001
0000
0100
0001
0100
0010
0100
0000
,
0001
0000
1000
0100
0010
0001
1000
0100
0010
0001
0010
0001
1000
0001
0100
0000
,
0001
0000
0010
0100
1000
0000
0010
0000
0100
0000
0010
1000
0001
0010
0100
0000
,
0010
0000
0001
1000
0010
0100
0010
1000
0001
0100
0010
1000
0010
0100
0001
0000
,
1000
0000
0001
0100
0010
0000
1000
0001
0100
0000
0010
1000
0001
0000
0100
0000
,
0000
0001
0010
0100
0000
1000
0010
0000
,
1000
0000
0010
0100
0001
0000
1000
0100
0010
0000
0001
0010
0001
0000
0100
0000
,
0000
0000
0010
0000
0000
0000
1000
0000
0001
0000
1000
0010
0100
0001
1000
0010
,
0100
0000
0010
0100
0001
0000
1000
0100
0010
0000
0001
1000
0010
0000
0100
0000
,
0000
0001
0000
0100
0001
0000
1000
0000
,
0001
0000
0010
0100
0010
0000
0001
0010
0100
0000
1000
0001
0100
0000
0010
0000
,
0000
0000
0100
0000
0000
0010
1000
0000
0100
0000
0000
0010
0001
0000
1000
0000
,
0010
0000
0100
0001
0100
0000
0010
0100
0001
0000
1000
0001
0010
0000
0100
0000
,
0000
0010
0010
0001
0000
1000
0010
0000
,
0100
0000
0010
0100
0001
0000
1000
0001
0100
0000
0010
1000
0100
0000
1000
0000
,
0000
0000
0010
0000
0000
0000
0100
0000
0001
0000
0100
0010
1000
0001
0100
0010
,
0100
0000
0001
1000
0100
0000
1000
0100
0010
0000
0100
0010
0001
0000
0100
0000
,
0000
0000
0010
0000
1000
0000
0100
0000
0010
0000
0000
0001
0100
0000
0010
0000
,
0100
0000
0010
1000
0001
0000
1000
0100
0010
0000
0001
0100
0010
0000
1000
0000
,
0000
0000
0100
0000
0000
0010
0000
0000
0001
0000
0000
0100
0001
0000
1000
0000
,
2100
3000
0000
0000
0000
0000
0000
0000
0012
0003
0000
0000
0000
0000
0000
0000
1001
0000
0000
0000
0000
0000
0000
0000
1000
0000
0001
0000
1000
0000
0001
0000
,
1000
0000
0000
0000
0010
0000
0000
0000
2000
0000
3000
0010
1000
0000
1000
0000
,
0010
1000
0001
0100
0010
0000
0200
0000
0300
0000
0000
0010
1000
0000
0100
0000
,
0010
0001
1000
0010
0100
0001
2000
0000
3100
0010
0001
0000
0200
0010
0300
0000
,
0010
0000
0000
1000
0010
1000
0001
0000
0000
0000
0010
0000
0010
0000
0001
0000
,
1000
0010
0100
0001
1000
0001
0010
0100
2000
3000
0000
0000
0020
0000
0030
0000
,
0010
0000
0000
1000
0100
0000
0100
0000
0000
0000
0010
0000
0000
0000
0000
0000
,
0002
0000
0003
0000
0100
0000
0010
1000
0002
0000
0003
0000
0000
0000
0000
0000
,
0020
0030
0000
0020
0030
0000
0002
0003
,
1000
0000
0000
0000
0000
0000
0000
0000
0000
0000
0000
0000
0100
0000
0000
0000
0000
0000
0000
0000
0000
0000
0000
0000
0010
0000
0000
0000
0000
0000
0000
0000
0000
0000
0000
0000
0001
0000
0000
0000
0000
0000
0000
0000
0000
0000
0000
0000
1000
0000
0000
0000
0000
0000
0000
0000
0000
0000
0000
0000
0001
0000
0000
0000
0000
0000
0000
0000
0000
0000
0000
0000
1000
0000
0000
0000
0000
0000
0000
0000
0000
0000
0000
0000
0000
0000
0000
0000
0000
0000
0000
0000
0000
0000
0000
0000
0001
0000
0000
0000
0000
0000
0000
1000
0000
0000
0000
0000
0000
0000
0100
0000
0000
0000
0000
0000
0000
0010
0000
0000
0000
0000
0000
0100
0000
0000
0000
0000
0000
0000
1000
0000
0000
0000
0000
0000
0000
0010
0000
0000
0000
0000
0000
0000
0100
0000
0000
0000
0000
0000
0000
0001
0000
0000
0000
0000
0000
0000
1000
0000
0000
0000
0000
0000
0000
0100
0000
0000
0000
0000
0000
0010
0000
0000
0000
0000
0000
0000
0001
0000
0000
0000
0000
0000
0000
1000
0000
0000
0000
0000
0000
0000
,
0010
0000
0000
0000
0000
0000
0000
0100
0000
0000
0000
0000
0000
0000
0001
0000
0000
0000
0000
0000
0000
1000
0000
0000
0000
0000
0000
0100
0000
0000
0000
0000
0000
0000
0010
0000
0000
0000
0000
0000
0000
0001
0000
0000
0000
0000
0000
0000
1000
0000
0000
0000
0000
0000
0000
0010
0000
0000
0000
0000
0000
0000
0100
0000
0000
0000
0000
0000
0000
0001
0000
0000
0000
0000
0000
0010
0000
0000
0000
0000
0000
0000
0100
0000
0000
0000
0000
0000
0000
1000
0000
0000
0000
0000
0000
0000
0001
0000
0000
0000
0000
0000
0000
0100
0000
0000
0000
0000
0000
0000
0010
0000
0000
0000
0000
0000
0000
1000
0000
0000
0000
0000
0000
0001
0000
0000
0000
0000
0000
0000
0010
0000
0000
0000
0000
0000
0000
0001
0000
0000
0000
0000
0000
0000
1000
0000
0000
0000
0000
0000
0000
0010
0000
0000
0000
0000
0000
0000
0100
0000
0000
0000
0000
0000
0000
0001
0000
0000
0000
0000
0000
1000
0000
0000
0000
0000
0000
0000
0100
0000
0000
0000
0000
0000
0000
0010
0000
0000
0000
0000
0000
0000
,
0001
0000
0000
0000
0000
0000
0000
1000
0000
0000
0000
0000
0000
0000
0010
0000
0000
0000
0000
0000
0000
0100
0000
0000
0000
0000
0000
0001
0000
0000
0000
0000
0000
0000
0010
0000
0000
0000
0000
0000
0000
0100
0000
0000
0000
0000
0000
0000
1000
0000
0000
0000
0000
0000
0000
0001
0000
0000
0000
0000
0000
0000
0100
0000
0000
0000
0000
0000
0000
0010
0000
0000
0000
0000
0000
1000
0000
0000
0000
0000
0000
0000
0001
0000
0000
0000
0000
0000
0000
0010
0000
0000
0000
0000
0000
0000
0100
0000
0000
0000
0000
0000
0000
1000
0000
0000
0000
0000
0000
0000
0001
0000
0000
0000
0000
0000
0000
0100
0000
0000
0000
0000
0000
0010
0000
0000
0000
0000
0000
0000
1000
0000
0000
0000
0000
0000
0000
0001
0000
0000
0000
0000
0000
0000
1000
0000
0000
0000
0000
0000
0000
0100
0000
0000
0000
0000
0000
0000
0010
0000
0000
0000
0000
0000
0000
0001
0000
0000
0000
0000
0000
0100
0000
0000
0000
0000
0000
0000
0010
0000
0000
0000
0000
0000
0000
1000
0000
0000
0000
0000
0000
0000
,
0001
0000
0000
0000
0000
0000
0000
0010
0000
0000
0000
0000
0000
0000
0100
0000
0000
0000
0000
0000
0000
1000
0000
0000
0000
0000
0000
0001
0000
0000
0000
0000
0000
0000
0100
0000
0000
0000
0000
0000
0000
0010
0000
0000
0000
0000
0000
0000
1000
0000
0000
0000
0000
0000
0000
0001
0000
0000
0000
0000
0000
0000
0010
0000
0000
0000
0000
0000
0000
0100
0000
0000
0000
0000
0000
1000
0000
0000
0000
0000
0000
0000
0001
0000
0000
0000
0000
0000
0000
0100
0000
0000
0000
0000
0000
0000
0010
0000
0000
0000
0000
0000
0000
1000
0000
0000
0000
0000
0000
0000
0001
0000
0000
0000
0000
0000
0000
0010
0000
0000
0000
0000
0000
0100
0000
0000
0000
0000
0000
0000
1000
0000
0000
0000
0000
0000
0000
0010
0000
0000
0000
0000
0000
0000
1000
0000
0000
0000
0000
0000
0000
0001
0000
0000
0000
0000
0000
0000
0010
0000
0000
0000
0000
0000
0000
0100
0000
0000
0000
0000
0000
1000
0000
0000
0000
0000
0000
0000
0001
0000
0000
0000
0000
0000
0000
0100
0000
0000
0000
0000
0000
0000
,
0010
0000
0000
0000
0000
0000
0000
1000
0000
0000
0000
0000
0000
0000
0001
0000
0000
0000
0000
0000
0000
0010
0000
0000
0000
0000
0000
0100
0000
0000
0000
0000
0000
0000
1000
0000
0000
0000
0000
0000
0000
0001
0000
0000
0000
0000
0000
0000
0100
0000
0000
0000
0000
0000
0000
0010
0000
0000
0000
0000
0000
0000
1000
0000
0000
0000
0000
0000
0000
0001
0000
0000
0000
0000
0000
0010
0000
0000
0000
0000
0000
0000
0100
0000
0000
0000
0000
0000
0000
1000
0000
0000
0000
0000
0000
0000
0010
0000
0000
0000
0000
0000
0000
0100
0000
0000
0000
0000
0000
0000
0001
0000
0000
0000
0000
0000
0000
1000
0000
0000
0000
0000
0000
0100
0000
0000
0000
0000
0000
0000
1000
0000
0000
0000
0000
0000
0000
0001
0000
0000
0000
0000
0000
0000
0100
0000
0000
0000
0000
0000
0000
0010
0000
0000
0000
0000
0000
0000
1000
0000
0000
0000
0000
0000
0000
0001
0000
0000
0000
0000
0000
0010
0000
0000
0000
0000
0000
0000
0100
0000
0000
0000
0000
0000
0000
1000
0000
0000
0000
0000
0000
0000
,
0001
0000
0000
0000
0000
0000
0000
0100
0000
0000
0000
0000
0000
0000
0010
0000
0000
0000
0000
0000
0000
1000
0000
0000
0000
0000
0000
0001
0000
0000
0000
0000
0000
0000
0010
0000
0000
0000
0000
0000
0000
0100
0000
0000
0000
0000
0000
0000
1000
0000
0000
0000
0000
0000
0000
0010
0000
0000
0000
0000
0000
0000
0100
0000
0000
0000
0000
0000
0000
0001
0000
0000
0000
0000
0000
1000
0000
0000
0000
0000
0000
0000
0100
0000
0000
0000
0000
0000
0000
0010
0000
0000
0000
0000
0000
0000
0001
0000
0000
0000
0000
0000
0000
1000
0000
0000
0000
0000
0000
0000
0010
0000
0000
0000
0000
0000
0000
0100
0000
0000
0000
0000
0000
0010
0000
0000
0000
0000
0000
0000
1000
0000
0000
0000
0000
0000
0000
0001
0000
0000
0000
0000
0000
0000
0010
0000
0000
0000
0000
0000
0000
0100
0000
0000
0000
0000
0000
0000
1000
0000
0000
0000
0000
0000
0000
0001
0000
0000
0000
0000
0000
0100
0000
0000
0000
0000
0000
0000
0010
0000
0000
0000
0000
0000
0000
1000
0000
0000
0000
0000
0000
0000
,
0100
0000
0000
0000
0000
0000
0000
0010
0000
0000
0000
0000
0000
0000
0001
0000
0000
0000
0000
0000
0000
1000
0000
0000
0000
0000
0000
0010
0000
0000
0000
0000
0000
0000
0100
0000
0000
0000
0000
0000
0000
0001
0000
0000
0000
0000
0000
0000
1000
0000
0000
0000
0000
0000
0000
0100
0000
0000
0000
0000
0000
0000
0010
0000
0000
0000
0000
0000
0000
0001
0000
0000
0000
0000
0000
1000
0000
0000
0000
0000
0000
0000
0010
0000
0000
0000
0000
0000
0000
0100
0000
0000
0000
0000
0000
0000
0001
0000
0000
0000
0000
0000
0000
1000
0000
0000
0000
0000
0000
0000
0001
0000
0000
0000
0000
0000
0000
0010
0000
0000
0000
0000
0000
0100
0000
0000
0000
0000
0000
0000
1000
0000
0000
0000
0000
0000
0000
0010
0000
0000
0000
0000
0000
0000
0100
0000
0000
0000
0000
0000
0000
0001
0000
0000
0000
0000
0000
0000
1000
0000
0000
0000
0000
0000
0000
0100
0000
0000
0000
0000
0000
0010
0000
0000
0000
0000
0000
0000
0001
0000
0000
0000
0000
0000
0000
1000
0000
0000
0000
0000
0000
0000
,
0010
0000
0000
0000
0000
0000
0000
0100
0000
0000
0000
0000
0000
0000
0001
0000
0000
0000
0000
0000
0000
1000
0000
0000
0000
0000
0000
0100
0000
0000
0000
0000
0000
0000
0010
0000
0000
0000
0000
0000
0000
0001
0000
0000
0000
0000
0000
0000
1000
0000
0000
0000
0000
0000
0000
0010
0000
0000
0000
0000
0000
0000
0100
0000
0000
0000
0000
0000
0000
0001
0000
0000
0000
0000
0000
1000
0000
0000
0000
0000
0000
0000
0100
0000
0000
0000
0000
0000
0000
0010
0000
0000
0000
0000
0000
0000
0001
0000
0000
0000
0000
0000
0000
0100
0000
0000
0000
0000
0000
0000
0010
0000
0000
0000
0000
0000
0000
1000
0000
0000
0000
0000
0000
0001
0000
0000
0000
0000
0000
0000
0010
0000
0000
0000
0000
0000
0000
0001
0000
0000
0000
0000
0000
0000
1000
0000
0000
0000
0000
0000
0000
0010
0000
0000
0000
0000
0000
0000
0100
0000
0000
0000
0000
0000
0000
0001
0000
0000
0000
0000
0000
1000
0000
0000
0000
0000
0000
0000
0100
0000
0000
0000
0000
0000
0000
0010
0000
0000
0000
0000
0000
0000
,
0001
0000
0000
0000
0000
0000
0000
1000
0000
0000
0000
0000
0000
0000
0010
0000
0000
0000
0000
0000
0000
0100
0000
0000
0000
0000
0000
0001
0000
0000
0000
0000
0000
0000
0010
0000
0000
0000
0000
0000
0000
0100
0000
0000
0000
0000
0000
0000
1000
0000
0000
0000
0000
0000
0000
0001
0000
0000
0000
0000
0000
0000
0100
0000
0000
0000
0000
0000
0000
0010
0000
0000
0000
0000
0000
1000
0000
0000
0000
0000
0000
0000
0001
0000
0000
0000
0000
0000
0000
0010
0000
0000
0000
0000
0000
0000
0100
0000
0000
0000
0000
0000
0000
0000
0000
0000
0000
0000
0000
0000
0000
0000
0000
0000
0000
0000
0000
0000
0000
0000
1000
0000
0000
0000
0000
0000
0000
0000
0000
0000
0000
0000
0000
0000
0000
0000
0000
0000
0000
0000
0000
0000
0000
0000
0010
0000
0000
0000
0000
0000
0000
0000
0000
0000
0000
0000
0000
0000
0000
0000
0000
0000
0000
0000
0000
0000
0000
0000
1000
0000
0000
0000
0000
0000
0000
0000
0000
0000
0000
0000
0000
0000
0000
0000
0000
0000
0000
0000
0000
0000
0000
0000
,
0002
0000
0000
0000
0103
0000
0100
0000
0200
0000
0000
0000
0300
0000
0010
0100
,
0002
0000
0000
0000
0013
0000
0000
0000
0001
0100
0001
1000
0100
1000
0001
0000
,
0020
0000
0000
0230
0000
0000
2300
3000
0010
1000
0001
0100
0010
0100
0001
1000
,
0200
0300
0000
0000
2000
3000
0010
1000
,
0002
0000
0003
0000
0100
0000
0010
0000
2000
0000
3000
0000
0000
0000
0100
0010
,
0001
0000
0000
0000
0100
0000
0000
0000
0010
1000
0001
1000
0100
1000
0001
0000
,
0020
0000
0030
0001
0000
0000
0100
0000
0020
0000
0000
0000
0030
0000
0000
0000
,
0100
0000
0000
0000
0100
0000
0000
0000
1001
0000
0010
1000
0001
0000
0001
0000
,
0120
0000
1030
0000
0010
0000
0010
0000
1002
0000
0000
0000
0003
0000
0100
0010
,
2000
0000
0000
0000
3002
0000
0000
0000
0203
0000
0310
0100
0001
0000
0001
0000
,
0100
0000
0000
0010
0000
0000
0010
0000
0010
1000
0001
0100
0001
1000
0001
0010
,
0200
0000
0000
0000
0300
0000
0000
0000
0000
0000
0000
0000
0000
0000
0000
0000
0100
0000
0000
0000
0000
0000
0010
0000
1000
0000
0000
0000
0000
0000
1000
0000
,
0100
0000
0000
0100
0001
0000
0000
0001
0100
0000
0000
0100
1000
0000
0000
1000
,
0010
0000
0000
0010
1000
0000
0010
1000
0001
0100
0000
0010
0000
0000
0000
1000
,
0100
0000
0000
0100
0001
0000
0000
0001
0100
0000
0000
0100
1000
0000
0000
1000
,
0010
0000
0000
0010
0100
0000
0001
0100
0010
1000
0000
0001
0100
0000
0000
0100
,
1000
0000
0000
1000
0100
0000
0000
0100
0001
0000
0000
0001
0010
0000
0000
0100
,
1000
0000
0000
1000
0001
0000
0100
0010
1000
0010
0000
1000
0001
0000
0000
0001
,
0010
0000
0100
1000
0001
1000
0000
0010
0100
0000
0000
0000
0000
0000
0000
0000
,
1000
0010
1000
0001
1000
0100
1000
0001
0100
0000
0001
0100
0010
0000
1000
0001
,
0010
0000
0100
0010
0100
0000
1000
0000
0000
0000
0001
0000
0100
0000
0010
0000
,
0000
0000
1000
0000
0100
0000
0000
0000
1000
0000
0010
0100
0001
0000
0100
0010
,
1000
0000
0010
0100
0001
0000
1000
0000
0000
0000
0100
0000
0000
0000
1000
0000
,
1000
0000
0001
1000
0010
1000
0010
0100
0001
0000
0010
0001
1000
0000
0010
0100
,
0001
0000
0100
0010
1000
0000
0100
0000
0000
0000
0010
0000
0000
0000
0001
0000
,
1000
0000
0000
0000
0001
0000
0000
0000
0100
0000
0010
0100
0001
0000
0100
0010
,
0100
0000
0001
0100
0001
0000
1000
0000
0000
0000
0100
0000
0000
0100
1000
0000
,
1000
0000
0000
0010
0100
0000
0001
0000
1000
0000
0001
0100
0010
0000
1000
0001
,
1000
0000
0010
1000
0010
0000
0100
0000
0000
0000
0001
0000
0001
0000
0001
0000
,
0000
0000
1000
0000
0100
0000
0000
0000
1000
0000
0010
0100
0001
0000
0100
0010
,
1000
0000
0010
0100
0001
0000
0010
0000
0000
0000
0010
0000
0000
0000
0010
0000
,
0001
0000
0100
0010
1000
0001
1000
0100
0010
0000
0100
0010
0001
0000
0100
0010
,
1000
0000
0100
0010
0100
0000
0010
0000
0000
0000
0010
0000
0000
0000
0010
0000
,
0001
0000
0000
0000
1000
0000
0000
0000
0010
0000
0100
0010
1000
0000
0010
0100
,
0010
0000
1000
0001
0010
0000
0100
0000
0000
0000
0100
0000
0000
1000
0001
0000
,
1000
0000
0000
0001
1000
0000
0001
0000
0000
0000
0000
0000
0000
0000
0000
0000
,
0000
0000
0000
0000
0000
0000
0000
0000
0000
0000
0000
0000
0000
0000
0000
0000
0000
0000
0000
0000
0000
0000
0000
0000
0000
0000
0000
0000
0000
0000
0000
0000
0000
0000
0000
0000
0000
0000
0000
0000
0000
0000
0000
0000
0000
0000
0000
0000
1001
0000
0000
0000
0000
0000
0000
0000
0000
0000
0000
0000
0000
0000
0000
0000
;
