#TITLE:A;
#SUBTITLE:;
#ARTIST:DJ Amuro;
#TITLETRANSLIT:;
#SUBTITLETRANSLIT:;
#ARTISTTRANSLIT:;
#CREDIT:;
#BANNER:a.png;
#BACKGROUND:a-bg.png;
#LYRICSPATH:;
#CDTITLE:;
#MUSIC:A.mp3;
#OFFSET:2.500;
#SAMPLESTART:59.317;
#SAMPLELENGTH:12.000;
#SELECTABLE:YES;
#BPMS:0.000=93.000,87.500=80.000,87.750=70.000,88.000=60.000,88.250=50.000,88.500=45.000,88.750=24.000,89.000=191.000;
#STOPS:;
#BGCHANGES:;
// cache tags:
#FIRSTBEAT:4.000;
#LASTBEAT:292.000;
#SONGFILENAME:Songs/IzzySM Keyboard Mega Pack/A/A.sm;
#HASMUSIC:1;
#HASBANNER:1;
#MUSICLENGTH:124.006;
// end cache tags

//---------------dance-single - ----------------
#NOTES:
     dance-single:
     :
     Easy:
     3:
     0.294,0.294,0.016,0.040,0.020,248.000,2.000,5.000,0.000,0.000:  // measure 1
0000
0000
0000
0000
,  // measure 2
1000
0000
1000
0000
0000
0010
0000
0100
,  // measure 3
1000
0000
0100
0000
0000
0010
0000
0010
,  // measure 4
1000
0000
0100
0000
0000
1000
0000
0100
,  // measure 5
0010
1000
0000
1000
,  // measure 6
1000
0000
0100
0000
0000
0001
0000
0010
,  // measure 7
1000
0000
0100
0000
0000
0010
0000
0100
,  // measure 8
0010
0000
0000
0000
0100
0000
0000
0000
0000
0000
0100
0000
0000
0000
0000
0000
0000
0000
0000
0000
0000
0010
0000
0000
,  // measure 9
1000
0100
1000
0001
,  // measure 10
1000
0010
0000
0000
,  // measure 11
1000
0000
0001
0000
,  // measure 12
0100
0000
0010
0000
0000
0000
0000
0010
,  // measure 13
0000
0000
0100
0010
,  // measure 14
1000
0010
0000
0010
,  // measure 15
0000
0000
0000
0100
,  // measure 16
0001
0000
0100
0000
0000
0100
0000
0000
0000
0000
0000
0000
,  // measure 17
0001
0100
0100
0000
,  // measure 18
1000
0000
0010
0000
0100
0000
0000
0100
,  // measure 19
0001
0010
0100
1000
,  // measure 20
1000
0000
0100
0000
1000
0000
0000
1000
,  // measure 21
0001
0100
0001
0100
,  // measure 22
1000
0000
0100
0000
1000
0001
0000
2002
,  // measure 23
0000
3003
1000
0010
,  // measure 24
0000
0010
0100
0010
,  // measure 25
0000
1000
1000
0100
,  // measure 26
0000
1000
0010
0100
,  // measure 27
0000
0001
0001
0010
,  // measure 28
0000
1000
0001
1000
,  // measure 29
0000
0001
0001
0100
,  // measure 30
0000
1000
0001
0100
,  // measure 31
0000
0010
0100
1000
,  // measure 32
0000
1000
0010
0100
,  // measure 33
0000
0001
0001
0010
,  // measure 34
0000
0001
0100
0010
,  // measure 35
0000
1000
1000
0000
,  // measure 36
0000
0001
1000
0001
,  // measure 37
0000
1000
1000
0010
,  // measure 38
0000
0001
1000
0010
,  // measure 39
0000
0010
1000
1000
,  // measure 40
0100
0100
0010
0100
,  // measure 41
1000
0100
0001
0000
,  // measure 42
0100
0100
0010
0010
,  // measure 43
0100
0001
1000
0001
,  // measure 44
0010
1000
0001
0100
,  // measure 45
1000
0001
0100
0000
,  // measure 46
1000
0000
0010
0001
,  // measure 47
1000
0010
1000
1000
,  // measure 48
0100
0100
0010
0100
,  // measure 49
1000
0000
0000
0000
0100
0000
0000
0000
0001
0000
0000
0000
0000
0001
0000
0000
,  // measure 50
0100
0100
0010
0010
,  // measure 51
0100
0001
1000
0001
,  // measure 52
0010
1000
0001
0100
,  // measure 53
1000
0001
0100
0000
,  // measure 54
1000
0001
0020
0030
,  // measure 55
1000
1000
1000
0000
,  // measure 56
0010
1000
0010
0010
,  // measure 57
0100
0100
1000
0100
,  // measure 58
0100
0100
0100
0100
,  // measure 59
0100
0100
0010
0100
,  // measure 60
0100
0100
0100
0100
,  // measure 61
0100
0100
0100
0100
,  // measure 62
0100
0100
0100
0100
,  // measure 63
0100
0100
0100
0100
,  // measure 64
0100
0100
0100
0100
,  // measure 65
0100
0100
0100
0100
,  // measure 66
0100
0010
0100
0000
,  // measure 67
0010
0010
0010
0010
,  // measure 68
0010
0010
0010
0100
,  // measure 69
0001
0001
0001
0100
,  // measure 70
0001
0100
0001
0010
,  // measure 71
0001
0010
0001
0100
,  // measure 72
0001
0100
0001
0010
,  // measure 73
0001
0010
2002
0000
,  // measure 74
3003
0000
0000
0000
;

//---------------dance-single - ----------------
#NOTES:
     dance-single:
     :
     Medium:
     8:
     0.536,0.500,0.032,0.040,0.028,456.000,4.000,5.000,0.000,0.000:  // measure 1
0000
0000
0000
0000
,  // measure 2
1000
0100
1000
0001
0000
0010
0000
0100
,  // measure 3
1000
0001
0100
0001
0000
0010
0001
0010
,  // measure 4
1000
0010
0100
0010
0000
1000
0000
0100
,  // measure 5
0010
0100
1000
0000
0000
0010
1000
0010
,  // measure 6
1000
0010
0100
0010
1000
0001
1000
0010
,  // measure 7
1000
0001
0100
0001
1000
0010
1000
0100
,  // measure 8
0010
0000
0000
0000
0100
0000
0000
0000
0000
0000
0100
0000
0000
0000
0000
0000
0000
0000
0000
0000
0000
0010
0000
0000
,  // measure 9
1000
0100
1000
0001
,  // measure 10
1001
0100
0010
0000
0000
0000
0000
0000
,  // measure 11
1000
0000
0001
0000
,  // measure 12
0100
1000
0010
0000
0000
0000
0000
0010
,  // measure 13
0000
0000
0000
0010
0100
0001
0010
0100
,  // measure 14
1000
1000
0110
0001
0000
0100
0010
0000
,  // measure 15
0000
0000
0000
0000
0000
1000
0100
0010
,  // measure 16
0001
0000
0000
0000
0100
0000
0000
0000
0000
0000
0100
0000
0000
0000
0000
0000
0000
0000
0000
0000
0000
0010
0000
0000
,  // measure 17
0001
0100
0100
0000
,  // measure 18
1000
0001
0010
0001
0100
0010
0000
0100
,  // measure 19
0001
1000
0010
1000
0100
0010
1000
0010
,  // measure 20
1000
0010
0100
0001
1000
0001
0000
1000
,  // measure 21
0001
0010
0100
1000
0001
0010
0100
0010
,  // measure 22
1000
0010
0100
0010
1000
0001
0000
2002
,  // measure 23
0000
3003
1000
0010
,  // measure 24
0000
1000
0010
0000
0100
0010
0010
0100
,  // measure 25
0000
0010
1000
0000
1000
0000
0100
0000
,  // measure 26
0000
0001
1000
0000
0010
0100
0100
0010
,  // measure 27
0000
0100
0001
0000
0001
0000
0010
0000
,  // measure 28
0000
0001
1000
0000
0001
0010
1000
0100
,  // measure 29
0000
1000
0001
0000
0001
0000
0100
0000
,  // measure 30
0000
0001
1000
0000
0001
0010
0100
0001
,  // measure 31
0000
0001
0000
0000
0010
0000
0010
0000
0100
0000
0000
0000
1000
0000
0000
0000
,  // measure 32
0000
0001
1000
0001
0010
0100
0100
0010
,  // measure 33
0000
0100
0001
1000
0001
0000
0010
0000
,  // measure 34
0000
1000
0001
1000
0100
0010
0010
0100
,  // measure 35
0000
0010
1000
0001
1000
0001
0000
0000
,  // measure 36
0000
1000
0001
0000
1000
0100
0001
0010
,  // measure 37
0000
0001
1000
0010
1000
0000
0010
0000
,  // measure 38
0000
0000
1000
0000
0001
0000
0000
0000
1000
0000
0100
0000
0010
0000
0000
0010
,  // measure 39
0000
0100
0010
0010
1000
1000
1000
0001
,  // measure 40
0100
0010
0100
0000
0010
0001
0100
0001
,  // measure 41
1000
0001
0100
1000
0001
1000
0000
0100
,  // measure 42
0100
0001
0100
0000
0010
1000
0010
1000
,  // measure 43
0100
0100
0001
0100
0001
1000
0001
0100
,  // measure 44
0010
0000
1000
0100
0001
1000
0100
0001
,  // measure 45
1000
1000
0001
0001
0100
0010
0000
0010
,  // measure 46
1000
0010
0000
1000
0010
0010
0001
0001
,  // measure 47
1000
1000
0010
0010
1000
1000
1000
0001
,  // measure 48
0100
0010
0100
0000
0010
0001
0100
0001
,  // measure 49
1000
0000
0001
0000
0100
0000
1000
0000
0001
0000
1000
0000
0000
0001
1000
0000
,  // measure 50
0100
0001
0100
0000
0010
1000
0010
1000
,  // measure 51
0100
0100
0001
0100
0001
1000
0001
0100
,  // measure 52
0010
0000
1000
0100
0001
1000
0100
0001
,  // measure 53
1000
1000
0001
0001
0100
0010
0000
0010
,  // measure 54
1000
0010
0000
1000
0020
0000
0030
0000
,  // measure 55
1000
0010
1000
0100
1000
0000
0000
0000
,  // measure 56
0010
0100
1000
0100
0010
0001
0010
0010
,  // measure 57
0100
0001
0100
0001
1000
0100
0001
0010
,  // measure 58
0001
0100
0001
1000
0001
0100
0001
0010
,  // measure 59
0001
0100
0001
0100
0010
0100
0001
1000
,  // measure 60
0001
0100
0001
0010
0100
1000
0001
0100
,  // measure 61
0001
0010
0100
1000
0100
0010
0001
1000
,  // measure 62
0001
0100
0001
1000
0001
0010
0001
1000
,  // measure 63
0001
0010
0001
1000
0001
0100
0001
1000
,  // measure 64
0001
0100
0001
1000
0001
0100
0001
1000
,  // measure 65
0001
0010
0001
1000
0001
0100
0001
0010
,  // measure 66
0001
1000
0100
0010
0001
0000
0000
0000
,  // measure 67
0001
0010
0001
0100
0001
1000
0001
0100
,  // measure 68
0001
0010
0001
1000
0001
1000
0100
0010
,  // measure 69
0001
0100
0001
0010
0001
0010
0100
1000
,  // measure 70
0001
0010
0100
1000
0001
0100
0010
1000
,  // measure 71
0001
0100
0010
1000
0001
0010
0100
1000
,  // measure 72
0001
0010
0100
1000
0001
0100
0010
1000
,  // measure 73
0001
0100
0010
0100
2002
0000
0000
0000
,  // measure 74
3003
0000
0000
0000
;

//---------------dance-single - ----------------
#NOTES:
     dance-single:
     :
     Hard:
     10:
     0.870,0.971,0.274,0.056,1.000,714.000,34.000,7.000,0.000,0.000:  // measure 1
0000
0000
0000
0000
,  // measure 2
1001
0100
1000
0100
0000
0010
0000
0100
,  // measure 3
1000
0000
0001
0000
0100
0000
0001
0000
0000
0000
0010
0000
1001
0000
0010
0100
,  // measure 4
1000
0010
0100
0010
0000
1000
0000
0100
,  // measure 5
0010
0100
1000
0000
0000
0010
1100
0010
,  // measure 6
1000
0010
0100
0010
1000
0001
1000
0010
,  // measure 7
1000
0001
0100
0001
1000
0010
1001
0100
,  // measure 8
0010
0000
0000
0000
0000
0000
0000
0000
0100
0000
0000
0000
0000
0000
0000
0000
0000
0000
0000
0000
0100
0000
0000
0000
0000
0000
0000
0000
0000
0000
0000
0000
0000
0000
0000
0000
0000
0000
0000
0000
0000
0000
0010
0000
0000
0001
0000
0000
,  // measure 9
1000
0000
0000
0000
0000
0000
0000
0000
0010
0000
0000
0000
0100
0000
0000
0000
0000
0000
0000
0000
0010
0000
0000
0000
1000
0000
0000
0000
0000
0000
0000
0000
0000
0000
0000
0000
0101
0000
0000
0000
0000
0000
0000
0000
0000
0010
0000
0000
,  // measure 10
1001
0000
0100
0000
0010
0000
0000
0000
0000
0000
0000
0000
0000
0000
0000
1000
,  // measure 11
1000
0000
0000
0000
0000
0000
0000
0001
0001
0000
0000
0000
0000
0000
0000
0100
,  // measure 12
0100
0000
1000
0000
0010
0000
0000
0000
0000
0000
0000
0000
0000
0000
0010
0001
,  // measure 13
0000
0000
0000
0000
0000
0000
0010
0000
0100
0010
0001
0000
0010
0000
0100
0000
,  // measure 14
1001
1001
0110
0001
0000
0100
0010
0000
,  // measure 15
0000
0000
0000
0000
0000
1000
0100
0010
,  // measure 16
0001
0000
0000
0000
0000
0000
0000
0000
0100
0000
0000
0000
0000
0000
0000
0000
0000
0000
0000
0000
0100
0000
0000
0000
0000
0000
0000
0000
0000
0000
0000
0000
0000
0000
0000
0000
0000
0000
0000
0000
0000
0000
0010
0000
0000
1000
0000
0000
,  // measure 17
0001
0000
0010
0100
0000
1000
0100
0000
0000
0000
0000
0000
,  // measure 18
2000
0001
0010
0001
0100
0010
0000
0100
,  // measure 19
3002
1000
0010
1000
0100
0010
1000
0010
,  // measure 20
1003
0010
0100
0001
1000
0011
0000
1100
,  // measure 21
0001
0010
0100
1000
0001
1010
0101
0010
,  // measure 22
1000
0010
0100
0010
1000
0101
0000
2002
,  // measure 23
0000
3003
1001
0011
,  // measure 24
0000
1000
0011
1000
0100
0010
0011
0100
,  // measure 25
0000
0010
1100
0001
1000
0000
1100
0000
,  // measure 26
0000
0001
1100
0001
0010
0100
1100
0010
,  // measure 27
0000
0000
0100
0000
0011
0000
1000
0000
0001
0000
1000
0001
0010
0000
0000
0000
,  // measure 28
0000
0000
0001
0000
1000
0010
1000
0000
0001
0000
0010
0100
1000
0000
0100
0000
,  // measure 29
0000
0000
1000
0000
0001
1000
0100
0010
0001
0000
1000
0001
0100
0000
0000
0000
,  // measure 30
0000
0000
0001
0000
1000
0100
1000
0000
0001
1000
0010
0000
0100
0000
0001
0010
,  // measure 31
0000
0001
0100
0000
0010
1000
0010
0000
0101
0000
0000
0000
1100
0000
0000
0000
,  // measure 32
0000
0001
1100
0001
0010
0100
1100
0010
,  // measure 33
0000
0100
0011
1000
0001
0000
0011
0000
,  // measure 34
0000
1000
0011
1000
0100
0010
0011
0100
,  // measure 35
0000
0000
0010
0000
1100
0000
0001
0000
1000
0000
0001
1000
0100
0000
0000
0000
,  // measure 36
0000
0000
1000
0000
0001
0100
0001
0000
1000
0000
0100
0010
0001
0000
0010
0000
,  // measure 37
0000
0000
0001
0000
1000
0001
0010
0100
1000
0000
0001
1000
0010
0000
0000
0000
,  // measure 38
0000
0000
1000
0000
0001
0010
0001
0000
1000
0001
0100
0000
0010
0000
1000
0010
,  // measure 39
0000
1000
0100
0000
0010
0001
0010
0000
1000
0100
1000
0001
1000
0000
0001
0010
,  // measure 40
0100
0000
0010
0000
0100
0010
0000
0100
0010
0000
0001
1000
0100
0010
0001
0000
,  // measure 41
1000
0000
0001
0010
0100
0000
1000
0000
0001
0010
1000
0010
0000
0001
0100
0010
,  // measure 42
0100
0000
0001
0000
0100
0010
0000
0100
0010
0000
1000
0100
0010
0001
1000
0000
,  // measure 43
0100
0010
0100
1000
0001
1000
0100
0010
0001
0100
1000
0100
0001
0000
0100
0000
,  // measure 44
0010
0100
0000
0001
1000
0000
0100
0010
0001
0000
1000
0010
0100
0000
0001
0000
,  // measure 45
1000
0010
1000
0000
0001
0100
0001
0000
0100
0001
0010
0001
0000
0100
0010
0000
,  // measure 46
1000
0000
0010
0100
0000
0001
1000
0001
0010
0100
0010
0000
0001
0100
0001
0000
,  // measure 47
1000
0100
1000
0000
0010
0100
0010
0000
1000
0100
1000
0001
1000
0000
0001
0010
,  // measure 48
0100
0000
0010
0000
0100
0010
0000
0100
0010
0000
0001
1000
0100
0010
0001
0000
,  // measure 49
1000
0000
0001
0010
0100
0000
1000
0000
0001
0010
1000
0010
0000
0001
1000
0010
,  // measure 50
0100
0000
0001
0000
0100
0010
0000
0100
0010
0000
1000
0100
0010
0001
1000
0000
,  // measure 51
0100
0010
0100
1000
0001
1000
0100
0010
0001
0100
1000
0100
0001
0000
0100
0000
,  // measure 52
0010
0100
0000
0001
1000
0000
0100
0010
0001
0000
1000
0010
0100
0000
0001
0000
,  // measure 53
1000
0010
1000
0000
0001
0100
0001
0000
0100
0001
0010
0001
0000
0100
0010
0000
,  // measure 54
1000
0000
0010
0100
0000
0001
1000
0001
0020
0000
0000
0000
0030
0000
0000
0000
,  // measure 55
1000
0100
0010
0001
1000
0010
0100
0001
1000
0000
0000
0000
0000
0000
0000
0000
,  // measure 56
0001
0010
0100
0010
0100
1000
0100
0010
0100
0010
0001
1000
0010
0100
0010
1000
,  // measure 57
0100
0010
0001
1000
0100
1000
0001
0100
0001
0010
0100
1000
0001
0100
0010
1000
,  // measure 58
0001
0010
0100
1000
0001
0100
0010
0100
0001
0010
0100
1000
0001
0010
0100
1000
,  // measure 59
0001
0010
0100
1000
0001
0010
0100
1000
0100
0010
0100
0010
0001
1000
0001
1000
,  // measure 60
0001
0100
0001
0100
0001
0010
0001
0010
0100
0010
0100
0010
0001
0100
0001
0100
,  // measure 61
0001
1000
0001
1000
0010
0100
0010
1000
0100
0010
0100
0010
0001
1000
0001
1000
,  // measure 62
0001
0100
0001
0100
0001
0010
0001
0010
0001
1000
0010
0100
0001
0100
0010
1000
,  // measure 63
0001
1000
0010
0100
0001
0100
0010
1000
0001
1000
0100
0010
0001
0010
0100
1000
,  // measure 64
0001
1000
0100
0010
0001
0010
0100
1000
0001
1000
0100
0010
0001
0010
0100
1000
,  // measure 65
0001
1000
0100
0010
0001
0010
0100
1000
0001
1000
0100
0010
0001
0010
0100
1000
,  // measure 66
0001
0100
0001
1000
0001
0010
0001
1000
0001
0000
0000
0000
0000
0000
0000
0000
,  // measure 67
0001
0100
0010
1000
0001
0010
0100
1000
0001
0010
0001
0100
0001
1000
0001
0100
,  // measure 68
0001
1000
0100
1000
0001
1000
0010
1000
0001
0010
0001
0100
0001
1000
0001
0100
,  // measure 69
0001
1000
0100
1000
0001
1000
0010
1000
0001
0010
0100
1000
0001
0010
0100
1000
,  // measure 70
0001
0010
0100
1000
0001
0010
0100
1000
0001
0100
0010
1000
0001
0100
0010
1000
,  // measure 71
0001
0100
0010
1000
0001
0100
0010
1000
0001
0010
0100
1000
0001
0010
0100
1000
,  // measure 72
0001
0010
0100
1000
0001
0010
0100
1000
0001
0100
0010
1000
0001
0100
0010
1000
,  // measure 73
0001
0100
0010
1000
0001
0100
0010
0000
2002
0000
0000
0000
0000
0000
0000
0000
,  // measure 74
3003
0000
0000
0000
;
