#TITLE:Prepare For War;
#SUBTITLE:;
#ARTIST:Dragonforce;
#TITLETRANSLIT:;
#SUBTITLETRANSLIT:;
#ARTISTTRANSLIT:;
#CREDIT:B. Abear;
#BANNER:Bn-War.png;
#BACKGROUND:Bg-War.png;
#LYRICSPATH:;
#CDTITLE:;
#MUSIC:Prepare For War.ogg;
#OFFSET:-2.322;
#SAMPLESTART:79.160;
#SAMPLELENGTH:20.000;
#SELECTABLE:YES;
#BPMS:0.000=200.000,392.000=100.000,393.000=200.000,543.000=144.000,795.000=200.000;
#STOPS:256.000=2.100
,309.000=0.900
,489.000=2.100
,542.000=0.910
,1103.000=0.900
;
#BGCHANGES:;
// cache tags:
#FIRSTBEAT:0.000;
#LASTBEAT:1115.250;
#SONGFILENAME:Songs/Dragonforce/Prepare For War/Prepare For War.sm;
#HASMUSIC:1;
#HASBANNER:1;
#MUSICLENGTH:375.405;
// end cache tags

//---------------dance-single - B. Abear----------------
#NOTES:
     dance-single:
     B. Abear:
     Challenge:
     14:
     1.000,1.000,0.328,0.373,1.000,2646.000,123.000,140.000,132.000,2.000:



1001
0000
0000
0000
0000
0000
0000
0000
0000
0000
0000
0000
0001
0000
0000
0000
0000
0000
0010
0000
0000
0000
0000
0000
0100
0000
0000
0000
0000
0000
0010
0000
0000
0000
0000
0000
0002
0000
0000
0000
0000
0000
0000
0000
0000
0000
0000
0003
,
1100
0000
0000
0000
0000
0000
0000
0000
0000
0000
0000
0000
1000
0000
0000
0000
0000
0000
0100
0000
0000
0000
0000
0000
0010
0000
0000
0000
0000
0000
0100
0000
0000
0000
0000
0000
2000
0000
0000
0000
0000
0000
0000
0000
0000
0000
0000
3000
,
0101
0000
0001
0100
0010
0100
0001
0000
,
0001
1000
0100
0010
0001
1000
0001
1000
0010
0100
0001
1000
0100
1000
0001
0000
,
0100
0010
1000
0001
1000
0100
0010
0100
1000
0001
1000
0001
0010
0100
1000
0000
,
0001
0100
0010
0100
0001
1000
0010
0100
0001
1000
0100
1000
0001
0100
0001
0000
,
1000
0001
0100
0010
1000
0001
0010
0100
1000
0001
0100
0001
0100
0010
1000
0001
,
1000
0010
0100
0001
1000
0010
0100
0001
1000
0010
1000
0010
1000
0001
1000
0001
,
0020
0000
0000
0000
0000
0000
0000
0000
0000
0031
0000
0000
0010
0000
0000
0010
0000
0000
0100
1000
0000
0001
0000
0000
,
0100
0000
0000
0100
0000
0000
0100
0000
0000
0001
0000
0000
0001
0000
0000
0001
0000
0000
1000
0100
0000
0010
0000
0000
,
0400
0000
0000
0310
0001
0001
1000
0010
,
0200
0300
0002
0023
0030
0200
0000
0000
,
2300
0000
0000
3001
0100
0100
0010
1000
,
0100
0200
0000
0310
0001
0001
1000
0100
,
2000
0000
0000
3001
0010
0001
0010
0100
,
1000
0001
0010
0100
1000
0001
0100
0001
1000
0010
0100
0010
1000
0001
0010
0001
,
2000
0000
0000
3010
0100
0100
0010
1000
,
0002
0000
0000
1003
0100
0100
1000
0010
,
0400
0000
0000
0310
1000
1000
0001
0010
,
0001
1000
0001
0000
0010
0000
0001
1000
0001
0000
0100
0000
0040
0000
0000
0000
,
2030
0000
0000
3001
0100
0100
0010
1000
,
0001
0001
0001
0010
0010
0010
0100
1000
,
0002
0000
0000
0103
0010
0010
1000
0100
,
0010
0001
1000
0010
0100
0001
1000
0100
0010
0001
0010
0001
1000
0010
1000
0010
,
0200
0000
0000
0000
0000
0000
0301
0000
0000
0001
0000
0000
0001
0000
1000
0000
0100
0000
0010
0000
0100
0000
1000
0000
,
1002
0000
0103
0100
0100
1001
0000
1001
,
0200
0000
0000
0000
0000
0000
0310
0000
0000
0010
0000
0000
0010
0000
1000
0000
0001
0000
0010
0000
0100
0000
1000
0000
,
0001
0100
0010
1000
0001
0010
0100
1000
0001
1000
0010
1000
0001
0010
0100
1000
,
0002
0000
0000
0000
0000
0000
0000
0000
0000
0000
0000
0000
1003
0000
0000
0100
0000
0000
1000
0000
0000
0000
0000
0000
0001
0000
0000
0000
1000
0000
0000
0000
0100
0000
0000
0000
0010
0000
0000
0000
0100
0000
0000
0000
1000
0000
0000
0000
,
0002
0000
0103
0100
0001
1100
0001
1010
,
0200
0000
0000
0000
0000
0000
0000
0000
0000
0000
0000
0000
0301
0000
0000
1000
0000
0000
0001
0000
0000
0000
0000
0000
1000
0000
0000
0000
0010
0000
0000
0000
0100
0000
0000
0000
0001
0000
0000
0000
1000
0000
0000
0000
0100
0000
0000
0000
,
0010
0001
1000
0001
0100
0010
1000
0100
1000
0010
0100
0001
,
0020
0000
0000
0000
0000
0000
0000
0000
0000
0000
0000
0000
0031
0000
0000
0100
0000
0000
0001
0000
0000
0000
0000
0000
1000
0000
0000
0000
0100
0000
0000
0000
0010
0000
0000
0000
0001
0000
0000
0000
0100
0000
0000
0000
0010
0000
0000
0000
,
2000
0000
3001
0001
0100
1001
0010
1001
,
0200
0000
0000
0000
0000
0000
0000
0000
0000
0000
0000
0000
0310
0000
0000
1000
0000
0000
0010
0000
0000
0000
0000
0000
0100
0000
0000
0000
0001
0000
0000
0000
0010
0000
0000
0000
0100
0000
0000
0000
1000
0000
0000
0000
0100
0000
0000
0000
,
1000
0001
0100
0010
0100
0001
0010
0100
1000
0001
1000
0010
,
0100
0000
0000
0000
0001
0000
0000
0000
0010
0000
0000
0000
0100
0000
0000
1000
0000
0000
0001
0000
0000
0100
0000
0000
0010
0000
0000
1000
0000
0000
0001
0000
0000
0010
0000
0000
0001
0000
0000
1000
0000
0000
0010
0000
0000
1000
0000
0000
,
0001
0010
0100
1000
0001
0100
0001
1000
0020
0000
0000
0000
0000
0000
0000
0000
,
0130
0000
0000
0000
0001
0000
0000
0000
0100
0000
0000
0000
0010
0000
0000
0000
1000
0000
0000
0000
0001
0000
0000
0000
0010
0000
0000
0000
0001
0000
0000
0000
1000
0000
0000
0100
0000
0000
1000
0000
0000
0001
0000
0000
1000
0000
0000
0020
0000
0000
0000
0000
0000
0000
0000
0000
0000
0000
0000
0000
0000
0000
0000
0000
,
0130
0001
1000
0001
1000
0100
0010
0001
1000
0100
1000
0000
1001
0000
0000
0000
,
1000
0100
1000
0000
M000
0000
1000
0100
0010
0000
0001
0000
0201
0000
0000
0000
,
0310
1000
0010
0000
00M0
0000
0010
1000
0001
0000
1000
0000
1200
0000
0000
0000
,
0310
0001
0010
0000
00M0
0000
0010
0100
1000
0000
0001
0000
0201
0000
0000
0000
,
0310
0100
0010
0000
00M0
0000
0010
0100
0010
0000
00M0
0000
0010
0000
0000
0000
,
1000
0100
1000
0000
M000
0000
1000
0010
0100
0000
0010
0000
0210
0000
0000
0000
,
0301
1000
0001
0000
000M
0000
0001
1000
0010
0000
0100
0000
0102
0000
0000
0000
,
2003
0000
0000
0000
,
3100
0010
0001
1000
0001
1000
0010
0100
0001
0010
0001
0010
0100
1000
0100
1000
,
0001
0010
0001
0000
001M
0000
0001
0010
0100
0000
1000
0000
1020
0000
0000
0000
,
0130
0001
0100
0000
0M10
0000
0100
0001
1000
0000
0001
0000
0021
0000
0000
0000
,
0130
1000
0100
0000
1M00
0000
0100
0010
0001
0000
1000
0000
1020
0000
0000
0000
,
0130
0010
0100
0001
1000
0001
0010
0100
1000
0001
1000
0100
0040
0000
0000
0000
,
0031
1000
0001
0000
100M
0000
0001
0100
0010
0000
0100
0000
0120
0000
0000
0000
,
1030
0001
1000
0000
M010
0000
1000
0001
0100
0000
0010
0000
0020
0000
0000
0000
,
1030
0001
0100
0001
1000
0100
0010
0001
1000
0001
0100
0001
1000
0100
0010
0001
,
0100
0010
0100
0010
1000
0001
1000
0001
0010
0100
0010
0100
1000
0001
1000
0001
,
0100
0000
0010
0000
1000
0010
1000
0000
0001
0000
0010
0000
0100
1000
0100
0000
,
0010
0000
0001
0000
0100
0001
0100
0000
0010
0000
1000
0000
0001
1000
0001
0000
,
0100
0010
0100
0000
0010
1000
0010
0000
1000
0001
1000
0000
0001
0010
0001
0000
,
1000
0100
1000
0000
0001
0010
0001
0000
1000
0010
1000
0000
0010
0100
0010
0000
,
1000
0000
0100
0000
0010
0100
0010
0000
0001
0000
1000
0000
0010
1000
0010
0000
,
0100
0000
0001
0000
1000
0100
1000
0000
0001
0000
0010
0000
0001
1000
0001
0000
,
0100
0000
0010
0000
1000
0010
1000
0000
0001
0000
0010
0000
0100
1000
0100
0000
,
1000
0100
0010
0001
0010
0001
1000
0100
0010
0001
0010
0001
0100
0010
1000
0000
,
1MM1
0000
0101
0100
0110
0010
1010
1000
,
1001
0001
0011
0010
0110
0100
1100
1000
,
1001
0000
0001
0000
0100
0010
1000
0001
1000
0001
0100
0010
1000
0001
1000
0001
,
0010
0100
0010
0100
1000
0010
1000
0001
1000
0001
0100
0010
1000
0001
1000
0001
,
0100
0010
0100
0010
1000
0001
0010
0100
1000
0001
0100
0010
1000
0001
0010
0100
,
1000
0001
0100
0010
1000
0100
1000
0100
0010
0001
0010
0001
1000
0010
1000
0010
,
0100
0001
0100
0001
1000
0000
0001
0000
0100
0001
0100
0000
0010
0000
1000
0000
,
0001
0010
0001
0000
1000
0000
0100
0000
1000
0010
1000
0000
0001
0000
0100
0000
,
0010
0100
0010
0000
1000
0000
0001
0000
0010
0001
0010
0000
0100
0000
1000
0000
,
0001
0100
0001
0000
0100
0000
0010
0000
1000
0001
1000
0000
0100
0000
0010
0000
,
0001
0010
0001
0000
0100
0000
0010
0000
1000
0010
1000
0000
0100
0000
0010
0000
,
0001
1000
0001
0000
0010
0000
0100
0000
1000
0010
1000
0000
0010
0000
0100
0000
,
0001
0100
0001
0000
1000
0010
0100
0001
0100
0001
1000
0010
0100
0001
0100
0001
,
1000
0000
0000
0100
0000
0000
1000
0000
0000
0000
0000
0000
1MM1
0000
0000
0000
0000
0000
0000
0000
0000
0000
0000
0000
1000
0000
0000
0000
0100
0000
0000
0000
0010
0000
0000
0000
0001
0000
0000
0000
0010
0000
0000
0000
0100
0000
0000
0000
,
1000
0010
0100
0001
0100
0010
1000
0001
0001
0100
0010
0010
,
1000
0000
0100
0000
0100
0000
0010
0000
0001
0000
0001
0000
2000
0000
0000
0000
0000
0000
0000
0000
0000
3001
0000
0000
,
0010
0010
0100
1000
0010
0010
0010
1000
,
1000
0000
0000
1000
0000
0000
0001
0010
0000
0100
0000
0000
0040
0000
0000
0000
0000
0000
0000
0000
0000
0130
0000
0000
,
1000
1000
0001
0100
0020
0030
2000
3200
,
0300
0020
0000
0000
0032
0000
0000
1003
,
0010
0000
0010
0000
0100
0000
0001
0000
0010
0100
1000
0001
0100
0010
1000
0000
,
0001
0000
1000
0000
0001
0000
0010
0000
0001
1000
0100
1000
0010
0100
0001
1000
,
0100
0000
1000
0000
0100
0000
0010
0000
0001
1000
0100
0010
0001
1000
0010
1000
,
0001
0100
0010
0100
0001
1000
0100
1000
0002
0000
0000
0000
0000
0000
0103
0000
,
0010
0010
0100
0001
2000
0000
0000
3001
,
0010
0010
0001
0100
0040
0000
0000
0130
,
0001
0001
1000
0100
1000
1000
0100
0010
,
0001
1000
0001
1000
0010
0100
0001
1000
0001
0000
0200
0000
0000
0000
0301
0000
,
0100
0100
0010
1000
0001
0001
0001
0010
,
0010
0010
0100
1000
0002
0000
0000
0103
,
0010
0000
0010
0000
1000
0000
0100
0000
1000
0100
0010
0001
1000
0100
0010
0001
,
1000
0100
0010
0001
1000
0100
0010
0001
4000
0000
0000
0000
3001
0000
0001
0000
,
0010
0100
1000
0100
0010
0001
1000
0010
0010
0100
0001
0001
,
0100
0010
0010
1000
0100
0100
0010
0001
0001
1000
0001
0001
,
2MM1
0000
0000
0000
3001
0100
0001
0000
000M
0000
0100
0010
1000
0000
0001
0000
,
0021
0000
0000
0000
0130
1000
0100
0000
0M00
0000
0100
1000
0001
0000
1000
0000
,
1020
0000
0000
0000
1030
0001
1000
0000
M000
0000
1000
0001
0010
0000
0100
0000
,
0120
0000
0000
0000
0130
1000
0100
0000
0M00
0000
0100
1000
0100
0000
0M00
0000
,
0100
0000
0000
0000
1000
0010
1000
0000
M000
0000
1000
0010
0100
0000
0001
0000
,
0201
0000
0000
0000
0310
1000
0010
0000
00M0
0000
0010
1000
0001
0000
0100
0000
,
0201
0302
0000
0000
,
0000
0000
0000
0000
1003
0100
1000
0100
0010
0001
0010
0001
1000
0100
1000
0100
,
0010
0001
0010
0001
1000
0100
1000
0000
M100
0000
1000
0100
0010
0000
0001
0000
,
0201
0000
0000
0000
0310
1000
0010
0000
01M0
0000
0010
1000
0001
0000
1000
0000
,
1200
0000
0000
0000
0310
0001
0010
0000
00M1
0000
0010
0100
1000
0000
0001
0000
,
0201
0000
0000
0000
0310
0100
0010
1000
0001
1000
0100
0010
0001
1000
0001
0010
,
0400
0000
0000
0000
1300
0001
1000
0000
M001
0000
1000
0010
0100
0000
0010
0000
,
0210
0000
0000
0000
0301
1000
0001
0000
010M
0000
0001
1000
0010
0000
0100
0000
,
0200
0000
0000
0000
0301
1000
0010
1000
0001
0010
0100
1000
0001
1000
0010
1000
,
0001
0010
0100
1000
0010
0100
0010
0100
0001
1000
0001
1000
0100
0010
0100
0010
,
0001
1000
0001
1000
0010
0000
0100
0000
0001
0100
0001
0000
1000
0000
0100
0000
,
0010
0001
0010
0000
0100
0000
1000
0000
0010
1000
0010
0000
0100
0000
0001
0000
,
1000
0001
1000
0000
0001
0010
0001
0000
1000
0100
1000
0000
0100
0010
0100
0000
,
0010
0001
0010
0000
0001
1000
0001
0000
0100
0010
0100
0000
0010
1000
0010
0000
,
0100
0001
0100
0000
0001
0000
1000
0000
0100
0010
0100
0000
1000
0000
0001
0000
,
0100
0001
0100
0000
0010
0000
1000
0000
0001
0010
0001
0000
1000
0000
0100
0000
,
1000
0001
1000
0000
0010
0000
0100
0000
0001
0100
0001
0000
1000
0000
0100
0000
,
0010
0001
0010
0000
0001
1000
0001
1000
0010
1000
0010
1000
0001
0100
0001
0100
,
0001
1000
0001
0000
M1M1
0000
0000
0000
0110
0000
0100
0000
0101
0000
0001
0000
,
1001
1000
1001
0001
0011
0010
0110
0100
,
1100
0000
1000
0000
1001
0000
0001
0000
0100
0010
1000
0001
1000
0001
0100
0010
,
1000
0001
1000
0001
0010
0100
0010
0100
1000
0100
0010
0001
1000
0001
0100
0010
,
1000
0001
1000
0001
0100
0010
0100
0010
1000
0001
0010
0100
1000
0001
0100
0010
,
1000
0001
0010
0100
1000
0001
0100
0010
1000
0100
1000
0100
0010
0001
0010
0001
,
1000
0010
1000
0010
0100
0001
0100
0001
1000
0000
0001
0000
0100
0001
0100
0000
,
0010
0000
1000
0000
0001
0010
0001
0000
1000
0000
0100
0000
1000
0010
1000
0000
,
0001
0000
0100
0000
0010
0100
0010
0000
1000
0000
0001
0000
0010
0001
0010
0000
,
0100
0000
1000
0000
0001
0100
0001
0000
0100
0000
0010
0000
1000
0001
1000
0000
,
0100
0000
0010
0000
0001
0010
0001
0000
0100
0000
0010
0000
1000
0010
1000
0000
,
0100
0000
0010
0000
0001
1000
0001
0000
0010
0000
0100
0000
1000
0010
1000
0000
,
0010
0000
0100
0000
0001
0100
0001
0000
1000
0010
0100
0001
0100
0001
1000
0010
,
0100
0001
0100
0001
1000
0100
1000
0000
1MM1
0000
0000
0000
2002
0000
0000
0000
,
0000
0000
0000
0000
,
0000
0000
0000
0000
0000
0003
3001
0000
,
0000
0000
0000
0000
0000
0000
0000
0000
0000
0000
0000
0000
0000
0000
0000
1000
0100
0010
0001
0000
0000
1000
0000
0000
,
0001
0100
0010
0010
0100
0000
0101
0000
,
0000
0000
0000
0000
0000
0000
0000
0000
0001
1000
0001
0000
1000
0000
1100
0000
,
0000
0110
0000
0011
1001
0000
1004
0000
,
0000
0000
1003
0100
1000
0001
0100
0010
1000
0100
0010
0001
1000
0000
1000
0000
,
0010
0000
0000
0000
0000
0000
0100
0000
0001
0000
0100
0000
0001
0000
0000
0000
0000
0000
1000
0000
0000
0000
0000
0000
0100
0000
0000
0010
0000
0000
0001
0000
0000
0000
0000
0000
2000
0000
0000
0000
0000
0000
0000
0000
0000
0000
0000
0000
,
3001
0000
0020
0000
0000
0000
0130
0000
0001
0000
0100
0000
2000
0000
0000
3010
,
0100
0000
0002
0000
0000
0000
0103
0000
1000
0000
0100
0000
0020
0000
0000
1030
,
0001
0020
0000
0130
0001
0100
1000
M101
,
0000
1000
M101
0000
M1MM
0000
0002
0000
,
1003
0000
0200
0000
0000
0000
0301
0000
0100
0000
1000
0000
0020
0000
0000
0130
,
0001
0000
0200
0000
0000
0000
1300
0000
0100
0000
0001
0000
0020
0000
0000
0130
,
1000
0000
0000
0200
0000
0000
0000
0000
0000
0301
0000
0000
0100
0000
0000
1000
0000
0000
0001
0000
0000
0100
0001
0100
,
0010
0100
0001
0100
0010
0100
0001
1000
0100
0010
0001
1000
11M0
0000
0100
0000
,
M010
0002
0M00
1003
001M
0200
M000
0301
,
10M0
0100
001M
1001
01M0
1001
110M
0100
,
10M0
0000
0002
0000
0M00
0000
0103
0000
001M
0000
1000
0000
0MM1
0000
0001
0100
,
0010
0100
0000
0000
M0M1
0000
0001
0010
0100
0010
0000
0000
M110
0000
0100
0000
,
10M0
0002
0M00
0013
010M
1000
00M1
0100
,
M001
0000
1000
0000
01M0
0000
0010
0001
1M00
0000
0001
0000
01M1
0000
0100
0000
,
M010
2000
0M00
3001
0M10
0200
000M
1300
,
00M0
0000
0000
0001
1000
0001
1M00
0000
0000
0001
0010
0001
M010
0000
0000
0000
0000
0000
0120
0000
0000
0000
0000
0000
,
0000
0000
0000
0000
0000
0000
0000
0000
0000
0030
0100
0000
0000
0000
0000
1000
0001
0100
0001
0000
0000
0000
0000
0000
,
0000
0000
0000
0000
0000
0000
1000
0000
0000
0000
0000
0000
0000
0000
0000
0000
0100
0000
0000
0000
0000
0000
0000
0000
0000
0000
0010
0000
0000
0000
0000
0000
0000
0000
0000
0000
0011
0000
0000
0001
0000
0000
2000
0000
0000
0000
0000
0000
,
0000
0000
0000
0000
0000
0000
0000
0000
0000
0000
0000
0000
0000
0000
0000
0000
0000
0000
0000
0000
0000
0000
0000
0000
0000
0000
0000
0000
0000
0000
3010
0000
0000
0100
0000
0000
0101
0000
0000
0000
0001
0000
0000
0000
1000
0000
0000
0000
,
1100
0100
0010
0001
1000
1000
0001
0010
0010
0210
0000
0000
,
0000
0000
0000
0000
0000
0000
0000
0000
0000
0000
0000
0000
0300
0000
0000
0000
0010
0000
0000
0000
0000
0000
0000
0000
0000
0000
0000
0000
0000
0000
0001
0000
0000
0000
0000
0000
1000
0000
0000
0001
0000
0000
0100
0000
0001
0000
1000
0000
,
0001
0000
0000
0101
0000
0000
0000
0000
0000
0000
0100
0010
1000
0000
0000
0000
0000
0000
1001
0000
0000
0000
0001
0000
,
0000
0000
0000
0000
0000
0000
0010
0000
0000
0000
0000
0000
0100
0000
0000
0000
0000
0000
0000
0000
0000
1000
0000
0000
0000
0000
0000
0000
0000
0000
0001
0000
1000
0000
0100
0000
0010
0000
0000
0000
0000
0000
0001
0000
0000
0000
0000
0000
,
1000
0010
0100
0000
0001
1000
0100
0000
1000
0001
0100
0000
0101
0000
0001
0000
,
1000
0010
1000
0100
0010
0001
0011
0010
,
0001
1000
0001
0100
1000
0100
0101
0001
,
1000
0100
0010
0010
0001
0010
0100
1001
,
0000
0000
0100
0000
1001
0000
0000
0000
1000
0001
0100
0000
0001
1000
0100
1000
,
0001
1000
0001
1000
0100
1000
0001
1000
0001
1000
0100
0010
0001
1000
0100
1000
,
0001
0100
0001
1000
0100
1000
0001
0100
0001
0100
0001
0010
0100
1000
0100
0010
,
0001
0000
0000
1000
0000
0000
0001
0000
0000
1000
0000
0000
0100
0000
0000
0010
0000
0000
0001
0000
0000
1000
0000
0000
0001
0000
0000
1000
0000
0000
0010
0000
0000
0100
0000
0000
0004
0000
0000
0000
0000
0000
1003
0000
0100
0000
0010
0000
,
0001
1000
0001
0100
0010
1000
0010
1000
0004
0000
1003
0100
0020
0000
0000
0031
,
0000
0000
1000
0000
0020
0000
0000
0130
0000
0000
0001
1000
0200
0000
0000
0000
,
0000
0000
0000
0000
0000
0000
0000
0000
0000
0000
0000
0000
0000
0000
0000
0000
0000
0000
1300
0000
0001
0000
1000
0000
0001
0000
0000
0000
0000
0000
0100
0000
0000
0000
0000
0000
0210
0000
0000
0000
0000
0000
0000
0000
0000
0310
0000
0000
,
0000
1000
0001
0020
0000
0130
2000
0000
,
0000
0000
0000
0000
0000
0000
0000
0000
0000
0000
0000
0000
0000
0000
0000
0000
0000
0000
3001
0000
0000
0100
0000
0000
0001
0000
0000
0000
0000
0000
1000
0000
0000
0000
0000
0000
1100
0000
0000
0000
0000
0000
0100
0000
0010
0000
0001
0000
,
1000
0000
0000
0001
0100
0010
1000
0000
0000
0001
0000
0000
0000
0000
0000
1000
0000
0000
0001
0100
0010
1000
0001
1000
,
0100
1000
0001
0010
0100
1000
0001
0010
0001
1000
0100
1000
0004
0000
0000
1003
0000
0000
0100
0010
0001
1000
0001
1000
,
0010
0000
0100
0000
0010
0000
1000
0000
0001
0000
0100
0000
0001
0000
1000
0000
0100
0000
1000
0000
0001
0000
0010
0000
0100
0000
1000
0000
0001
0000
1000
0000
0010
0000
0100
0000
0001
0000
0000
0000
0000
0000
1000
0000
0000
0100
0000
0000
,
0010
0001
1000
0001
0100
0010
1000
0001
0010
0100
1000
0001
2000
0000
0000
0000
,
0100
0000
0000
0000
0001
0000
0001
0000
3100
0000
1000
0100
0020
0000
0000
0000
,
0001
0000
0000
0100
0031
1000
1002
0000
,
0100
0000
0000
0000
1000
0000
1000
0000
0103
0000
0001
1000
0200
0000
0000
0000
,
1300
0000
0000
0000
0000
0000
0001
0100
0010
1000
0001
1000
0001
0000
0000
1000
0000
0000
0100
0000
0000
0000
0010
0000
,
0000
0000
0000
0000
0001
0000
0000
0000
0000
0000
0000
0000
2000
0000
0000
0000
0000
0000
0000
0000
0000
0000
0000
0000
0000
0000
0000
0000
0000
0000
0000
0000
0000
0000
0000
0000
3010
0000
0000
0100
0000
0000
0010
0000
0000
1000
0000
0000
,
0001
1000
0010
0100
0001
1000
0001
0010
0001
1000
0100
0000
2200
00M0
0000
000M
,
0000
0000
0000
00M0
0000
0000
0000
0000
0000
000M
0000
0000
0000
0000
0000
00M0
0000
0000
0000
0000
0000
000M
0000
0000
3000
0000
0000
00M0
0000
0000
1300
0000
0001
0000
1000
0000
0001
0000
0000
0100
0000
0000
0100
0000
0000
0010
0000
0000
,
1000
1000
0001
0010
0010
0001
1000
1000
0001
0000
0000
0000
2MM2
0000
0000
0000
,
0000
0000
0000
0000
3000
0000
1003
0000
0000
0100
0000
0000
1000
0000
0000
0001
,
0000
0000
0100
0000
0010
0000
0000
0000
1000
0000
0001
0000
M2M2
0000
0300
0100
,
0003
0000
0000
0000
0000
0000
0010
0000
0000
0000
0000
0000
1000
0000
0000
0000
0000
0000
0000
0000
0000
0001
0000
0000
0000
0000
0000
0000
0000
0000
0010
0000
0100
0000
1000
0000
0001
0000
0000
0000
0000
0000
0001
0000
0000
0000
0000
0000
,
0000
0000
1000
0000
4000
0000
0000
0000
0010
0000
0000
3000
M1M2
0000
0000
1003
,
0000
0000
0000
0000
0000
0000
0100
0000
0000
0000
0000
0000
0010
0000
0000
0000
0000
0000
0000
0000
0000
0001
0000
0000
0000
0000
0000
0000
0000
0000
1000
0000
0001
0000
1000
0000
0010
0000
0000
0000
0000
0000
0100
0000
0000
0000
0000
0000
,
0001
0010
0100
0000
1000
0010
0100
0000
0001
1000
0100
0000
M22M
0000
0000
0000
,
0000
0000
0000
0000
0000
0030
0310
0010
,
0001
0000
0001
0000
0100
0000
0100
0000
0010
0000
0010
0000
1000
0100
0010
0001
,
1000
0001
0100
0010
1000
0001
1000
0100
0010
0001
1000
0001
0400
0010
0000
0010
,
0000
0310
4000
0001
0000
0001
0000
3001
0010
0100
1000
0001
0040
0100
0000
0100
,
0000
0130
4000
0001
0000
0001
0000
3001
0100
0010
1000
0001
2000
0000
0000
0000
,
3200
2300
0000
0001
3001
0100
0020
0000
,
1030
0000
0040
0000
0000
0000
0000
0000
0000
0000
0000
0000
0130
0001
0100
0000
,
0001
0000
0000
1000
0000
0000
0001
0000
0000
1000
0000
0000
0001
0000
0000
0000
0000
0000
1000
0000
0000
0100
0000
0000
1000
0000
0000
0100
0000
0000
1000
0000
0000
0000
0000
0000
0001
0000
0000
0000
0100
0000
0000
0000
0010
0000
0000
0000
,
1000
0000
0000
0000
0001
0000
0000
0000
0010
0000
0000
0000
0100
0000
0000
0000
1000
0000
0000
0000
0001
0000
0000
0000
0040
0000
0000
0000
0000
0000
0000
0000
0000
0000
0000
0000
0130
0000
0000
1000
0000
0000
0100
0000
0000
0000
0000
0000
,
1000
0001
1000
0001
1000
0000
0001
0100
0001
0100
0001
0000
0100
0010
0100
0010
,
1000
0010
1000
0010
1000
0001
1000
0001
0010
0001
0010
0001
0100
0010
1000
0001
,
1000
0001
0010
0100
1000
0001
0100
0001
1000
0001
0010
0000
0001
0010
0100
1000
,
0001
1000
0010
0100
0010
1000
0001
0010
0100
0010
0001
1000
0002
0000
0000
0000
,
0000
0203
0000
0000
0320
0000
0230
0000
,
0302
0000
0000
0000
1003
0100
1000
0100
1000
0100
1000
0100
0040
0001
0000
0001
,
0000
0031
4000
0001
0000
0001
0000
3001
0400
0001
0000
0301
2000
0000
0000
0000
,
3011
0000
2000
0000
0000
0000
3011
0000
0200
0000
0000
0000
0301
0000
0000
1000
,
0000
0000
0000
0000
0000
0000
0001
0000
0100
0000
0000
0000
0000
0000
0000
0000
0000
0000
0100
0000
0000
0000
0000
0000
0001
0000
0000
0000
0000
0000
1000
0000
0000
0000
0000
0000
0001
0000
0000
0100
0000
0000
0010
0000
0000
1000
0000
0000
,
0001
0000
0000
0100
0000
0000
0010
0000
0000
1000
0000
0000
0001
0000
0000
0100
0000
0000
0010
0000
0000
1000
0000
0000
0001
0000
0000
0000
0000
0000
1000
0000
0000
0000
0000
0000
0001
0000
0000
0000
0100
0000
0000
0000
0001
0000
0000
0000
,
0100
0001
0100
0001
0100
0001
0100
0001
0100
0010
1000
0010
,
1000
0010
1000
0010
1000
0010
1000
0010
1000
0001
0010
0001
,
0010
0000
0001
0000
1000
0000
0001
0000
1000
0000
0001
0000
0100
0000
0010
0000
1000
0000
0001
0000
0000
1000
0000
0000
,
0001
0000
0010
0000
0100
0000
2000
0000
0000
0000
0000
0000
0000
0000
0000
3000
0000
0000
0002
0000
0000
0000
1003
0000
,
0100
0000
0000
0000
0010
0000
0000
0000
0100
0000
0000
0000
1000
0000
0000
0001
0000
0000
1000
0000
0000
0001
0000
0000
1000
0000
0000
0000
0010
0000
0000
0000
0100
0000
0000
0000
0001
0000
0000
0100
0000
0000
0001
0000
0000
0100
0000
0000
,
0001
1000
0001
1000
0100
1000
0100
1000
0100
0010
0100
0010
0004
0000
0000
0000
,
4003
0000
0000
0000
3040
0000
0000
0000
0430
0000
0000
0000
0301
1000
0001
1000
,
0010
0100
0010
0100
0001
1000
0001
1000
0100
1000
0100
1000
0001
0000
0010
0001
,
1000
0010
1000
0001
0010
0001
1000
0010
1000
0001
0010
0001
1000
0100
1000
0001
,
0100
0001
1000
0100
1000
0001
0100
0001
1000
0100
1000
0001
0100
0010
1000
0000
,
0001
0010
0100
1000
0001
0000
0010
0000
0100
0000
1000
0000
0001
0100
0001
0000
,
0001
0000
0000
0000
0000
0000
0000
0000
0000
0000
0000
0000
0100
0000
0000
0000
0000
0000
0000
0000
0000
0000
0000
0000
0010
0000
0000
0000
0000
0000
0000
0000
0000
0000
0000
0000
1000
0000
0000
0000
0000
0000
0000
0000
0000
0000
0000
0000
0002
0000
0000
0000
0000
0000
0000
0000
0000
0000
0000
0000
0000
0000
0000
0000
0000
0000
0000
0000
0000
0000
0000
0000
0000
0000
0000
0000
0000
0000
0000
0000
0000
0000
0000
0000
0000
0000
0000
0000
0000
0000
0003
0000
0000
0000
0000
0000
0002
0000
0000
0000
0000
0000
0000
0000
0000
0000
0000
0000
0000
0000
0000
0000
0000
0000
0000
0000
0000
0000
0000
0000
0000
0000
0000
0000
0000
0000
0000
0000
0000
0000
0000
0000
0000
0000
0000
0000
0000
0000
0003
0000
0000
0000
0000
0000
2000
0000
0000
0000
0000
0000
0000
0000
0000
0000
0000
0000
0000
0000
0000
0000
0000
0000
0000
0000
0000
0000
0000
0000
0000
0000
0000
0000
0000
0000
0000
0000
3001
0000
0000
0000
0000
0000
0000
0000
0000
0000
0000
0000
0000
0000
0000
0000
,
0010
0000
0000
0000
0100
0000
0000
0000
1000
0000
0000
0000
0001
0000
0000
0010
0000
0000
0001
0000
0000
1000
0000
0000
0001
0000
0000
0000
0100
0000
0000
0000
0010
0000
0000
0000
1000
0000
0000
0010
0000
0000
0100
0000
0000
0001
0000
0000
,
0100
0000
0000
0000
0010
0000
0000
0000
1000
0000
0000
0000
0001
0000
0000
0010
0000
0000
0001
0000
0000
1000
0000
0000
0001
0000
0000
0100
0000
0000
0001
0000
0000
1000
0000
0000
0100
0000
0000
0010
0000
0000
0001
0000
0000
1000
0000
0000
,
0001
1000
0001
0100
0010
1000
0001
0010
0100
1000
0001
1000
0010
0100
0001
1000
,
0001
1000
0010
0100
0001
1000
0001
0000
1000
0001
1000
0001
2000
0000
0000
0000
,
0000
3200
0000
0000
0320
0000
0032
0000
,
0000
0000
0000
0000
1003
0100
0000
0000
0000
0000
0000
0000
1000
0000
0000
0000
0100
0000
0000
0000
0010
0000
0000
0000
0002
0000
0000
0000
0000
0000
0000
0000
,
0000
2003
0000
0000
3020
0000
0230
0000
,
0302
0000
2003
0000
0000
0000
0000
0000
3002
0000
0000
0000
1003
0100
1000
0100
,
0010
0001
1000
0100
1000
0001
0100
0010
1000
0001
0100
0010
2000
0000
3200
0000
,
0320
0000
0032
0000
1003
0010
0100
0001
1000
0100
1000
0001
0010
0100
0010
0100
,
1000
0100
1000
0100
1000
0001
1000
0001
0100
0001
0100
0001
1000
0000
0010
1000
,
0001
0000
1000
0100
0010
0100
1000
0001
0010
0000
0001
0100
0020
0000
0000
0000
,
0000
0000
0000
0000
0000
0000
2030
0000
0000
0000
0000
0000
0000
0000
0000
3000
0000
0000
0000
0000
0000
0002
0000
0000
0000
0000
0000
0000
0000
0000
1003
0000
0000
0000
0000
0000
0100
0000
0000
0000
0000
0000
0010
0000
0001
0000
0000
0000
,
1000
0000
0010
0000
0000
0000
0200
0000
0000
0000
0000
0000
0000
0000
0000
0000
0000
0000
0001
0000
0000
0000
0000
0000
0301
0000
0000
0000
0000
0000
1000
0000
0000
0000
0000
0000
0010
0000
0000
0100
0000
0000
0001
0000
0000
0000
0000
0000
,
1000
0000
0010
0100
0001
0000
1000
0000
0010
0100
0001
0000
1000
0000
1000
0000
,
0100
0010
0001
0000
0010
0000
0001
0000
1000
0010
0100
0000
0001
0000
1000
0000
,
0100
0010
0000
0100
1000
0001
0000
0100
,
0010
0000
1000
0000
0001
0010
0100
1000
0002
0000
0000
0000
1003
0010
1000
0010
,
0100
0001
0100
0001
1000
0010
1000
0010
0100
0001
0100
0001
1000
0100
0010
0001
,
1000
0010
0100
0001
1000
0100
0010
0001
1000
0001
0010
0100
100M
0000
0000
0000
,
0000
M000
0000
0000
0000
0M00
0000
0000
000M
0000
0000
0000
,
M000
0000
0000
0000
0000
0M00
0000
00M0
0000
0000
0000
0000
,
M000
0M00
0000
0000
0000
0000
0000
0000
00M0
000M
M000
0000
,
0000
0000
0M00
0000
0000
000M
0000
0000
M000
0000
00M0
0000
,
0000
000M
0000
0000
M0M0
0000
0000
0000
0M00
0000
0000
0000
,
00M0
0000
0000
0000
M000
0000
0000
000M
00M0
0000
0000
0000
,
0000
0000
0000
0000
M000
0000
0000
0000
0000
0000
0000
0000
000M
0000
0000
0000
0000
0000
0000
0000
0000
0000
0000
0000
0M00
0000
0000
0000
0000
0000
0000
0000
M000
0000
0000
0000
0001
0000
0000
0100
0000
0000
0001
0000
0000
0100
0000
0000
,
0010
0100
0010
0100
0010
1000
0010
1000
0001
1000
0001
1000
0100
0000
1000
0000
,
0001
1000
0001
0000
0010
0000
0100
0000
1000
0010
1000
0000
0001
0000
0100
0000
,
0010
0100
0010
0000
1000
0000
0001
0000
1000
0100
1000
0000
0001
0000
0010
0000
,
0100
0010
0100
0000
0010
0000
0001
0000
1000
0001
1000
0000
0010
0000
0100
0000
,
0001
0100
0001
0000
1000
0000
0100
0000
0010
0001
0010
0000
0100
0000
1000
0000
,
0001
1000
0001
0000
0100
0000
0010
0000
1000
0010
1000
0000
0001
0000
0010
0000
,
0100
0010
0100
0000
1000
0000
0001
0000
1000
0001
1000
0000
0020
0000
0000
0000
,
0000
0000
0000
0000
0000
0000
0000
0000
0000
0000
0000
0000
0130
0001
1000
0100
,
1000
0001
0010
0100
1000
0001
0100
0010
1000
0001
1000
0001
0010
0000
0100
0000
,
1000
0001
1000
0000
0001
0000
0100
0000
0010
0100
0010
0000
1000
0000
0001
0000
,
1000
0100
1000
0000
0001
0000
0010
0000
0001
0100
0001
0000
1000
0000
0010
0000
,
0100
0001
0100
0000
0010
0000
1000
0000
0001
0010
0001
0000
1000
0000
0100
0000
,
0010
0100
0010
0000
0100
0000
0010
0000
0001
1000
0001
0000
1001
0000
1000
0000
,
1100
0100
0110
0010
0011
0001
1001
1000
,
1001
0001
0101
0100
0110
0010
1020
1030
,
0001
0010
0001
0000
1000
0000
0100
0000
1000
0001
1000
0000
0100
0000
0010
0000
,
0001
0010
0001
0000
1000
0000
0010
0000
0100
0001
0100
0000
0101
0000
0100
0000
,
0110
0000
0010
0000
1010
0000
1000
0000
1001
0000
0001
0000
1000
0001
0100
0010
,
0100
0010
1000
0001
0100
0010
0100
0010
1000
0000
0000
0000
0001
0010
0001
0010
,
0100
1000
0100
1000
0001
0010
0100
1000
0001
0100
0001
0000
1MM1
0000
0000
0000
,
1000
0010
0100
0001
0010
0100
1000
0001
1000
0100
0010
0001
,
1000
0010
0100
0001
1000
0100
1000
0001
0010
0100
1000
0001
,
1001
0MM0
0000
0MM0
0000
0MM0
0000
0MM0
0000
0MM0
0000
0MM0
0000
MMMM
0000
0000
;
