#TITLE:Perfect Cherry Storm;
#SUBTITLE:;
#ARTIST:Sun3;
#TITLETRANSLIT:;
#SUBTITLETRANSLIT:;
#ARTISTTRANSLIT:;
#CREDIT:;
#BANNER:../bn.png;
#BACKGROUND:../veyron.png;
#LYRICSPATH:;
#CDTITLE:;
#MUSIC:Perfect Cherry Storm.ogg;
#OFFSET:0.003;
#SAMPLESTART:207.593;
#SAMPLELENGTH:19.400;
#SELECTABLE:YES;
#BPMS:0.000=200.000;
#STOPS:;
#BGCHANGES:;
// cache tags:
#FIRSTBEAT:32.000;
#LASTBEAT:892.000;
#SONGFILENAME:Songs/Cirque du Veyron/Zaia - Perfect Cherry Storm/Perfect Cherry Storm.sm;
#HASMUSIC:1;
#HASBANNER:1;
#MUSICLENGTH:279.916;
// end cache tags

//---------------dance-single - Zaia----------------
#NOTES:
     dance-single:
     Zaia:
     Challenge:
     16:
     1.000,1.000,0.046,0.343,1.000,2245.000,13.000,96.000,0.000,0.000:
0000
0000
0000
0000
,
0000
0000
0000
0000
,
0000
0000
0000
0000
,
0000
0000
0000
0000
,
0000
0000
0000
0000
,
0000
0000
0000
0000
,
0000
0000
0000
0000
,
0000
0000
0000
0000
,
0202
0000
0000
0300
,
0103
0000
0000
0010
0000
0000
1000
0000
0001
0000
1000
0000
0001
0000
1000
0000
,
0001
0100
0001
1000
0010
0100
0001
1000
0010
0100
0010
0100
0001
1000
0010
1000
,
0001
1000
0100
0010
0100
1000
0001
0010
0100
1000
0001
1000
0100
0010
0001
1000
,
0001
0100
0010
1000
0010
0100
0001
1000
0001
0100
0010
1000
0010
1000
0001
0100
,
0001
1000
0001
0010
0001
1000
0100
1000
0001
0010
0001
0010
0100
1000
0001
0010
,
0001
1000
0010
0100
0001
1000
0010
0100
0010
1000
0001
0100
0001
1000
0010
1000
,
0001
1000
0100
0010
0100
1000
0001
0010
0001
1000
0100
1000
0100
0010
0100
1000
,
0001
0100
0010
0100
0001
1000
0010
0100
0001
1000
0010
1000
0001
0100
0001
1000
,
0001
0000
1000
0000
0000
0000
0001
0000
0000
0000
1000
0000
0001
0100
0001
0000
,
1000
0100
1000
0001
0010
0100
0010
0100
1000
0001
1000
0100
0010
0100
1000
0001
,
0100
0010
0100
0001
1000
0010
0100
0001
1000
0100
0010
0001
1000
0100
1000
0100
,
0010
0100
1000
0001
0100
0010
0100
0001
1000
0010
1000
0001
0100
0001
1000
0010
,
0100
0001
0010
0100
0010
0001
1000
0100
1000
0001
0100
0010
1000
0001
1000
0010
,
0100
0001
1000
0100
1000
0001
0010
0100
1000
0001
1000
0100
0010
0001
0010
0001
,
1000
0010
0100
0001
0100
0010
1000
0001
0100
0001
1000
0100
1000
0001
0010
0001
,
1000
0010
0100
0010
0100
0001
1000
0001
0100
0010
0100
0001
1000
0010
1000
0001
,
1000
0000
0100
0000
1000
0000
0100
0000
1000
0000
0100
0000
1000
0001
1000
0001
,
1000
0100
1000
0001
0010
0100
0010
0001
1000
0001
0100
0001
1000
0010
0100
0001
,
1000
0100
1000
0001
0010
0100
1000
0001
0010
0001
1000
0100
0010
0100
1000
0001
,
1000
0010
0100
0001
0100
0010
1000
0001
0100
0010
1000
0001
1000
0010
0100
0001
,
1000
0100
1000
0001
0010
0100
1000
0001
1000
0100
1000
0001
0010
0100
1000
0001
,
1000
0010
0100
0001
1000
0010
1000
0001
0100
0010
0100
0001
1000
0010
1000
0001
,
0010
0100
1000
0100
0010
0001
1000
0100
1000
0001
0010
0001
1000
0100
0010
0100
,
1000
0001
1000
0001
0100
0010
0100
0010
1000
0001
1000
0001
0100
0010
0100
0010
,
1000
0000
0000
0000
0000
0000
0100
0000
0000
0000
0000
0000
1000
0000
0000
0000
0000
0000
0001
0000
0000
0000
0000
0000
1000
0000
0000
0100
0000
0000
1000
0000
0000
0100
0000
0000
0010
0000
0000
0000
0001
0000
0000
0000
0010
0000
0000
0000
,
0001
0100
0001
1000
0100
0010
0100
1000
0001
0100
0001
1000
0001
0010
0100
1000
,
0001
0100
0010
1000
0010
0100
0001
1000
0100
1000
0001
0010
0100
0010
0001
1000
,
0010
1000
0100
0010
0100
1000
0001
0100
0010
0100
0010
1000
0001
0010
0100
1000
,
0001
0100
0001
1000
0100
1000
0001
0010
0100
1000
0001
1000
0010
1000
0001
0010
,
0001
0100
0010
1000
0010
0100
0001
1000
0010
0100
0001
1000
0100
0010
0100
1000
,
0001
0100
0010
1000
0001
1000
0100
0010
0001
1000
0001
1000
0010
0100
0001
1000
,
0010
1000
0100
0010
0100
1000
0001
0010
0100
0010
0001
1000
0010
1000
0001
0100
,
0010
0000
1000
0000
0010
0000
0100
0000
0001
0000
1000
0000
0010
0100
0010
0100
,
0001
0100
0010
1000
0001
0010
0100
0010
0001
1000
0100
0010
0100
1000
0001
0100
,
0010
1000
0001
0100
0001
1000
0001
0010
0100
1000
0001
1000
0100
0010
0100
1000
,
0010
0100
0001
0100
0010
1000
0001
0010
0001
1000
0100
1000
0001
0100
0010
1000
,
0001
0010
0001
0010
0100
1000
0001
0100
0010
0100
0001
1000
0010
1000
0001
0010
,
0001
0100
0010
1000
0001
1000
0100
0010
0100
1000
0001
0100
0010
0100
0001
1000
,
0010
0100
0001
1000
0100
1000
0100
0010
0100
1000
0001
0100
0001
1000
0100
1000
,
0010
0100
0010
0100
0001
1000
0001
1000
0010
0100
0010
0100
0001
1000
0001
1000
,
0200
0000
0000
0000
,
1300
0001
1000
0001
0010
0100
0010
0001
1000
0010
1000
0001
1000
0100
0010
0001
,
1000
0010
0100
0001
0100
0010
1000
0001
0010
0001
1000
0100
0010
0100
1000
0001
,
0100
0001
0010
0100
0010
0001
1000
0010
0100
0010
0100
0001
1000
0100
0010
0001
,
1000
0010
1000
0001
0010
0001
1000
0100
0010
0001
1000
0001
0100
0001
1000
0100
,
1000
0010
0100
0001
0100
0010
1000
0001
0100
0010
1000
0001
0010
0100
0010
0001
,
1000
0010
0100
0001
1000
0001
0010
0100
1000
0001
1000
0001
0100
0010
1000
0001
,
0100
0001
0010
0100
0010
0001
1000
0100
0010
0100
1000
0001
0100
0001
1000
0010
,
0100
0000
0001
0000
0100
0000
0010
0000
1000
0000
0001
0000
0100
0010
0100
0010
,
1000
0010
0100
0001
1000
0100
0010
0100
1000
0001
0010
0100
0010
0001
1000
0010
,
0100
0001
1000
0010
1000
0001
1000
0100
0010
0001
1000
0001
0010
0100
0010
0001
,
0100
0010
1000
0010
0100
0001
1000
0100
1000
0001
0010
0001
1000
0010
0100
0001
,
1000
0100
1000
0100
0010
0001
1000
0010
0100
0010
1000
0001
0100
0001
1000
0100
,
1000
0010
0100
0001
1000
0100
0010
0100
,
1000
0001
1000
0010
0100
0001
1000
0010
,
1000
0010
1000
0010
0100
0001
0100
0001
1000
0010
1000
0010
0100
0001
0100
0001
,
1000
0000
0000
0000
0000
0000
0100
0000
0000
0000
0000
0000
1000
0000
0000
0000
0000
0000
0100
0000
0000
0000
0000
0000
1000
0000
0000
0001
0000
0000
1000
0000
0000
0001
0000
0000
0010
0000
0000
0000
0100
0000
0000
0000
0010
0000
0000
0000
,
0100
0000
0000
0000
,
0000
0000
0000
0000
,
0000
0000
0000
0000
,
0000
0000
0000
0000
,
0000
0000
0000
0000
,
0000
0000
0000
0000
,
0000
0000
0000
0000
,
0000
0000
0000
0000
,
1000
0200
2300
3002
,
2003
3100
0020
0031
,
0100
0020
2030
3002
,
0203
0301
0020
0130
,
1000
0002
0203
0302
,
2003
3001
0200
0301
,
0010
0200
2300
3200
,
0320
0000
0032
0000
,
0103
0020
2030
3002
,
0203
0301
0020
0130
,
0010
0200
2300
3002
,
0203
0301
0020
0031
,
0100
0020
2030
3200
,
2300
3020
0130
0001
,
1000
0002
0203
0302
,
2003
0000
3002
0000
,
1003
0000
0100
0000
1000
1000
0001
0000
,
0100
0000
0010
0000
0100
0100
0001
0000
,
1000
0000
0001
0000
0010
0010
0100
0000
,
1000
0000
0001
0000
0100
0100
0010
0000
,
1000
0000
0001
0000
0010
0000
0000
0001
0010
0001
1000
0000
0010
0000
0000
0000
,
0100
0000
0001
0000
1000
0000
0000
0100
0010
0100
1000
0000
0001
0000
0000
0000
,
0100
0000
0010
0000
1000
0000
0000
0001
0010
0100
1000
0000
0001
0000
0000
0000
,
1000
0000
0001
0000
0100
0000
0000
0010
0100
0010
1000
0000
0001
0000
0000
0000
,
1001
0000
0000
0000
,
0000
0002
2003
3010
,
1010
0000
0000
0000
,
0000
0020
2030
3001
,
0101
0001
1000
0001
0100
0001
1000
0001
,
1001
1000
0100
0010
0100
1000
0100
0010
,
0011
0000
1001
0000
,
0101
0000
0000
0101
0000
0000
0100
0010
1000
0010
0100
0001
,
0000
0000
0000
0000
,
0000
0000
0000
0000
,
1000
0100
0010
0100
1000
0001
0010
0100
1000
0001
0100
0010
1000
0001
1000
0010
,
0100
0001
1000
0001
0010
0001
1000
0010
0100
0001
1000
0100
0010
0100
1000
0001
,
0100
0010
0100
0001
1000
0100
1000
0001
0010
0100
1000
0001
1000
0100
0010
0100
,
1000
0001
0100
0010
0100
0001
1000
0100
1000
0001
0010
0001
1000
0010
0100
0001
,
1000
0100
0010
0001
1000
0010
1000
0001
0100
0010
1000
0001
1000
0010
0100
0010
,
1000
0001
0010
0100
0010
0001
1000
0010
1000
0001
0100
0001
1000
0100
0010
0001
,
1000
0010
0100
0001
0100
0010
1000
0100
1000
0001
0010
0100
1000
0100
0010
0001
,
1000
0000
0010
0000
1000
0000
0010
0000
1000
0000
0001
0000
1000
0001
0100
0001
,
0100
0001
1000
0010
1000
0001
0100
0010
1000
0001
0010
0100
1000
0001
1000
0100
,
0010
0001
1000
0001
0100
0001
1000
0100
0010
0001
1000
0010
0100
0010
1000
0001
,
0010
0100
0010
0001
1000
0010
1000
0001
0100
0010
1000
0001
1000
0010
0100
0010
,
1000
0001
0010
0100
0010
0001
1000
0010
1000
0001
0100
0001
1000
0100
0010
0001
,
1000
0010
0100
0001
1000
0100
1000
0001
0010
0100
1000
0001
1000
0100
0010
0100
,
1000
0001
0100
0010
0100
0001
1000
0100
1000
0001
0010
0001
1000
0010
0100
0010
,
1000
0001
1000
0000
0002
0000
0000
0000
1003
0100
1000
0000
0020
0000
0000
0000
,
1030
0001
0100
0010
1000
0001
0100
0010
1000
0001
0100
0010
1000
0001
0100
0010
,
1000
0100
0010
0100
1000
0001
0010
0100
1000
0001
0100
0010
1000
0001
1000
0010
,
0100
0001
1000
0001
0010
0001
1000
0010
0100
0001
1000
0100
0010
0100
1000
0001
,
0100
0010
0100
0001
1000
0100
1000
0001
0010
0100
1000
0001
1000
0100
0010
0100
,
1000
0001
0100
0010
0100
0001
1000
0100
1000
0001
0010
0001
1000
0010
0100
0001
,
1000
0100
0010
0001
1000
0010
1000
0001
0100
0010
1000
0001
1000
0010
0100
0010
,
1000
0001
0010
0100
0010
0001
1000
0010
1000
0001
0100
0001
1000
0100
0010
0001
,
1000
0010
0100
0000
0001
0100
0000
0010
1000
0000
0001
0100
0010
0100
0001
0000
,
1000
0100
0010
0001
1000
0010
0100
0001
1000
0100
0010
0001
1000
0010
0100
0001
,
1000
0100
0010
0100
1000
0001
0100
0010
1000
0001
0010
0100
1000
0001
1000
0100
,
0010
0001
1000
0001
0100
0001
1000
0100
0010
0001
1000
0010
0100
0010
1000
0001
,
0010
0100
0010
0001
1000
0010
1000
0001
0100
0010
1000
0001
1000
0010
0100
0010
,
1000
0001
0010
0100
0010
0001
1000
0010
1000
0001
0100
0001
1000
0100
0010
0001
,
1000
0010
0100
0001
1000
0100
1000
0001
0010
0100
1000
0001
1000
0100
0010
0100
,
1000
0001
0100
0010
0100
0001
1000
0100
1000
0001
0010
0001
1000
0010
0100
0010
,
1000
0001
0010
0001
1000
0000
0000
0000
0001
1000
0010
1000
0001
0000
0000
0000
,
0100
0010
0100
0010
1000
0001
1000
0001
0200
0000
0000
0000
0320
0000
0000
0000
,
1030
0001
1000
0000
0100
0010
0100
0000
,
1000
0001
1000
0000
0010
0100
0010
0000
,
0100
0001
0100
0000
0001
0100
0001
0000
,
0100
0001
0100
0000
0010
1000
0010
0000
,
1000
0100
1000
0000
0001
0100
0001
0000
,
1000
0100
1000
0000
0001
0010
0001
0000
,
1000
0001
1000
0000
0010
0100
0010
0000
,
1000
0001
1000
0001
1000
0000
1001
0000
,
0001
0010
0100
0010
0001
0000
0000
0000
0010
0100
1000
0100
0010
0000
0000
0000
,
0001
0100
0010
0100
0001
0000
0000
0000
0100
0010
1000
0010
0100
0000
0000
0000
,
0001
1000
0100
1000
0001
0000
0000
0000
1000
0001
0100
0001
1000
0000
0000
0000
,
0010
0100
0001
0100
0010
0000
0000
0000
1000
0010
1000
0010
1000
0000
0000
0000
,
0001
0010
0100
0010
0001
0000
0000
0000
1000
0100
0010
0100
1000
0000
0000
0000
,
0001
1000
0100
1000
0001
0000
0000
0000
0100
0010
0100
0001
1000
0000
0000
0000
,
0100
0010
0001
0010
0100
0000
0000
0000
1000
0001
0100
0001
1000
0000
0000
0000
,
0100
1000
0001
1000
0100
0000
0010
0000
0100
0000
0000
0000
1000
0000
0000
0000
,
1100
0020
0032
2003
,
3002
0013
0200
1300
,
0010
0200
0302
2003
,
3020
1030
0200
0310
,
0001
2000
3020
2030
,
3002
1003
0020
1030
,
0100
0020
0032
0023
,
0230
0000
2300
0000
,
3010
0200
0302
2003
,
3020
1030
0200
0310
,
0100
0020
0032
2003
,
3020
1030
0200
1300
,
0010
0200
0302
0023
,
0032
0203
0310
1000
,
0001
2000
3020
2030
,
3002
0000
2003
0000
,
3001
0000
0000
0000
,
0002
0000
0000
0000
,
1003
0010
1000
0001
0010
0100
0010
0001
1000
0010
1000
0001
1000
0100
0010
0001
,
1000
0010
0100
0001
0100
0010
1000
0001
0010
0001
1000
0100
0010
0100
1000
0001
,
0100
0001
0010
0100
0010
0001
1000
0010
0100
0010
0100
0001
1000
0100
0010
0001
,
1000
0010
1000
0001
0010
0001
1000
0100
0010
0001
1000
0001
0100
0001
1000
0100
,
1000
0010
0100
0001
0100
0010
1000
0001
0100
0010
1000
0001
0010
0100
0010
0001
,
1000
0010
0100
0001
1000
0001
0010
0100
1000
0001
1000
0001
0100
0010
1000
0001
,
0100
0001
0010
0100
0010
0001
1000
0100
0010
0100
1000
0001
0100
0001
1000
0010
,
0100
0001
0100
0010
0100
0001
1000
0100
0010
0100
1000
0001
0010
0001
1000
0100
,
0010
0100
1000
0001
0100
0010
0100
0001
1000
0100
1000
0001
1000
0010
0100
0010
,
1000
0100
1000
0001
0010
0100
1000
0001
1000
0100
0010
0100
1000
0001
0100
0010
,
0100
0010
1000
0001
1000
0100
0010
0100
1000
0010
0100
0001
1000
0010
1000
0001
,
0100
0010
1000
0001
0010
0100
1000
0010
0100
0001
1000
0100
1000
0001
0010
0001
,
1000
0010
1000
0001
0100
0010
0100
0001
1000
0100
1000
0001
0010
0100
1000
0001
,
1000
0100
0010
0100
1000
0010
0100
0010
,
1000
0001
1000
0000
0020
0000
0000
0000
0130
0001
0100
0000
0020
0000
0000
0000
,
1030
0100
0010
0001
1000
0010
0100
0001
1000
0100
0010
0001
1000
0010
0100
0001
,
1000
0100
1000
0001
0100
0010
0100
0001
1000
0010
0100
0001
0010
0001
1000
0010
,
0100
0001
0100
0010
1000
0100
1000
0001
0010
0100
1000
0001
0100
0010
0100
0001
,
0010
0100
1000
0001
0010
0001
1000
0010
0100
0010
1000
0001
1000
0001
0010
0100
,
0010
0001
1000
0010
1000
0100
1000
0001
0010
0100
0010
0001
1000
0001
0100
0010
,
1000
0100
1000
0001
0010
0100
0010
0001
1000
0100
0010
0100
1000
0001
0100
0010
,
0100
0001
0100
0001
1000
0010
1000
0100
1000
0001
0010
0100
0010
0001
1000
0010
,
1000
0100
0010
0001
0010
0100
1000
0010
,
0100
0001
1000
0010
0100
0001
0100
0010
0100
0001
1000
0100
1000
0001
0100
0010
,
1000
0001
1000
0001
0010
0100
0010
0001
0100
0010
1000
0001
1000
0010
0100
0010
,
1000
0100
1000
0001
0010
0100
1000
0001
1000
0100
0010
0100
1000
0001
0100
0010
,
0100
0010
1000
0001
1000
0100
0010
0100
1000
0010
0100
0001
1000
0010
1000
0001
,
0100
0010
1000
0001
0010
0100
1000
0010
0100
0001
1000
0100
1000
0000
0001
0000
,
1000
0100
0010
0100
1000
0001
0100
0010
,
0100
0001
1000
0100
1000
0001
0100
0001
,
1000
0100
1000
0100
0010
0001
0010
0001
1000
0100
1000
0100
0010
0001
0010
0001
,
1000
0000
0000
0000
0000
0000
0010
0000
0000
0000
0000
0000
1000
0000
0000
0000
0000
0000
0010
0000
0000
0000
0000
0000
0100
0000
0000
0001
0000
0000
0100
0000
0000
0001
0000
0000
1000
0000
0000
0000
0100
0000
0000
0000
0010
0000
0000
0000
,
0001
1000
0001
0000
0100
0010
0100
0000
,
0001
1000
0001
0000
0010
0100
0010
0000
,
0100
1000
0100
0000
1000
0100
1000
0000
,
0100
1000
0100
0000
0010
0001
0010
0000
,
0001
0100
0001
0000
1000
0100
1000
0000
,
0001
0100
0001
0000
1000
0010
1000
0000
,
0001
1000
0001
0000
0010
0100
0010
0000
,
0001
1000
0001
1000
0001
0000
1001
0000
,
0001
0100
0010
0100
0001
0000
0000
0000
1000
0100
0010
0100
1000
0000
0000
0000
,
0001
1000
0100
1000
0001
0000
0000
0000
0100
0010
1000
0010
0100
0000
0000
0000
,
0001
0010
0100
1000
0001
0000
0000
0000
1000
0100
0010
0100
1000
0000
0000
0000
,
0001
0100
0010
1000
0010
0000
0000
0000
0100
0001
0100
0001
0100
0000
0000
0000
,
0010
1000
0001
1000
0100
0000
0000
0000
0010
0100
1000
0100
0010
0000
0000
0000
,
0001
1000
0100
1000
0001
0000
0000
0000
0100
0010
1000
0010
0100
0000
0000
0000
,
0001
0010
0100
0010
0001
0000
0000
0000
1000
0001
0100
0001
1000
0000
0000
0000
,
0100
0010
0100
1000
0001
0000
0100
0000
0010
0000
0000
0000
1000
0000
0000
0000
,
2002
0000
0000
0000
,
3003
0000
0000
0000
;
