#TITLE:Power Trip;
#SUBTITLE:;
#ARTIST:Chimaira;
#TITLETRANSLIT:;
#SUBTITLETRANSLIT:;
#ARTISTTRANSLIT:;
#CREDIT:;
#BANNER:../fallback-bn.png;
#BACKGROUND:../fallback-bg.png;
#LYRICSPATH:;
#CDTITLE:;
#MUSIC:Chimaira - Power Trip.ogg;
#OFFSET:-4.743;
#SAMPLESTART:100.027;
#SAMPLELENGTH:12.000;
#SELECTABLE:YES;
#BPMS:0.000=188.000,140.000=94.000,156.000=188.000;
#STOPS:;
#BGCHANGES:;
// cache tags:
#FIRSTBEAT:0.000;
#LASTBEAT:484.250;
#SONGFILENAME:Songs/SSSC PACK/[L30J] - Power Trip/Power Trip.sm;
#HASMUSIC:1;
#HASBANNER:1;
#MUSICLENGTH:168.280;
// end cache tags

//---------------dance-single - L30J----------------
#NOTES:
     dance-single:
     L30J:
     Challenge:
     13:
     1.000,1.000,0.784,0.547,1.000,1245.000,132.000,92.000,4.000,3.000:



1002
0000
0003
1000
0100
0000
1000
0000
0010
0000
0100
0000
0001
0000
0010
0000
,
2001
0000
3000
0001
0100
0000
0001
0000
0010
0000
0100
0000
1000
0000
0010
1000
,
0002
0000
0003
0001
0100
0000
0010
0000
1000
0000
0100
0000
0010
0000
0001
0000
,
2000
0000
3000
1000
0100
0000
0010
0000
0001
0000
0100
0000
0010
0000
1000
0000
,
0002
0000
0003
0100
0001
0000
1000
0000
0001
0000
0010
0000
0001
0000
0100
0000
,
0020
0000
1030
0100
0010
0001
1000
0100
0010
0100
1000
0001
0010
0100
1000
0100
,
0010
0001
0010
0100
0010
0001
0010
0100
1000
0100
0010
0100
1000
0100
0010
0100
,
1000
0001
1000
0010
1000
0001
1000
0100
1000
0010
0100
0010
1000
0010
0100
0010
,
0100
0001
0100
0010
0100
0001
0100
0010
1000
0001
0100
0010
0100
0001
1000
0100
,
0010
0100
1000
0010
0100
0001
0010
0100
0010
0001
1000
0100
1000
0001
0100
0001
,
1000
0010
0000
0010
1000
0000
2010
0000
3010
0000
0102
0000
0103
0000
2010
0000
,
3010
0100
0000
0100
0001
0000
1002
0000
1003
0000
2100
0000
3100
0000
0120
0000
,
0130
1000
0000
1000
0001
0000
0102
0000
0103
0000
0210
0000
0310
0000
1020
0000
,
1030
0001
0000
0100
0010
0000
1001
0000
0100
0000
0001
1000
0010
0100
1000
0100
,
0010
1000
0000
0010
0100
0000
0210
0000
0310
0000
1020
0000
1030
0000
2001
0000
,
3001
0010
0000
0010
0100
0000
2100
0000
3100
0000
0012
0000
0013
0000
1200
0000
,
1300
0001
0000
1000
0100
0000
0021
0000
0031
0000
1002
0000
1003
0000
2010
0000
,
3010
0000
0000
0100
0000
0000
0001
0000
1000
0100
0010
0001
1000
0010
0100
0010
,
1000
0010
0000
0100
0001
0000
1000
0000
0001
0000
0100
0000
0201
0000
0310
0000
,
1000
0100
0000
0100
0010
0000
0001
0000
1000
0000
0100
0000
0012
0000
0013
0000
,
0100
1000
0000
0001
0010
0000
0100
0000
0001
0000
0100
0000
1200
0000
1300
0000
,
0010
0100
0000
0100
0001
0000
2001
0000
3001
0000
0100
0010
1000
0001
1000
0100
,
0010
0001
0000
1000
0010
0000
0100
0000
0001
0000
0010
0000
0120
0000
0130
0000
,
0010
0001
0000
0001
1000
0000
0010
0000
0100
0000
0001
0000
1002
0000
1003
0000
,
0001
0100
0000
0100
0010
0000
1000
0000
0010
0000
0100
0000
2010
0000
3010
0000
,
0100
0001
1000
0010
0100
0001
0100
0010
1000
0001
1000
0010
1000
0001
0100
0010
,
0100
1000
0000
0100
0001
0000
1000
0000
0100
0000
0010
0000
2100
0000
3021
0000
,
0130
0010
0000
0100
0001
0000
0100
0000
1000
0000
0010
0000
0102
0000
1203
0000
,
1300
0100
0000
0010
0100
0000
0010
0000
1000
0000
0010
0000
1002
0000
1003
0000
,
0001
0010
0000
0010
0001
0000
0021
0000
0031
0000
0100
0001
1000
0001
0010
0001
,
0100
0010
0000
1000
0001
0000
0100
0000
0001
0000
1000
0000
0120
0000
1030
0000
,
0010
1000
0000
0100
0010
0000
0001
0000
0010
0000
0100
0000
2100
0000
3001
0000
,
1000
0001
0000
0010
0100
0000
1000
0000
0001
0000
0010
0000
0120
0000
0031
0000
,
0100
0010
0000
0100
0010
0000
1000
0000
0002
0000
0003
0200
0000
0300
0002
0000
,
0003
2000
0000
0000
0000
0000
0000
0000
0000
0000
0000
0000
0000
0000
0000
0000
,
3001
0000
0000
0001
0000
0000
0001
0000
1000
0000
0010
0000
0100
0000
0001
0000
1000
0000
0000
1000
0000
0000
1000
0000
0010
0000
0100
0000
0001
0000
1000
0000
,
0010
0000
0000
0010
0000
0000
0010
0000
0100
0000
1000
0000
0100
0000
0001
0000
0220
0300
0000
0000
0000
0030
0000
0000
2020
0030
0000
3000
0202
0000
0300
0003
,
0100
0000
0000
0100
0000
0000
0100
0000
0010
0000
1000
0000
0001
0100
0001
0100
0001
0000
1000
0000
0000
0000
1000
0000
1000
0000
0010
0000
0100
0000
0100
0000
,
2002
0000
0000
3000
0000
0000
0003
0000
0202
0000
0003
0000
0000
0000
0300
0000
2020
0000
3000
0000
0000
0030
0100
0000
0010
0000
0000
0000
1001
0000
0000
0000
,
0001
0000
0000
0001
1000
0000
0010
0000
0100
0000
0001
0000
1000
0000
0001
0000
,
0110
0000
0000
0100
0010
0000
1000
0000
0001
0000
0100
0000
0010
0000
0100
0000
,
0101
0000
0000
1000
0010
0000
0100
0000
1000
0000
0100
0000
0010
0000
1000
0000
,
0001
0010
0001
0010
0001
0100
0010
0100
0001
1000
0100
0010
0001
0010
0100
0010
,
0100
0010
0001
1000
0100
0010
0001
1000
0100
1000
0001
0010
0100
1000
0001
0010
,
0001
1000
0100
0010
0001
1000
0100
0010
0001
0010
0100
1000
0001
0010
0100
1000
,
0001
1000
0010
1000
0001
1000
0100
1000
0001
0010
0001
1000
0001
0010
0001
0100
,
0010
1000
0100
1000
0010
0100
0001
0010
0001
0100
0001
0010
0100
0010
0001
1000
,
0001
0100
0000
0010
1000
0000
0110
0000
0001
0000
0110
0000
0100
0000
1010
0000
,
0001
0100
0000
0001
0100
0000
1010
0000
0100
0000
0101
0000
0010
0000
1100
0000
,
1000
0100
0000
0100
1000
0000
1001
0000
0010
0000
1001
0000
0100
0000
0011
0000
,
0001
0010
0000
0100
0010
0000
0110
0000
1001
0000
0001
0100
0001
1000
0100
1000
,
0010
0100
0000
0100
0001
0000
0101
0000
1000
0000
1100
0000
0001
0000
0011
0000
,
0010
0100
0000
1000
0001
0000
0011
0000
0001
0000
1010
0000
1000
0000
0110
0000
,
0100
0010
0000
1000
0100
0000
0011
0000
0001
0000
0101
0000
0100
0000
1010
0000
,
0010
0100
0000
0001
0010
0000
0110
0000
0100
0000
0000
0100
0000
0000
0100
0000
,
1000
0000
0000
1100
0000
0000
1000
0000
0010
0000
1000
0000
0001
0000
0100
0000
,
0001
0000
0000
0101
0000
0000
0100
0000
0010
0000
1000
0000
0001
0000
0010
0000
,
0100
0000
0000
0011
0000
0000
0010
0000
0100
0000
0010
0000
0100
0000
1000
0000
,
2002
0003
0000
0000
0000
0000
0000
0000
0020
0000
3000
0000
0230
0000
0000
0300
,
1010
0000
0000
0010
0000
0000
0100
0000
0001
0000
1000
0000
0100
0010
0100
0010
,
0001
1001
0000
0011
0101
0100
0010
0010
,
1010
0000
0100
0010
1100
1000
0000
0100
,
0011
0000
0000
0110
0010
0000
0110
1000
,
0011
0000
0000
0110
0000
0000
1100
0000
1000
0000
0100
0000
0010
0000
0001
0000
,
1100
0000
0000
0110
0000
0000
0011
0000
0001
0000
0100
0000
0010
0000
1000
0000
,
1010
0000
0000
0110
0000
0000
0101
0000
0001
0000
0100
0000
0010
0000
1000
0000
,
0220
0000
0000
0330
1001
0000
0011
0000
,
0101
0000
0000
0110
0000
0000
1010
0000
1000
0000
0010
0000
0100
0001
0100
0001
,
1000
0010
0100
0010
1000
0100
1000
0010
0100
0001
0010
0001
0010
0100
1000
0001
,
0010
0000
0100
1000
1001
0100
0010
0001
,
1001
0000
0000
0000
1010
0000
0000
0000
0220
0000
0300
0000
0200
0000
0300
0030
,
2002
0000
0000
0000
0000
0000
0000
0000
0000
0000
0000
0000
0000
0000
0000
3003
,
1000
0010
0100
0001
1000
0010
0100
0001
0100
0010
1000
0001
0100
0010
1000
0001
,
1000
0010
1000
0001
0100
0010
1000
0100
1000
0010
1000
0001
0100
0010
1000
0001
,
1000
0100
0010
0001
0010
0100
1000
0001
1000
0010
0100
0001
1000
0100
1000
0001
,
0010
0001
0010
0001
1000
0001
1000
0001
1000
0010
1000
0010
0100
0010
0100
0010
,
1000
0001
1000
0010
0100
0001
1000
0010
1000
0100
1000
0010
0100
0001
0100
0001
,
0010
0001
0010
0100
1000
0100
1000
0001
0010
0100
0010
0001
1000
0010
1000
0100
,
0010
0001
0100
0001
0010
0001
0010
0100
1000
0100
1000
0010
1000
0001
1000
0010
,
0100
0001
0100
0001
0010
0001
0010
0001
1000
0010
1000
0010
0100
0010
0100
0001
,
1000
0100
0010
0100
1000
0001
0010
0001
1000
0010
0100
0001
1000
0010
0100
0010
,
1000
0100
1000
0010
0100
0001
0010
0100
1000
0010
0100
0001
0100
0010
1000
0100
,
1000
0010
0100
0001
0010
0100
1000
0001
1000
0010
0100
0001
1000
0100
0010
0001
,
0010
0100
0010
0100
1000
0001
1000
0001
0100
0010
0100
0010
1000
0100
1000
0010
,
0100
0001
1000
0010
1000
0100
1000
0010
0100
0001
0010
0001
0010
0100
1000
0001
,
1000
0010
0100
0001
0100
0010
1000
0100
1000
0010
0100
0001
0100
0010
1000
0001
,
1000
0100
0010
0001
0010
0100
1000
0100
1000
0001
1000
0100
0010
0100
0010
0001
,
1000
0001
1000
0010
0100
0010
0100
0001
1000
0001
1000
0100
0010
0100
0010
0001
,
1000
0100
0010
0001
1000
0010
0100
0010
1000
0000
0001
0000
0100
0000
0010
1000
,
0010
0100
0001
1000
0100
0010
0001
1000
0010
0000
0100
0000
0001
0000
1000
0100
,
0010
0100
0010
0100
1000
0010
0100
0001
1000
0000
0001
0000
0100
0000
0010
1000
,
0100
1000
0010
0100
0001
1000
0100
0010
0001
0010
0100
1000
0100
1000
0010
0000
,
0100
0001
0100
0010
1000
0100
0010
0001
0100
0000
0001
0000
1000
0000
0100
0010
,
0100
0010
0001
1000
0100
1000
0001
0100
0010
0000
1000
0000
0010
0000
1000
0001
,
0100
0001
1000
0001
0010
0001
1000
0010
0100
0000
0010
0000
1000
0000
0100
1000
,
0001
1000
0010
0100
0010
1000
0100
0010
0001
0010
0100
1000
0010
0100
0001
1000
,
0100
0000
0000
0010
0000
0000
0100
0000
1000
0000
0001
0000
0100
0000
0010
0000
,
1000
0000
0000
0001
0000
0000
0100
0000
0010
0000
1000
0000
0010
0000
0100
0000
,
0001
0000
0000
1000
0000
0000
0100
0000
0010
0000
0100
0000
1000
0000
0010
0000
,
0220
0000
0000
0330
1001
0000
0011
0000
,
0101
0000
0000
0001
0000
0000
1000
0000
0100
0000
0010
0000
0100
1000
0100
1000
,
0001
0100
0000
0010
0110
0100
0001
0001
,
1100
0000
0100
0010
0011
0000
0100
0010
,
0101
0100
0001
0100
0010
0000
0010
0000
,
1010
0000
0000
0100
0000
0000
0001
0000
1100
0000
1000
0000
0001
0000
0100
0000
,
0110
0000
0000
0100
0000
0000
0001
0000
1100
0000
1000
0000
0001
0000
0010
0000
,
0110
0000
0000
0001
0000
0000
0010
0000
0101
0000
1000
0000
0001
0000
0010
0000
,
0011
0000
0100
1000
0101
0001
0100
0010
,
1010
0000
0000
0110
0000
0000
0101
0000
0100
0000
0010
0000
1000
0100
1000
0010
,
0100
0001
0100
0010
1000
0100
1000
0001
0100
0001
0010
0100
0010
0100
1000
0001
,
0020
0000
0130
1000
1001
0100
0010
0001
,
0101
0000
0000
0000
1010
0000
0000
0000
0220
0000
0000
0000
0000
0000
0000
0330
,
2002
0000
0000
0000
0000
0000
0000
3003
0202
0000
0000
0000
0000
0000
0000
0303
,
2020
0000
0000
0000
0000
0000
0000
3030
2200
0000
0000
0000
0000
0000
0000
3300
,
0001
0010
0100
1000
0001
1000
0100
0010
0100
1000
0001
1000
0010
0100
0001
1000
,
0100
0010
0001
0010
0001
1000
0100
1000
0001
0010
0100
0010
0100
1000
0001
1000
,
0010
0100
0001
1000
0010
1000
0001
0100
0001
1000
0010
1000
0010
1000
0001
0100
,
0010
1000
0100
0010
0001
1000
0010
0100
0001
0010
0100
0010
0100
1000
0001
1000
,
0200
0000
0020
0000
,
2002
0330
0000
0000
0000
0000
0000
0000
0000
0000
0000
0000
0000
0000
0000
0000
,
0000
0000
0000
0000
3003
0000
0000
0000
MMMM
0000
0202
0303
2200
3300
2020
3030
,
0202
0303
0000
0000
0000
0000
0000
0000
0000
0000
0000
0000
0000
0000
0000
0000
;
