#TITLE:Frozen Fire;
#SUBTITLE:;
#ARTIST:KaW;
#TITLETRANSLIT:;
#SUBTITLETRANSLIT:;
#ARTISTTRANSLIT:;
#CREDIT:;
#BANNER:frozenfire-bn.png;
#BACKGROUND:frozenfire-bg.png;
#LYRICSPATH:;
#CDTITLE:;
#MUSIC:Frozen_Fire.mp3;
#OFFSET:-0.033;
#SAMPLESTART:17.980;
#SAMPLELENGTH:12.000;
#SELECTABLE:YES;
#BPMS:0.000=160.020,144.000=40.000,144.875=79.999,144.938=119.999,145.000=159.999,145.062=200.000,145.125=240.000,145.188=269.999,152.000=62.360,168.000=160.000;
#STOPS:168.000=0.400
;
#BGCHANGES:;
// cache tags:
#FIRSTBEAT:16.000;
#LASTBEAT:304.000;
#SONGFILENAME:Songs/newbie/Frozen Fire/frozenfire.sm;
#HASMUSIC:1;
#HASBANNER:1;
#MUSICLENGTH:128.867;
// end cache tags

//---------------dance-single - E. Cohn----------------
#NOTES:
     dance-single:
     E. Cohn:
     Hard:
     9:
     0.670,0.882,0.598,0.155,0.469,507.000,77.000,20.000,50.000,0.000:
0000
0000
0000
0000
,
0000
0000
0000
0000
,
0000
0000
0000
0000
,
0000
0000
0000
0000
,
1000
0100
0001
0100
1000
0100
0001
0100
,
1000
0100
0001
0100
1000
0010
0100
0000
,
1000
0010
0001
0010
1000
0010
0001
0010
,
1000
0010
0001
0010
1000
0010
0100
0000
,
1000
0001
1000
0001
1000
0001
1000
0001
,
1000
0100
1000
0100
1000
0100
0010
0000
,
0001
1000
0001
1000
0001
1000
0001
1000
,
0010
0000
0100
0000
0010
0100
0010
0100
0020
0000
0000
0000
0000
0000
0000
0030
,
1001
0000
0101
0000
1010
0000
1000
1010
,
0000
1010
0000
1000
0100
0001
0100
0002
,
0000
0003
1001
0000
0101
0000
1010
1000
,
0000
0000
0000
0010
0101
0000
1010
0000
,
1001
0000
0101
0000
1010
0000
1001
0001
,
0000
1001
0000
1000
0010
0001
0010
1000
,
0100
0000
0101
0000
1010
0000
1001
1000
,
1001
0000
0100
0000
0010
0000
0001
1000
0001
0000
2000
0000
0002
0000
0000
3003
,
1000
0100
1000
0000
0100
0000
0010
0000
0001
0000
0010
0000
1001
0000
0000
0000
,
0001
0010
0001
0000
0100
0000
0010
0000
0100
0000
0001
0000
1001
0000
0000
0000
,
1000
0010
1000
0000
0010
0000
0100
0000
0001
0000
0010
0000
1001
0000
0000
0000
,
1000
0001
1000
0001
0100
0000
0010
0000
1001
0000
0100
0000
0010
0000
0100
0000
,
0010
1000
0010
0000
1000
0000
0001
0000
0100
0000
0001
0000
0110
0000
0000
0000
,
0100
0001
0100
0000
0010
0000
1000
0000
0001
0000
0100
0000
0110
0000
0000
0000
,
0010
0001
0010
0000
1000
0000
0010
0000
0100
0000
0001
0000
0110
0000
0000
0000
,
0010
0100
0010
0100
0001
0000
0001
0000
0110
0000
1000
0000
0001
0000
1000
0000
,
0001
0000
0000
0000
0000
0000
0000
0000
0000
0000
0000
0000
1000
0000
0000
0000
0000
0000
0000
0000
0000
0000
0000
0000
0001
0000
0000
0000
0000
0000
0000
0000
0000
0000
0000
0000
1000
0000
0000
0000
0000
0000
0000
0000
0000
0000
0000
0000
0001
0000
0000
0000
0000
0000
0000
0000
0000
0000
0000
0000
0000
0000
0000
0000
0000
0000
0000
0000
0000
0000
0000
0000
1000
0000
0000
0000
0000
0000
0000
0000
0000
0000
0000
0000
0001
0000
0000
0000
0000
0000
0000
0000
0000
0000
0000
0000
1000
0000
0000
0000
0000
0000
0000
0000
0000
0000
0000
0000
0001
0000
0000
0000
0000
0000
0000
0000
0000
0000
0000
0000
1000
0000
0000
0000
0000
0000
0000
0000
0000
0000
0000
0000
0000
0000
0000
0000
0000
0000
0000
0000
0000
0000
0000
0000
0000
0000
0000
0000
0000
0000
M000
0000
000M
0000
0000
0000
0M00
0000
0000
0000
00M0
0000
0000
0000
0000
0000
0000
0000
0000
0000
0000
0000
0000
0000
0000
0000
0000
0000
0000
0000
0000
0000
0000
0000
0000
0000
0000
0000
0000
0000
0000
0000
,
1000
0000
0000
0000
0010
0000
0000
0000
1000
0000
0000
0000
0010
0000
0000
0000
1000
0000
0000
0000
0000
0000
0000
0000
0010
0000
0000
0000
1000
0000
0000
0000
0010
0000
0000
0000
1000
0000
0000
0000
0010
0000
0000
0000
0000
0000
0000
0000
0000
0M00
00M0
M000
000M
0000
0000
0000
0000
0000
0000
0000
0000
0000
0000
0000
,
0100
0000
0000
0001
0000
0000
0100
0000
0000
0001
0000
0000
0100
0000
0000
0000
0000
0000
0001
0000
0000
0100
0000
0000
0001
0000
0000
0100
0000
0000
0001
0000
0000
0000
0000
0000
M000
0M00
000M
00M0
0000
0000
0000
0000
0000
0000
0000
0000
,
1000
0001
1000
0000
1001
0000
0000
0010
0100
0000
0000
0010
0100
0000
0000
0000
,
0010
0000
0000
0000
0000
0000
0000
0000
0000
0000
0000
0000
0001
0000
0000
0000
0000
0000
0000
0000
0000
0000
0000
0000
0010
0000
0000
0000
0000
0000
0000
0000
0000
0000
0000
0000
0001
0000
0000
0000
0000
0000
0000
0000
0000
0000
0000
0000
0010
0000
0000
0000
0000
0000
0000
0000
0000
0000
0000
0000
0000
0000
0000
0000
0000
0000
0000
0000
0000
0000
0000
0000
0001
0000
0000
0000
0000
0000
0000
0000
0000
0000
0000
0000
0010
0000
0000
0000
0000
0000
0000
0000
0000
0000
0000
0000
0001
0000
0000
0000
0000
0000
0000
0000
0000
0000
0000
0000
0010
0000
0000
0000
0000
0000
0000
0000
0000
0000
0000
0000
0001
0000
0000
0000
0000
0000
0000
0000
0000
0000
0000
0000
0000
0000
0000
0000
0000
0000
0000
0000
0000
0000
0000
0000
0000
0000
0000
0000
0000
0000
000M
0000
00M0
0000
0000
0000
0M00
0000
0000
0000
M000
0000
0000
0000
0000
0000
0000
0000
0000
0000
0000
0000
0000
0000
0000
0000
0000
0000
0000
0000
0000
0000
0000
0000
0000
0000
0000
0000
0000
0000
0000
0000
,
0001
0000
0000
0000
1000
0000
0000
0000
0001
0000
0000
0000
1000
0000
0000
0000
0001
0000
0000
0000
0000
0000
0000
0000
1000
0000
0000
0000
0001
0000
0000
0000
1000
0000
0000
0000
0001
0000
0000
0000
1000
0000
0000
0000
0000
0000
0000
0000
0000
0M00
M000
000M
00M0
0000
0000
0000
0000
0000
0000
0000
0000
0000
0000
0000
,
0100
0000
0000
0010
0000
0000
0100
0000
0000
0010
0000
0000
0100
0000
0000
0000
0000
0000
0010
0000
0000
0100
0000
0000
0010
0000
0000
0100
0000
0000
0010
0000
0000
0000
0000
0000
000M
0M00
00M0
M000
0000
0000
0000
0000
0000
0000
0000
0000
,
0001
0010
0001
0000
0011
0000
0000
1000
0100
0000
0000
1000
0100
0000
0010
0000
,
2020
0000
0000
0000
,
0000
0000
0000
0030
,
3000
0000
1000
0000
1100
0000
0011
0000
0001
0010
0100
0010
0220
0030
0010
0000
,
0310
1000
0100
0000
0100
0000
0100
0000
0001
0010
0100
1000
2010
0010
0001
0000
,
3001
0100
0010
0000
0011
0000
1100
0000
1000
0001
0010
0100
0202
0003
0001
0000
,
0310
0001
0100
0000
0100
0000
0100
0000
0001
0010
0100
1000
0100
0010
0100
0000
,
1200
0000
0000
0000
0000
0000
M000
0000
00M0
000M
0000
0000
00MM
0000
M00M
0000
0000
0000
M000
000M
0000
00M0
000M
0000
0000
0000
M000
00MM
0000
M00M
0000
0000
0000
0000
M0MM
0000
0000
00M0
0000
000M
M000
0000
000M
00M0
000M
M000
0000
0000
,
1300
0000
0100
0000
0010
0000
0001
0010
0000
0010
0100
0000
1000
0010
0100
0000
,
0001
0000
0100
0000
0010
0000
1000
0100
0000
0100
0010
0000
0001
0010
0100
1000
,
0001
0000
0010
0000
0100
0000
1000
0100
0000
0100
0010
0000
0001
0100
0010
0000
,
1000
0000
0010
0000
0100
0000
0001
0010
0000
0010
0100
0000
1000
0100
0010
0001
,
0010
0000
0100
0000
1000
0010
0100
0001
0010
0000
0100
0000
1000
0100
0010
0001
,
0010
0000
0100
0000
1000
0010
0100
0001
0010
0000
0100
0000
1000
0010
0100
0001
,
0010
0100
1000
0010
0100
0001
0010
0100
,
1000
0000
0010
0000
0100
0001
0100
0001
0200
0000
0000
0000
0000
0000
0000
0300
,
1001
0000
1010
0000
0101
0000
0001
0101
,
0000
0101
0000
0001
0010
1000
0010
2000
,
0000
3000
1001
0000
1010
0000
0101
0001
,
0000
0000
0000
0100
1010
0000
0101
0000
,
1001
0000
1010
0000
0101
0000
1001
1000
,
0000
1001
0000
0001
0100
1000
0100
0001
,
0010
0000
1010
0000
0101
0000
1001
0001
,
1001
0000
0010
0000
0100
0000
1000
0001
1000
0000
0002
0000
2000
0000
0000
3003
,
0011
0000
1001
0000
0110
0000
0010
0110
,
0000
0110
0000
0010
1000
0001
1000
0002
,
0000
0003
0011
0000
1001
0000
0110
0010
,
0000
0000
0000
0100
1001
0000
0110
0000
,
0011
0000
1001
0000
0110
0000
0011
0001
,
0000
0011
0000
0010
0100
0001
0100
0010
,
1000
0000
1001
0000
0110
0000
0011
0010
,
0011
0000
0100
0000
0010
0000
0001
0010
0001
0000
0020
0000
0002
0000
0000
0033
,
1000
0010
0100
0001
,
1000
0001
0010
0100
,
0001
0010
0100
1000
0100
0010
0100
1000
,
0100
1000
0010
0100
1000
0100
1001
0000
,
0001
0100
0010
1000
,
0001
1000
0100
0010
,
1000
0100
0010
0001
0010
0100
0010
0001
,
0010
0000
0001
0000
0100
0000
0010
0000
1000
0000
0010
0000
0100
0000
0001
1000
,
0002
0000
0000
0003
;

//---------------dance-single - E. Cohn----------------
#NOTES:
     dance-single:
     E. Cohn:
     Challenge:
     12:
     0.821,0.934,0.241,0.411,1.000,657.000,31.000,53.000,286.000,3.000:
0000
0000
0000
0000
,
0000
0000
0000
0000
,
0000
0000
0000
0000
,
0000
0000
0000
0000
,
1000
0000
0100
0000
1000
0100
1000
0010
0100
0000
0001
0000
0100
0001
0100
0010
,
1000
0000
0100
0000
1000
0100
1000
0010
1000
0000
0100
0000
1000
0000
0001
0000
,
0100
0000
0001
0000
0010
0001
0100
0010
1000
0000
0100
0000
1000
0010
1000
0100
,
1000
0000
0010
0000
0100
0001
0100
0010
0100
0000
0001
0000
1000
0000
0100
0000
,
1000
0000
0100
0000
1000
0010
1000
0100
0001
0000
0100
0000
1000
0100
1000
0010
,
0001
0000
0010
0000
0001
0010
1000
0100
1000
0000
0100
0000
1000
0000
0001
0000
,
0100
0000
0001
0000
1000
0010
1000
0100
0001
0000
0100
0000
1000
0100
1000
0100
,
1000
0000
0001
0000
0010
0100
0010
0100
2000
0000
0000
0M0M
0000
0000
0000
0000
,
0002
0MM0
3000
0000
0200
M0M0
0000
0003
0002
M0M0
0000
0300
0010
0000
0203
M0M0
,
0000
M00M
0020
0000
M30M
0000
0031
0000
M01M
0000
1000
0000
M01M
0000
0001
0MM0
,
2001
0000
0M0M
0000
0020
0M0M
0000
0030
0020
0M0M
3000
0000
M20M
0030
1000
0000
,
M00M
0010
M30M
0001
0M1M
1000
1001
0000
,
M21M
0000
0000
0000
M02M
0000
0000
0030
20MM
0000
0000
0300
0M2M
3000
0002
0000
,
MM00
0030
0200
0000
0303
0000
0100
0000
1M0M
0000
0100
0000
M0M1
0000
1000
0000
,
1MM1
0000
M002
0000
20M3
0000
3MM1
0MM2
,
2000
0MM0
0000
0000
0MM0
0000
0000
0000
0MM0
0000
0000
0000
0010
0000
0000
3003
,
M001
0010
M001
0010
0001
00M0
1000
0010
1000
0010
100M
0000
0010
M000
0010
0000
,
0100
001M
1000
001M
0100
M000
0010
0100
M001
0100
0010
0M00
0001
M000
0001
00M0
,
1000
0100
0010
0M01
10M0
000M
1000
0100
0010
0M01
10M0
0000
001M
0000
0100
0000
,
0010
0100
M020
0000
0130
00M0
0000
100M
0010
0000
1M00
0000
M100
000M
1M00
0000
,
100M
0100
100M
0100
1000
0M00
0001
0100
0001
0100
M001
0000
0100
000M
0100
0000
,
0010
M100
0001
M100
0010
000M
0100
0010
100M
0010
0100
00M0
1000
000M
1000
0M00
,
0001
0010
0100
10M0
0M01
M000
0001
0010
0100
10M0
0M01
0000
M100
0000
0010
0000
,
0100
0010
020M
0000
0310
0M00
0000
M001
0100
0000
00M1
0000
001M
M000
00M1
0000
,
0M10
0001
0M10
0001
0010
000M
0100
0001
0100
0001
01M0
0000
0001
0M00
0001
0000
,
1000
00M1
0100
00M1
1000
0M00
0001
1000
0M10
1000
0001
M000
0010
0M00
0010
000M
,
0100
1000
0001
M010
010M
00M0
0100
1000
0001
M010
010M
0000
00M1
0000
1000
0000
,
0001
0010
0M02
0000
0013
M000
0000
01M0
0001
0000
M100
0000
0M01
00M0
M100
0000
,
0M10
1000
0M10
1000
0010
M000
0100
1000
0100
1000
01M0
0000
1000
0M00
1000
0000
,
0001
10M0
0100
10M0
0001
0M00
1000
0001
0M10
0001
1000
000M
0010
0M00
0010
M000
,
0100
0001
1000
001M
M100
00M0
0100
0001
1000
001M
M100
0000
10M0
0000
0001
0000
,
1000
0010
2M00
0000
3010
000M
0000
01M0
1000
0000
010M
0000
0M01
00M0
010M
0000
,
2002
0000
0000
0000
,
0000
0000
0000
3003
,
MMMM
0000
0000
0000
0000
0000
0000
0000
0000
1000
0100
0010
0100
1000
0100
1000
0000
0000
0000
0000
0000
0000
0000
0000
MMMM
0000
0000
0000
0000
0000
0000
0000
0000
0100
1000
0100
1000
0100
0010
0001
0000
0000
0000
0000
0000
0000
0000
0000
,
MMMM
0000
0000
0000
0000
0000
0000
0000
0000
0010
0001
0010
0100
0010
0100
1000
0000
0000
0000
0000
0000
0000
0000
0000
MMMM
0000
0000
0000
0000
0000
0100
1000
0100
0000
0000
0000
0000
0000
0000
0001
0010
0001
0010
0000
0000
0010
0100
0010
,
0000
0000
0000
0000
0000
0000
0000
0000
0000
0010
0100
1000
0100
1000
0100
0010
0000
0000
0000
0000
0000
0000
0000
0000
MMMM
0000
0000
0000
0000
0000
0000
0000
0000
0010
0001
0010
0001
0010
0100
0010
0000
0000
0000
0000
0000
0000
0000
0000
,
MMMM
0000
0000
0000
0000
0000
0000
0000
0000
0100
0010
0001
0010
0100
0010
0001
0000
0000
0000
0000
0000
0000
0000
0000
MMMM
0000
0000
0000
0000
0000
0010
0001
0010
0000
0000
0000
0000
0000
0000
1000
0100
0010
0001
0000
0000
1000
0010
0100
,
0020
0000
0000
0000
,
1030
0000
0001
0000
0010
0001
0010
0100
1000
0000
1000
0000
0010
1000
0010
0100
,
0001
0000
0010
0000
0001
0010
0001
0100
0001
0000
0010
0000
0001
0000
1000
0000
,
0010
0000
1000
0000
0100
1000
0010
0100
0001
0000
0010
0000
0001
0100
0001
0010
,
0001
0000
0100
0000
0010
1000
0010
0100
0010
0000
1000
0000
0001
0000
0010
0000
,
0001
0000
0010
0000
0001
0100
0001
0010
1000
0000
0010
0000
0001
0010
0001
0100
,
1000
0000
0100
0000
1000
0100
0001
0010
0001
0000
0010
0000
0001
0000
1000
0000
,
0010
0000
1000
0000
0001
0100
0001
0010
1000
0000
0010
0000
0001
0010
0001
0010
,
0001
0000
1000
0000
0100
0010
0100
0010
M002
0M00
00M0
M000
0M00
00M0
M000
00M0
,
2000
0MM0
0003
0000
0020
0000
0000
3000
2000
0M0M
0000
0030
0100
0000
3020
0000
,
M00M
0000
0200
M00M
0030
0000
13MM
0000
M1M0
0000
0001
0000
M10M
0000
1000
0000
,
1MM2
0000
0000
0000
M2M0
0000
0000
0300
M2M0
0000
0003
0000
M02M
0300
0001
0000
,
M00M
0000
0100
M00M
0030
0000
10MM
0000
0100
0000
M0M1
0000
1MM1
0000
M00M
0000
,
0120
0000
M00M
0000
0200
M00M
0000
0300
0002
MM00
0000
0030
0200
M0M3
2000
0000
,
00MM
0300
0020
0M0M
3030
0000
M01M
0000
0001
0000
M01M
0000
100M
0000
0MM1
0000
,
1001
M00M
2MM0
000M
3002
M000
1003
0020
,
0200
M00M
0000
0000
M00M
0000
0000
0000
M00M
0000
0000
0000
0001
0000
0000
0330
,
1100
0100
0110
0010
0110
1000
0110
0011
,
MM00
0110
00MM
0100
1100
0001
0210
0310
,
0011
0010
0010
0100
1000
0010
1000
0011
,
0MM0
000M
0010
0001
M010
0100
0001
0000
0100
0000
0000
0000
0010
0001
1000
0100
,
1100
1000
1001
0010
1001
0100
1001
0011
,
MM00
1001
00MM
1000
1100
0010
2001
3001
,
0011
0010
0100
1000
0100
0010
0001
0011
,
M1MM
0000
MM1M
0000
MMM1
0000
0010
0100
1000
0000
2002
0000
0110
0000
3003
0000
,
1000
0000
0010
0000
0100
0010
0001
0010
0100
0000
0010
0000
1000
0100
0001
0100
,
1000
0000
0010
0000
0100
0001
0010
0001
0100
0000
0010
0000
1000
0010
0001
0000
,
0001
0000
0010
0000
0100
1000
0100
0010
0001
0000
0100
0000
0010
1000
0010
0100
,
0001
0000
0010
0100
1000
0000
1000
0100
0010
0000
0001
0010
1000
0000
1000
0010
,
0001
0000
0100
0000
0010
0100
1000
0100
0010
0000
0001
0000
0010
0100
1000
0100
,
0010
0000
0001
0000
0010
1000
0010
0001
0010
0000
1000
0000
0010
0100
0001
0000
,
0100
0001
0100
1000
0100
0001
0010
0001
0010
0100
1000
0010
0100
0010
0001
0010
,
0100
1000
0010
0100
0001
0010
0001
0010
0100
1000
0010
0100
0001
0010
0001
0200
,
0002
0303
0M0M
0000
0000
0000
0000
0000
;

//---------------dance-single - R. Manion----------------
#NOTES:
     dance-single:
     R. Manion:
     Beginner:
     1:
     0.127,0.291,0.109,0.000,0.000,101.000,14.000,0.000,0.000,0.000:
0000
0000
0000
0000
,
0000
0000
0000
0000
,
0000
0000
0000
0000
,
0000
0000
0000
0000
,
1000
0000
0000
0000
,
0000
0000
0000
0000
,
0100
0000
0000
0000
,
0000
0000
0000
0000
,
0001
0000
0000
0000
,
0000
0000
0000
0000
,
0010
0000
0000
0000
,
0000
0000
0000
0000
,
1000
0000
0010
0000
,
0100
0000
0001
0000
,
1000
0000
0000
0000
,
1001
0000
0000
0000
,
0010
0000
0100
0000
,
0001
0000
0100
0000
,
1000
0000
0000
0000
,
1001
0000
0000
0000
,
0110
0000
0000
0000
,
0110
0000
0000
0000
,
1001
0000
0000
0000
,
1001
0000
0000
0000
,
0110
0000
0000
0000
,
0110
0000
0000
0000
,
1001
0000
0000
0000
,
1001
0000
0000
0000
,
1000
0100
0010
0100
,
0010
1000
0001
0000
,
0010
0100
0001
0010
,
0001
0100
0010
0000
,
1000
0100
0010
0100
,
0001
0010
0100
0000
,
0100
1000
0010
0100
,
0001
0100
0010
1000
,
1001
0000
0000
0000
,
0000
0000
0000
0000
,
1000
0000
0000
0000
,
1000
0000
0000
0000
,
0001
0000
0000
0000
,
0001
0000
0000
0000
,
0100
0000
0000
0000
,
0001
0000
0000
0000
,
0000
0000
0000
0000
,
0010
0000
0000
0000
,
0000
0000
0000
0000
,
1000
0000
0000
0000
,
0000
0000
0000
0000
,
0100
0000
0000
0000
,
0000
0000
0000
0000
,
0001
0000
0100
0000
,
0010
0000
1000
0000
,
0001
0000
0000
0000
,
1001
0000
0000
0000
,
0100
0000
0010
0000
,
1000
0000
0010
0000
,
0001
0000
0000
0000
,
1001
0000
0000
0000
,
0001
0000
0000
0000
,
0000
0000
0000
0000
,
0010
0000
0000
0000
,
0000
0000
0000
0000
,
1000
0000
0000
0000
,
0000
0000
0000
0000
,
0100
0000
0000
0000
,
0000
0000
0000
0000
,
0001
0000
0100
0000
,
0010
0000
1000
0000
,
0001
0100
0010
1000
,
1000
0000
0010
0000
,
0100
0000
0001
0000
,
0100
0000
0010
0000
,
0100
1000
0001
0010
,
0010
0100
0000
1000
,
1001
0000
0000
0000
;

//---------------dance-single - E. Cohn----------------
#NOTES:
     dance-single:
     E. Cohn:
     Medium:
     7:
     0.409,0.590,0.217,0.140,0.062,323.000,28.000,18.000,12.000,0.000:
0000
0000
0000
0000
,
0000
0000
0000
0000
,
0000
0000
0000
0000
,
0000
0000
0000
0000
,
1000
0000
0000
0000
0000
0000
0000
0010
,
1000
0000
0000
0000
0000
0000
0000
0010
,
0100
0000
0000
0000
0000
0000
0000
0010
,
0001
0000
0000
0000
0000
0000
0000
0010
,
0010
0000
0000
0001
0000
0100
0000
0010
,
0100
0000
0000
1000
0000
0010
0000
1000
,
0001
0000
0000
0010
0000
1000
0000
0010
,
0100
0000
0000
0010
0000
1000
0000
0001
,
2001
0000
0001
0000
3001
0000
0100
0010
,
0000
0010
0000
0010
0100
0001
0010
0001
,
0000
0000
1000
0000
1000
0000
1000
0100
,
0000
0000
0000
0001
0100
0000
0101
0000
,
0120
0000
0100
0000
0130
0000
1000
0001
,
0000
0001
0000
0001
1000
0001
0010
0100
,
0000
0000
0010
0000
0010
0000
0010
1000
,
2002
0000
0000
0000
0000
0000
0000
3003
,
0010
0000
0000
00M0
0000
0000
0010
0000
0000
0000
00M0
0000
1001
0000
0000
0000
,
1000
0000
0000
M000
0000
0000
1000
0000
0000
M000
0000
0000
1001
0000
0000
0000
,
0001
0000
0000
000M
0000
0000
0001
0000
0000
000M
0000
0000
1001
0000
0000
0000
,
0110
0000
0000
0000
0000
0000
0000
1000
0100
0000
0100
0000
0100
0000
0000
0000
,
0001
0000
0000
000M
0000
0000
0001
0000
0000
0000
000M
0000
0110
0000
0000
0000
,
0010
0000
0000
00M0
0000
0000
0010
0000
0000
00M0
0000
0000
0110
0000
0000
0000
,
0100
0000
0000
0M00
0000
0000
0100
0000
0000
0M00
0000
0000
0110
0000
0000
0000
,
1001
0000
0000
0000
0000
0000
0000
0010
1000
0000
1000
0000
1000
0000
0000
0000
,
1000
0100
0010
0001
0010
0100
1000
0000
,
0001
0010
0100
1000
0100
0010
0001
0000
,
1000
0100
1000
0010
0100
0001
0100
0000
,
1000
0001
0100
0010
1000
0100
0010
0000
,
0001
1000
0100
0010
0100
0010
0001
0000
,
0001
0100
1000
0100
0001
0010
0001
0000
,
0010
0001
0010
0100
0010
1000
0100
0010
,
0001
0000
1000
0000
0001
1000
0001
1000
,
2002
0000
0000
0000
,
0000
0000
0000
0000
0000
3003
0000
0000
,
1000
0000
0000
0000
0100
0000
0010
0001
0010
0000
0100
0000
0010
0000
0110
0000
,
0001
0000
0000
0000
0100
0000
0100
1000
0100
0000
0010
0000
0100
0000
0110
0000
,
0100
0000
0000
0000
0001
0000
1000
0010
1000
0000
0001
0000
1000
0000
1001
0000
,
0010
0000
0000
0000
0001
0000
0001
0100
0001
0000
1000
0000
0001
0000
1001
0000
,
2002
0000
0000
0000
0000
0000
0000
3003
,
1000
0000
0100
0000
0010
0000
0001
0010
,
0010
0000
0001
0000
0100
0000
1000
0100
,
0100
0000
0010
0000
1000
0000
0100
1000
,
1000
0000
0100
0000
0010
0000
0001
0010
,
0010
0000
0100
0000
1000
0000
0100
0010
,
0010
0000
0001
0000
0010
0000
0100
1000
,
1000
0000
0100
0000
0010
0000
0100
0001
,
0001
0000
0100
0000
1000
0100
0010
1000
,
2001
0000
0001
0000
3001
0000
0100
0010
,
0000
0010
0000
0010
0100
0001
0010
0001
,
0000
0000
1000
0000
1000
0000
1000
0100
,
0000
0000
0000
0001
0100
0000
0101
0000
,
0120
0000
0100
0000
0130
0000
1000
0001
,
0000
0001
0000
0001
1000
0100
0001
0100
,
0000
0000
0010
0000
0010
0000
0010
1000
,
2002
0000
0000
0000
0000
0000
0000
3003
,
0102
0000
0100
0000
0103
0000
0010
1000
,
0000
1000
0000
1000
0010
0100
1000
0100
,
0000
0000
0001
0000
0001
0000
0001
0010
,
0000
0000
0000
0100
0010
0000
0110
0000
,
2010
0000
0010
0000
3010
0000
0001
0100
,
0000
0100
0000
0100
0001
0010
0100
0010
,
0000
0000
1000
0000
1000
0000
1000
0001
,
0202
0000
0000
0000
0000
0000
0000
0303
,
1000
0100
0010
0001
,
0010
0100
0010
1000
,
0001
0010
0100
0001
,
1000
0010
1001
0000
,
0001
0010
0100
0000
1000
0000
0001
0000
,
0010
0100
1000
0000
0010
0000
0100
0000
,
0001
1000
0100
0000
0010
0000
0001
0000
,
0100
1000
0100
0000
0010
0001
0100
1000
,
2002
0000
0000
0000
,
3003
0000
0000
0000
;

//---------------dance-single - E. Cohn----------------
#NOTES:
     dance-single:
     E. Cohn:
     Easy:
     4:
     0.217,0.294,0.031,0.078,0.000,182.000,4.000,10.000,0.000,0.000:
0000
0000
0000
0000
,
0000
0000
0000
0000
,
0000
0000
0000
0000
,
0000
0000
0000
0000
,
1000
0000
0000
0000
,
1000
0000
0000
0000
,
0001
0000
0000
0000
,
0001
0000
0000
0000
,
0010
0000
0000
0000
,
0010
0000
0000
0000
,
0100
0000
0000
0000
,
0100
0000
0000
0000
0200
0000
0000
0300
,
0010
0000
0100
0000
1000
0000
0100
0001
,
0000
0000
0000
0010
0100
0000
1000
0000
,
0010
0000
0100
0000
1000
0000
0100
0001
,
0000
0000
0000
0010
0100
0000
1000
0000
,
0010
0000
0100
0000
1000
0000
0100
0001
,
0000
0000
0000
0010
0100
0000
1000
0000
,
0001
0000
0100
0000
0010
0000
0001
1000
,
0002
0000
0000
0000
0000
0000
0000
0003
,
0010
0000
0000
0010
0000
0000
0000
0000
,
0100
0000
0000
0100
0000
0000
0000
0000
,
1000
0000
0000
1000
0000
0000
0000
0000
,
0001
0000
0000
1001
0000
0000
0000
0000
,
0010
0000
0000
0010
0000
0000
0000
0000
,
0100
0000
0000
0100
0000
0000
0000
0000
,
1000
0000
0000
1000
0000
0000
0000
0000
,
0001
0000
0000
1001
0000
0000
0000
0000
,
1000
0100
0010
0001
,
1000
0100
0010
0001
,
0010
0100
0001
1000
,
0010
0000
0100
0000
0001
1000
0001
0000
,
0001
0010
0100
1000
,
0001
0010
0100
1000
,
0001
1000
0010
0100
,
0001
1000
0010
0100
,
0200
0000
0000
0000
,
0000
0000
0300
0000
,
0100
0000
0001
0000
,
1000
0000
0100
0000
,
0010
0000
0100
0000
,
0001
0000
0000
0000
1000
0000
0001
1000
,
2002
0000
0000
3003
,
1000
0000
0000
0000
,
1000
0000
0000
0000
,
0001
0000
0000
0000
,
0001
0000
0000
0000
,
0010
0000
0000
0000
,
0010
0000
0000
0000
,
0100
0000
0000
0000
,
0100
0000
0000
0000
0200
0000
0000
0300
,
0010
0000
0100
0000
1000
0000
0100
0001
,
0000
0000
0000
0010
0100
0000
1000
0000
,
0010
0000
0100
0000
1000
0000
0100
0001
,
0000
0000
0000
0010
0100
0000
1000
0000
,
0010
0000
0100
0000
1000
0000
0100
0001
,
0000
0000
0000
0010
0100
0000
1000
0000
,
0001
0000
0100
0000
0010
0000
0001
1000
,
0002
0000
0000
0000
0000
0000
0000
0003
,
0100
0000
0010
0000
0001
0000
0010
1000
,
0000
0000
0000
0100
0010
0000
0001
0000
,
0100
0000
0010
0000
0001
0000
0010
1000
,
0000
0000
0000
0100
0010
0000
0001
0000
,
0100
0000
0010
0000
0001
0000
0010
1000
,
0000
0000
0000
0100
0010
0000
0001
0000
,
1000
0000
0010
0000
0100
0000
1000
0001
,
2000
0000
0000
0000
0000
0000
0000
3000
,
0010
0000
0000
0000
,
0010
0000
0000
0000
,
0100
0000
0000
0000
,
0100
0000
0000
0000
,
1000
0000
0001
0000
,
1000
0000
0001
0000
,
0010
0000
0100
0000
,
0010
0000
0100
0000
,
2002
0000
0000
3003
;

//---------------dance-double - E. Cohn----------------
#NOTES:
     dance-double:
     E. Cohn:
     Challenge:
     11:
     0.714,0.825,0.171,0.210,0.559,595.000,22.000,27.000,206.000,0.000:
00000000
00000000
00000000
00000000
,
00000000
00000000
00000000
00000000
,
00000000
00000000
00000000
00000000
,
00000000
00000000
00000000
00000000
,
10000000
00010000
01000000
00010000
00000100
00010000
01000000
00001000
,
00010000
00000100
01000000
00001000
10000000
00100000
02000000
00000000
,
13000000
00100000
00010000
00100000
00000010
00001000
00000001
00000010
,
00000001
00010000
00000010
00100000
00000010
00001000
00001010
00000000
,
00001000
00000000
00000010
00000000
00000100
00000010
00000001
00000010
00000100
00000000
00010000
00000000
00001000
00000010
00000001
00000010
,
00001000
00000000
00010000
00000000
00000100
00000010
00000001
00000010
00000100
00000000
00010000
00000000
00000010
00000000
00001000
00000000
,
00010000
00000000
00001000
00000000
00010000
00100000
10000000
00100000
00010000
00000000
00001000
00000000
00100000
01000000
10000000
01000000
,
00100000
00000000
00001000
00000000
00010000
00100000
10000000
00100000
00010000
00100000
00001000
00010000
00000010
00001000
00000001
00000010
,
00001000
00000000
00000010
00000000
00100000
00000000
00001000
01000000
,
00000000
00001000
00000000
10000000
00100000
01000000
00001000
00010000
,
00011000
00000000
00000110
00000000
00001001
00000000
00000001
00010000
,
00001000
00000000
00000000
00000000
00101000
00000000
00100000
00000000
01100000
00000000
00000000
10000000
01000000
00000000
00100000
00010000
,
10000000
00000000
00010000
00000000
01000000
00000000
00001000
00010000
,
00000000
00000010
00000000
00001000
00000001
00000010
00000100
00001000
,
00001100
00000000
00011000
00000000
00110000
00000000
10000000
00010000
,
1M010000
M1M00000
0M1MM000
00MM1M00
00M1M0M0
000M0M1M
000020M0
00000000
,
00003002
00000000
00000013
00000000
00000100
00000000
00002000
00000100
00003010
00000000
00000001
00000000
00000010
00000100
00001000
00000000
,
00020000
00000000
00031000
00000000
00100000
00000000
00002000
00100000
00013000
00000000
01000000
00000000
00001000
00100000
00010000
00000000
,
20000000
00000000
30100000
00000000
01000000
00000000
00002000
01000000
00013000
00000000
01000000
00000000
00010000
00100000
01000000
00000000
,
20000000
00000000
30100000
00000000
01000000
00000000
00002000
00010000
00003100
00000000
0000M100
00000000
0000M100
00000000
0000M100
00000000
,
00002000
00000000
00003010
00000000
00000100
00000000
00000002
00000010
00000103
00000000
00001000
00000000
00000001
00000010
00000100
00000000
,
00020000
00000000
00130000
00000000
01000000
00000000
20000000
01000000
30100000
00000000
01000000
00000000
10000000
01000000
00100000
00000000
,
00002000
00000000
00013000
00000000
00000010
00000000
00002000
00000001
00003010
00000000
00000001
00000000
00001000
00000001
00000010
00000000
,
00000200
00000000
00010300
00000000
00001000
00000000
02000000
00010000
03100000
00000000
0M100000
00000000
0M100000
00000000
0M100000
00000000
,
10000000
00010000
00100000
00001000
00010000
00000000
00010000
00000010
00001000
00000001
00000010
00000000
00000000
0000MMMM
00000000
00000000
,
00000001
00001000
00000100
00010000
00001000
00000000
00001000
01000000
00010000
10000000
01000000
00000000
00000000
MMMM0000
00000000
00000000
,
10000000
00010000
00100000
00001000
00010000
00000000
00000010
00001000
00000001
00000000
00000010
00000000
00000001
00000010
00000100
00000000
,
00000000
0000MMMM
00000000
00000000
00010000
00100000
01000000
00000000
10000000
00000000
00100000
01000000
00001000
00010000
00001000
00000000
,
00010000
00000010
00001000
00000010
00000100
00000000
00000010
00010000
00000100
00010000
00000100
00000000
00000000
00MMMM00
00000000
00000000
,
00010000
00100000
01000000
10000000
01000000
00000000
00010000
00100000
01000000
10000000
01000000
00000000
00000000
MMMM0000
00000000
00000000
,
00100000
00001000
00010000
00000010
00001000
00000000
00000001
00001000
00000010
00000000
00001000
00000000
00000100
00000010
00000001
00000000
,
00000000
0000MMMM
00000000
00000000
00001000
00000010
00000100
00000000
00000001
00000000
00001000
00000010
00000100
00000001
00000010
00000100
,
00001000
0000M000
000M0000
00000000
00M00000
00000000
0M000000
00000000
M0000000
00000000
0M000000
00000000
00M00000
00000000
000M0000
00000000
,
0000M000
00000M00
000000M0
0000000M
000000M0
00000M00
0000M000
000M0000
,
0000M000
00000000
00001000
00000000
00000001
00000000
00001000
00000000
00000010
00100000
00001000
01000000
00020000
00000000
20000000
30030000
,
M10M0000
00100000
00010000
00000000
01000000
00000000
00000100
00000000
00001000
00000100
00000010
00000001
00000010
00000100
00001000
00000000
,
00010000
00001000
00010000
00000000
00100000
00000000
01000000
00000000
10000000
00010000
00100000
00001000
00020000
00000000
00000002
00030003
,
000M100M
00000010
00001000
00000000
00000100
00000000
00010000
00000000
00001000
01000000
10000000
01000000
00001000
00100000
10000000
00100000
,
00022000
00000000
00000000
00000000
00000000
00000000
00000000
00000000
00000000
00000000
00000000
00000000
00000000
00000000
00000000
00033000
,
00000001
00001000
00000010
00001000
00100000
00001000
00000010
00010000
,
00001000
00100000
00000010
00010000
00000001
00000100
00000020
00000000
,
00000031
00000100
00001000
00000100
01000000
00010000
10000000
01000000
,
10000000
00001000
01000000
00000100
01000000
00010000
01010000
00000000
,
00010000
00000000
01000000
00000000
00100000
01000000
10000000
01000000
00100000
00000000
00001000
00000000
00010000
01000000
10000000
01000000
,
00010000
00000000
00001000
00000000
00100000
01000000
10000000
01000000
00100000
00000000
00001000
00000000
01000000
00000000
00010000
00000000
,
00001000
00000000
00010000
00000000
00001000
00000100
00000001
00000100
00001000
00000000
00010000
00000000
00000100
00000010
00000001
00000010
,
00000100
00000000
00010000
00000000
00001000
00000100
00000001
00000100
00001000
00000100
00010000
00001000
01000000
00010000
10000000
01000000
,
00010000
00000000
01000000
00000000
00000100
00000000
00010000
00000010
,
00000000
00010000
00000000
00000001
00000100
00000010
00010000
00001000
,
00011000
00000000
01100000
00000000
10010000
00000000
10000000
00001000
,
00010000
00000000
00000000
00000000
00010100
00000000
00000100
00000000
00000110
00000000
00000000
00000001
00000010
00000000
00000100
00001000
,
00000001
00000000
00001000
00000000
00000010
00000000
00010000
00001000
,
00000000
01000000
00000000
00010000
10000000
01000000
00100000
00010000
,
00110000
00000000
00011000
00000000
00001100
00000000
00000001
00001000
,
000010M1
00000M1M
000MM1M0
00M1MM00
0M0M1M00
M1M0M000
0M020000
M0000000
,
1M030000
M00M0000
00M1M000
0M0M0000
M1M00000
0M00M000
000M1M00
00M1M000
,
000M00M0
00000M1M
0000M0M0
000M1M00
00M1M000
0M1M0000
M1M00000
1M000000
,
M1M00000
0M00M000
000M1M00
00M0M000
0M1M0000
00M00M00
0000M1M0
000M11M0
,
0000MM00
00000000
0000000M
000000M0
00000M01
00000010
0000M10M
000000M0
000M1M00
00000000
000MM000
000000M0
00M10000
00000010
000M1000
00000100
,
0000M01M
00000M00
0000M0M0
0000000M
000M1M00
00000000
0M00M000
00000000
M1M00000
00000000
0M00M000
00000000
000M1M00
00000000
00M1M000
00000000
,
000M0M00
0000M1M0
00M00M00
0M1M0000
000M1M00
00M100M0
0000M010
000M1M00
,
0000M1M0
000M0M00
00M1M000
000M00M0
00000M1M
000000M0
000M01M0
0001M000
,
000M1M00
00M1M000
0M1M0000
M1M00000
1M000000
M1M00000
0M1M0000
00M00000
,
10000000
00000000
00010000
00000000
00100000
00000000
00000000
00001000
00010000
00000000
00000000
00000010
00000100
00000000
00000001
00000010
,
00000001
00000000
00000000
00001000
00000100
00000000
00000000
00010000
00001000
00000000
00000000
00100000
00010000
00000000
10000000
01000000
,
00100000
00000000
00001000
00000000
00010000
00000000
00000000
00000010
00000100
00000000
00000000
00000001
00000010
00000000
00000100
00001000
,
00000100
00000000
00000000
00010000
00001000
00000000
00000000
01000000
00010000
00000000
10000000
00010000
00100000
00001000
00010000
00000010
,
00000100
00000000
00000001
00000010
00000100
00000000
00001000
00000100
00000010
00000000
00000001
00001000
00000100
00000000
01000000
00001000
,
00010000
00000000
10000000
00001000
00010000
00000000
00000010
00000100
00000001
00000000
00001000
00000010
00000100
00000000
00010000
00000010
,
00001000
00000000
00000010
00001000
00100000
00000000
00100000
00001000
00000010
00000000
00000100
00010000
00100000
00000000
00100000
00010000
,
00000100
00000000
00000100
00010000
01000000
00010000
00000100
00010000
01000000
00001000
00010000
00000010
00001000
00000001
00000010
00000001
,
00002000
00000000
00000000
00000000
00000000
00000000
00000000
00000000
00000000
00000000
00000000
00000000
00000000
00000000
00000000
00003000
;

//---------------dance-double - E.Cohn----------------
#NOTES:
     dance-double:
     E.Cohn:
     Hard:
     10:
     0.714,0.902,0.605,0.178,0.450,543.000,78.000,23.000,11.000,0.000:
00000000
00000000
00000000
00000000
,
00000000
00000000
00000000
00000000
,
00000000
00000000
00000000
00000000
,
00000000
00000000
00000000
00000000
,
10010000
00000000
00100000
00000000
00010000
00100000
00000000
00001000
00010000
00000000
00000010
00000000
00000100
00000001
00000100
00000000
,
00000001
00000000
00001000
00000000
00000100
00000010
00000000
00000010
00000001
00000000
00000010
00000000
00000100
00001000
00000100
00000000
,
00000010
00000000
00010000
00000000
00000100
00010000
00000000
00001000
01000000
00000000
10000000
00000000
01000000
00100000
00010000
00000000
,
00100000
00000000
00001000
00000000
00010000
00000100
00000000
00000100
00000001
00000000
00000100
00000000
00000101
00000000
00000100
00000000
,
00000010
00000000
00001000
00000000
00000100
00000000
00000010
00000000
00000001
00000000
00000000
00001000
00000000
00000000
00000010
00000000
,
00000100
00000000
00000001
00000000
00000010
00000000
00010000
00000000
00000010
00000000
00000100
00000000
00000001
00000010
00000100
00000010
,
00000001
00000000
00000010
00000000
00000100
00000000
00001000
00000000
00000100
00000000
00000000
00000010
00000000
00000000
00010000
00000000
,
00001000
00010000
00001000
00010000
00100000
01000000
10000000
01000000
11000000
00000000
10000000
00000000
10100000
00000000
10000000
00100000
,
10000000
00000000
00000000
00000000
00110000
00000000
00000000
00000000
01010000
00000000
00000000
00000000
00021000
00000000
00001000
00030000
,
00000000
00001100
00000000
00000011
00000010
00000100
00001000
00000100
,
00000010
00000000
00011000
00000000
00110000
00000000
10000000
10010000
,
00000000
M00M0000
00000000
10000000
00010000
01000000
00001000
00000000
,
00011000
00000000
00000000
00000000
00000110
00000000
00000000
00000000
00000011
00000000
00000000
00000000
00002100
00000000
00000100
00003000
,
00000000
00011000
00000000
00010000
00100000
01000000
10000000
00100000
,
01000000
00000000
01100000
00000000
00011000
00000000
00100000
00001000
,
00200000
00000000
00000000
00000000
00000000
00300000
01000000
10000000
00010000
00000000
01000000
00000000
02020000
00000000
00000000
03030000
,
10000000
00000000
00100000
00000000
01000000
00000000
00010000
00100000
00000000
00010000
00100000
00000000
00010000
01000000
00010000
00000000
,
00100000
00000000
00001000
00000000
00010000
00000000
00000100
00001000
00000000
00000100
00001000
00000000
00000100
00000010
00000001
00000000
,
00000010
00000000
00000001
00000000
00000100
00000000
00000010
00000100
00000000
00000010
00000100
00000000
00001000
00000001
00000100
00000000
,
00000001
00001000
00000010
00001000
00000200
00000000
00000000
00000000
00000002
00000003
00000000
00000000
00020000
00030000
00000300
00000000
,
00010000
00000000
00000100
00000000
00100000
00000000
00001000
00100000
00000000
00001000
00100000
00000000
00010000
00100000
01000000
00000000
,
10000000
00000000
01000000
00000000
10000000
00000000
01000000
00100000
00000000
01000000
00100000
00000000
00010000
00100000
00010000
00000000
,
00100000
00000000
00001000
00000000
00010000
00000000
00000010
00001000
00000000
00000010
00001000
00000000
00001000
00000100
00000010
00000000
,
00000001
00000010
00000001
00000100
00000020
00000000
00000000
00000000
00000002
00000003
00000000
00000000
00020000
00030000
00000030
00000000
,
00010000
00000000
00000010
00000000
00001000
00000000
00000100
00000010
00000001
00000010
00000100
00000000
00000110
00000000
00000000
00000MM0
,
00001000
00000000
00000010
00000000
00000100
00000000
00000001
00000100
00000001
00000010
00000001
00000000
00000011
00000000
00000000
000000MM
,
00001000
00000000
00000100
00000000
00010000
00000000
00001000
00100000
00001000
00010000
00001000
00000000
00021000
00000000
00031000
00000000
,
00110000
00000000
00000000
00000000
01000000
00001000
00000000
00000000
00000000
00000000
00100000
00010000
00000000
00000000
00100000
00010000
,
01000000
00000000
00100000
00000000
00010000
00000000
00100000
01000000
10000000
01000000
00100000
00000000
00110000
00000000
00000000
00MM0000
,
10000000
00000000
00010000
00000000
00100000
00000000
00001000
00010000
00000100
00010000
00001000
00000000
00000100
00000000
00000010
00000000
,
00000001
00000000
00000100
00000000
00001000
00000000
00000100
00000010
00000100
00000001
00000100
00000000
00000001
00000000
00000100
00000000
,
00000010
00001000
00000100
00000000
00000010
00000000
00000001
00000010
00000100
00000000
00001000
00000100
00000010
00000001
00000010
00000100
,
00010000
000M0000
00000000
00000000
00000000
00000000
00000000
00000000
00000000
00000000
00000000
00000000
00000000
00000000
00000000
00000000
,
00000000
00000000
00000000
00000000
,
00000000
00000000
10010000
00000000
00110000
00000000
01010000
00000000
00100000
00001000
00010000
00001000
00000100
00000000
00000010
00000000
,
00000001
00000010
00000110
00000000
00000011
00000000
00001100
00000000
00001000
00000010
00010000
00001000
00010000
00100000
01000000
00000000
,
10000000
01000000
11000000
00000000
01100000
00000000
00110000
00000000
00100000
00001000
00010000
00000010
00000100
00000000
00000010
00000000
,
00000001
00000010
00000011
00000000
00000110
00000000
00001100
00000000
00010000
00001000
00100000
00010000
01000000
00100000
10000000
01000000
,
00200000
00000000
00000000
00000000
00000000
00000000
00000000
00000000
00000000
00000000
00000000
00000000
00000000
00300000
00000000
00000000
,
11000000
00000000
10000000
00010000
00110000
00000000
00011000
00001000
,
00000000
00000000
00001000
00000000
00001100
00000000
00000000
00000000
00000010
00000001
00000010
00000100
00001000
00000000
00000000
00000000
,
00000110
00000000
00000001
00001000
00001100
00000000
00000110
00000100
,
00000000
00000000
00001000
00000000
00001100
00000000
00000000
00000000
00010000
00001000
00100000
00010000
01000000
00000000
00000000
00000000
,
10000000
00000000
00100000
00000000
01000000
00010000
00100000
00001000
00010000
00000000
00001000
00000000
00000100
00000010
00000001
00000010
,
00000100
00000000
00001000
00000000
00000100
00000000
00000010
00000001
00000010
00000000
00000100
00000000
00001000
00000000
00000100
00000000
,
00000010
00000000
00000001
00000000
00000010
00000100
00001000
00000010
00000100
00000000
00000010
00000000
00001000
00000100
00000010
00000001
,
00000010
00000000
00000100
00000000
00001000
00000100
00000010
00001000
00000010
00010000
00001000
00010000
00100000
01000000
10000000
01000000
,
00100000
00000000
00000000
00000000
00110000
00000000
00000000
00000000
01010000
00000000
00000000
00000000
00021000
00000000
00001000
00030000
,
00000000
00001100
00000000
00000011
00000010
00000100
00001000
00000100
,
00000010
00000000
00011000
00000000
00110000
00000000
10000000
10010000
,
00000000
M00M0000
00000000
10000000
00010000
01000000
00001000
00000000
,
00011000
00000000
00000000
00000000
00000110
00000000
00000000
00000000
00000011
00000000
00000000
00000000
00002100
00000000
00000100
00003000
,
00000000
00011000
00000000
00010000
00100000
01000000
10000000
00100000
,
01000000
00000000
01100000
00000000
00011000
00000000
00100000
00001000
,
00200000
00000000
00000000
00000000
00000000
00300000
01000000
10000000
00010000
00000000
01000000
00000000
02020000
00000000
00000000
03030000
,
10000000
00000000
11000000
00000000
00110000
00000000
01100000
00100000
,
00000000
00110000
00000000
00010000
00000100
00000001
00000010
00000100
,
00001000
00000000
00011000
00000000
00110000
00000000
11000000
10000000
,
00000000
01100000
00000000
00100000
00001000
00000010
00001000
00000000
,
00110000
00000000
11000000
00000000
01100000
00000000
00110000
00100000
,
00000000
00011000
00000000
00001000
00000010
00000001
00000010
00010000
,
00001000
00000000
00110000
00000000
11000000
00000000
01000000
00100000
,
00010000
00000000
00100000
00000000
01000000
00000000
00000000
00100000
01000000
00000000
00010000
00000000
00220000
00000000
00330000
00000000
,
10000000
00010000
00100000
00001000
,
00010000
00000010
00000100
00000001
00000010
00000100
00001000
00000100
,
00000010
00001000
00000001
00010000
,
00001000
00100000
00010000
01000000
00100000
10000000
01000000
00100000
,
00010000
00000000
00100000
00000000
01000000
00000000
10000000
00100000
01000000
00000000
00010000
00100000
00001000
00000000
00000010
00001000
,
00000002
00000000
00000000
00000003
00001000
00000000
00000010
00001000
00000100
00000000
00000100
00010000
00001000
00000000
00100000
00010000
,
20000000
00000000
00000000
00000000
30010000
00000000
00100000
00010000
10000000
00000000
00001000
00100000
00000100
00000000
00001000
00000001
,
00000200
00000000
00000000
00000000
00000301
00000000
00000010
00000100
00001000
00000010
00000100
00000001
00000010
00000100
00010000
00001000
,
00011000
00000000
00000000
00000000
;

//---------------dance-double - E.Cohn----------------
#NOTES:
     dance-double:
     E.Cohn:
     Medium:
     7:
     0.487,0.703,0.093,0.411,0.050,374.000,12.000,53.000,1.000,0.000:
00000000
00000000
00000000
00000000
,
00000000
00000000
00000000
00000000
,
00000000
00000000
00000000
00000000
,
00000000
00000000
00000000
00000000
,
10000000
00000000
00100000
00000000
01000000
00000000
00001000
00010000
,
00001000
00000000
00000100
00000000
00000010
00000000
00000001
00000010
,
00000001
00000000
00001000
00000000
00000010
00000000
00010000
00001000
,
00010000
00000000
00100000
00000000
01000000
10000000
00100000
01000000
,
00010000
00000000
00100000
00010000
00000000
00010000
00100000
00000000
,
10000000
00000000
01000000
00100000
00000000
00100000
01000000
00000000
,
00001000
00000000
00010000
00000010
00000000
00000010
00001000
00000000
,
00000001
00000000
00001000
00000010
00000000
00000010
00010000
00001000
,
00011000
00000000
00020000
00000000
00230000
00000000
10300000
02000000
,
00000000
03200000
00000000
00301000
00010000
00000010
00001000
00000100
,
00000020
00000000
00000032
00000000
00002003
00000000
00003020
00001000
,
00000030
00000100
00000000
00000010
00000001
00000010
00000100
00000000
,
00002000
00000000
00203000
00000000
00320000
00000000
20030000
00100000
,
30000000
02000000
00000000
03010000
00100000
00001000
00010000
00000010
,
00001000
00000000
00000002
00000000
00002003
00000000
00003010
00010000
,
00020200
00000000
00000000
00000000
00000000
00000000
00000000
00000000
00000000
00000000
00000000
00030300
00010100
00000000
00000000
00000000
,
00010000
00000000
00100000
00010000
00000000
00100000
01000000
10000000
,
01000000
00000000
00100000
00010000
00000000
00100000
00001000
00010000
,
00000010
00000000
00001000
00000010
00000000
00001000
00000010
00000100
,
00000001
00000000
00000000
00000000
00010000
00010000
00011000
00000000
,
00001000
00000000
01000000
00010000
00000000
00010000
01000000
00100000
,
10000000
00000000
01000000
00100000
00000000
01000000
00010000
00100000
,
00001000
00000000
00010000
00000100
00000000
00001000
00000100
00000010
,
00000001
00000000
00000000
00000000
00001000
00000100
00001100
00000000
,
00010000
00000000
00100000
00000000
01000000
10000000
01000000
00000000
,
00100000
00000000
00000100
00000000
00010000
00001000
00010000
00000000
,
00001000
00000000
00000001
00000000
00000100
00000010
00000001
00000010
,
00000100
00000000
00000000
00000000
00010000
00001000
00011000
00000000
,
00010000
00000000
00100000
00000000
01000000
00100000
10000000
00000000
,
01000000
00000000
00010000
00000000
00100000
00001000
00010000
00000000
,
00000010
00000000
00001000
00000000
00000001
00000010
00000100
00001000
,
00000100
00000000
00000000
00000000
00000001
00000010
00000100
00001000
,
00000100
00000M00
00000000
00000000
00000000
00000000
00000000
00000000
,
00000000
00000000
00000000
00000000
,
00000000
00000000
00000001
00000000
00001000
00000000
00000100
00000000
00001000
00000010
00000100
00000001
00000100
00000000
00000010
00000000
,
00001000
00000100
00001000
00000000
00000100
00000000
00010000
00000000
00001000
00100000
00010000
01000000
00100000
10000000
01000000
00000000
,
00100000
00010000
00100000
00000000
01000000
00000000
10000000
00000000
01000000
00100000
00010000
00100000
01000000
00000000
00010000
00000000
,
00100000
00001000
00010000
00000000
00001000
00000000
00000100
00000000
00000010
00000001
00000010
00000100
00001000
00000010
00000100
00000000
,
00000002
00000000
00000000
00000000
00000000
00000000
00000000
00000003
,
00000001
00000000
00000100
00000000
00000010
00000000
00010000
00001000
,
00010000
00000000
00100000
00000000
01000000
00000000
10000000
01000000
,
10000000
00000000
00010000
00000000
01000000
00000000
00001000
00010000
,
00001000
00000000
00000100
00000000
00000010
00000001
00000100
00000010
,
00001000
00000000
00000100
00001000
00000000
00001000
00000100
00000000
,
00000001
00000000
00000010
00000100
00000000
00000100
00000010
00000000
,
00010000
00000000
00001000
01000000
00000000
01000000
00010000
00000000
,
10000000
00000000
00010000
01000000
00000000
01000000
00001000
00010000
,
00011000
00000000
00002000
00000000
00003200
00000000
00000301
00000020
,
00000000
00000230
00000000
00010300
00001000
01000000
00010000
00100000
,
02000000
00000000
23000000
00000000
30020000
00000000
02030000
00010000
,
03000000
00100000
00000000
01000000
10000000
01000000
00100000
00000000
,
00020000
00000000
00030200
00000000
00002300
00000000
00003002
00000100
,
00000003
00000020
00000000
00001030
00000100
00010000
00001000
01000000
,
00010000
00000000
20000000
00000000
30020000
00000000
01030000
00001000
,
00202000
00000000
00000000
00000000
00000000
00000000
00000000
00000000
00000000
00000000
00000000
00303000
00101000
00000000
00000000
00000000
,
00011000
00000000
00020000
00000000
00230000
00000000
10300000
02000000
,
00000000
03200000
00000000
00301000
00010000
00000010
00001000
00000100
,
00000020
00000000
00000032
00000000
00002003
00000000
00003020
00001000
,
00000030
00000100
00000000
00000010
00000001
00000010
00000100
00000000
,
00002000
00000000
00203000
00000000
00320000
00000000
20030000
00100000
,
30000000
02000000
00000000
03010000
00100000
00001000
00010000
00000010
,
00001000
00000000
00000002
00000000
00002003
00000000
00003010
00010000
,
00020200
00000000
00000000
00000000
00000000
00000000
00000000
00000000
00000000
00000000
00000000
00030300
00010100
00000000
00000000
00000000
,
00010000
00000000
00000010
00000000
00001000
00000000
00000001
00000010
,
00000100
00000000
00001000
00000000
00000100
00000000
00000010
00000001
,
00000010
00000000
00010000
00000000
00000100
00000000
00010000
00100000
,
01000000
00000000
10000000
00000000
01000000
00100000
00010000
00100000
,
01000000
10000000
00010000
00100000
,
00000010
00001000
00000001
00010000
,
00001000
00100000
00000010
00001000
,
00000001
00000010
00000100
00001000
00000100
00000010
00000001
00000010
,
00000200
00000000
00000300
00000000
;

//---------------dance-double - E.Cohn----------------
#NOTES:
     dance-double:
     E.Cohn:
     Easy:
     2:
     0.184,0.407,0.000,0.000,0.000,166.000,0.000,0.000,0.000,0.000:
00000000
00000000
00000000
00000000
,
00000000
00000000
00000000
00000000
,
00000000
00000000
00000000
00000000
,
00000000
00000000
00000000
00000000
,
10000000
00000000
00000000
00000000
,
00010000
00000000
00000000
00000000
,
01000000
00000000
00000000
00000000
,
00001000
00000000
00000000
00000000
,
00100000
00000000
00010000
00000000
,
01000000
00000000
00001000
00000000
,
00010000
00000000
00000010
00000000
,
00001000
00000000
00000000
00000000
00000100
00000010
00000000
00000010
,
00000001
00000010
00000100
00001000
,
00000100
00000000
00001000
00000010
,
00001000
00000100
00010000
00001000
,
00100000
00000000
00010000
00100000
,
00010000
00100000
01000000
10000000
,
01000000
00000000
00100000
00010000
,
00100000
01000000
10000000
01000000
,
00100000
00000000
00000000
00000000
,
10000000
00000000
00000000
00000000
,
01000000
00000000
00000000
00000000
,
00100000
00000000
00000000
00000000
,
00010000
00000000
00000000
00000000
,
00001000
00000000
00000000
00000000
,
00000100
00000000
00000000
00000000
,
00000010
00000000
00000000
00000000
,
00000001
00000000
00000000
00000000
,
00000010
00000000
00000000
00000000
,
00001000
00000000
00000000
00000000
,
00000100
00000000
00000000
00000000
,
00000001
00000000
00000000
00000000
,
00001000
00000000
00000000
00000000
,
00000100
00000000
00000000
00000000
,
00010000
00000000
00000000
00000000
,
00001000
00000000
00000000
00000000
,
00100000
00000000
00000000
00000000
,
00000000
00000000
00000000
00000000
,
00000000
00100000
00010000
00100000
01000000
00000000
10000000
00000000
,
01000000
00100000
00010000
00100000
01000000
00000000
10000000
00000000
,
01000000
00010000
00100000
00001000
00010000
00000000
00001000
00000000
,
00000100
00000010
00000001
00000010
00000100
00000000
00001000
00000100
,
00001000
00000000
00000000
00000000
,
00000001
00000000
00000000
00000000
,
00001000
00000000
00000000
00000000
,
00000010
00000000
00000000
00000000
,
00010000
00000000
00000000
00000000
,
00000100
00000000
00001000
00000000
,
00000010
00000000
00010000
00000000
,
00001000
00000000
01000000
00000000
,
00010000
00000000
00000000
00000000
00100000
01000000
00000000
01000000
,
10000000
01000000
00100000
00010000
,
00100000
00000000
00010000
01000000
,
00010000
00100000
00001000
00010000
,
00000100
00000000
00001000
00000100
,
00001000
00000100
00000010
00000001
,
00000010
00000000
00000100
00001000
,
00000100
00000010
00000001
00000010
,
00000100
00000000
00000000
00000000
,
00000001
00000010
00000100
00001000
,
00000100
00000000
00001000
00000010
,
00001000
00000100
00010000
00001000
,
00100000
00000000
00010000
00100000
,
00010000
00100000
01000000
10000000
,
01000000
00000000
00100000
00010000
,
00100000
01000000
10000000
01000000
,
10000000
00000000
00000000
00000000
,
00010000
00000000
00000000
00000000
,
01000000
00000000
00000000
00000000
,
00001000
00000000
00000000
00000000
,
00100000
00000000
00010000
00000000
,
01000000
00000000
00001000
00000000
,
00010000
00000000
00000010
00000000
,
00001000
00000000
00000100
00000000
,
00000010
00000000
00000001
00000000
00000010
00000100
00001000
00000100
,
00000010
00000000
00000000
00000000
;

//---------------dance-single - ----------------
#NOTES:
     dance-single:
     :
     Edit:
     1:
     0.000,0.000,0.000,0.000,0.000,0.000,0.000,0.000,0.000,0.000:
0000
0000
0000
0000
;
