#TITLE:80's Capsule;
#SUBTITLE:;
#ARTIST:Megumi Upper Slope;
#TITLETRANSLIT:;
#SUBTITLETRANSLIT:;
#ARTISTTRANSLIT:;
#CREDIT:;
#BANNER:80scapsulebnr.png;
#BACKGROUND:80scapsule.png;
#LYRICSPATH:;
#CDTITLE:cdtitle.jpg;
#MUSIC:80's Capsule.mp3;
#OFFSET:-4.920;
#SAMPLESTART:73.860;
#SAMPLELENGTH:19.620;
#SELECTABLE:YES;
#BPMS:0.000=125.000;
#STOPS:;
#BGCHANGES:;
// cache tags:
#FIRSTBEAT:0.000;
#LASTBEAT:237.500;
#SONGFILENAME:Songs/Community Keyboard Megapack - Volume 3/(DanTheMan650) 80's Capsule/80's Capsule.sm;
#HASMUSIC:1;
#HASBANNER:1;
#MUSICLENGTH:120.197;
// end cache tags

//---------------dance-single - Copied from----------------
#NOTES:
     dance-single:
     Copied from:
     Hard:
     11:
     0.895,0.864,1.000,0.092,0.836,598.000,144.000,11.000,0.000,0.000:
1010
0000
0100
0100
1010
0000
0100
0000
0010
0000
0001
0010
0000
0001
1000
0010
,
0100
0100
0001
0010
0101
0000
0010
0000
1000
1000
0100
0010
0101
0000
0010
0000
,
1100
0000
0000
0000
0100
0000
0010
0000
0001
0000
1000
0010
0100
0001
1000
0001
,
0000
0000
0000
0001
0000
0000
0000
0000
0000
0010
0000
0000
1100
0000
0000
0000
0000
0000
0010
0000
0000
0000
0000
0000
1000
0000
0100
0000
0010
0000
0001
0000
0000
1000
0000
0000
0000
0000
0000
1000
0000
0000
0001
0000
0000
0000
0000
0000
,
0110
0000
1000
0000
0100
0000
0010
0000
0001
0000
1000
0100
0010
0000
0001
0000
,
1000
1000
0100
1000
0110
0000
0001
0000
0010
0010
0001
0010
1100
0000
0100
0000
,
0001
0000
0010
0000
0101
0000
0010
0000
0100
0000
1000
0100
0010
0000
0001
0100
,
1010
0000
0000
0000
0000
0000
0000
0000
1010
0000
0001
0010
0101
0010
1000
0000
,
0110
0000
0001
1000
0110
0000
1000
0000
0100
0000
0000
0001
1010
0000
0100
0000
,
0000
0010
0000
0000
1010
0000
0100
0010
0100
0000
0010
1000
0101
0000
0010
0000
,
1000
0000
0100
0000
1010
0000
0100
0000
0010
0000
0001
1000
0101
0000
0010
0100
,
0000
0100
0000
0100
1010
0000
0100
0000
0010
0000
0001
1000
0101
0000
0010
0000
,
1000
0000
1000
0100
1010
0000
0100
0010
0001
0000
0010
0001
1100
0000
0001
0100
,
2010
0000
0000
0000
3200
0320
0032
2003
,
3001
0000
0001
0010
1100
0000
0010
0100
1000
0000
0100
1000
0011
0000
1000
0001
,
0010
0010
0000
0010
1001
0000
0100
0000
0101
0000
0000
0011
0000
0000
1001
0000
,
1000
0000
1000
0100
0010
0100
1000
0000
1000
0100
0010
0100
1000
0101
0000
0101
,
0010
0000
1000
0100
0010
0100
1000
0000
0101
0000
0000
1001
0000
0000
0110
0000
,
0001
0000
0001
0010
0100
0010
0001
0000
0001
0010
0100
0010
0001
1010
0000
1010
,
0100
0000
0001
0010
0100
0010
0001
0000
0101
0000
0000
1010
0100
0001
0110
1000
,
0110
0000
0000
1000
0110
0000
0001
0000
0001
0000
0000
0010
0101
0000
1000
0000
,
0000
1000
0100
0010
0001
0010
0100
0000
1010
0000
0000
0101
0010
0000
0110
0000
,
1000
0000
0001
0100
1010
0000
0100
0000
1000
0000
0010
0100
1001
0000
0010
0010
,
0000
0010
1000
0010
0100
0010
0100
0000
1001
0000
0010
0101
0010
0000
0110
0000
,
0001
0000
0001
0010
1100
0000
0010
0100
1000
0000
0100
1000
0101
0000
1000
0001
,
0010
0100
0000
0100
1010
0000
0100
0000
0011
0000
0000
0110
0000
0000
1100
0000
,
1000
0000
1000
0100
1010
0100
0010
0001
1010
0000
0100
0010
1001
0100
0010
0001
,
1100
0000
0000
0010
0000
0000
0000
0000
0000
0010
0000
0000
0101
0000
0000
0000
0000
0000
0010
0000
0000
0000
0000
0000
1000
0000
0001
0000
1000
0000
0001
0000
0000
1000
0000
0000
0100
0000
0000
0010
0000
0000
0001
0000
0000
1000
0000
0000
,
0110
0000
0001
0000
1100
0000
0010
0000
0101
0000
0010
0100
1001
0000
0010
0000
,
1010
0000
0000
0100
0000
0000
0011
0000
0000
0010
0000
0000
1001
0000
0000
0100
0000
0000
1000
0100
0010
0001
1000
0100
,
0010
1000
0110
0001
0101
0010
0110
0110
,
1010
0100
0011
0010
1010
0100
1001
0100
,
0011
0100
1010
0010
0011
1000
0101
0010
,
1001
0000
0000
0010
0000
0000
0101
0000
0000
0010
0000
0000
1100
0000
0000
0010
0000
0000
0101
0000
0000
1000
0001
1000
,
0001
0000
0000
0000
0000
0000
0000
0000
0000
0000
0000
0000
0000
0000
0000
0000
0000
0000
0000
0000
0000
0001
0010
0100
,
1000
0100
0010
0001
1000
0100
0010
0001
1000
0100
0010
0001
1000
0100
0010
0001
,
1010
0000
0100
0000
1010
0100
0010
0010
0001
0010
0001
0000
0110
0000
1000
0100
,
0000
0100
0000
0000
1010
0000
0100
0000
0011
0000
0000
1010
0000
0000
0110
1000
,
0000
1000
0100
0000
0110
0000
0010
0000
0200
0000
0300
0010
0000
0000
0010
0100
,
0000
0100
0010
0000
1001
0000
0100
0000
1010
0000
0000
0101
0000
0000
0110
0000
,
1010
0000
0001
0000
1010
0100
1000
1000
0100
1000
0100
0010
0001
1000
0010
1001
,
0000
1001
0100
0000
1010
0000
0100
0000
1000
0000
0100
0010
0001
1000
0100
0010
,
0000
0010
0100
0000
1010
0000
0001
0000
0020
0000
0030
0100
0000
0000
0100
0001
,
0000
0001
0100
0010
1001
0000
0100
0000
1010
0000
0000
0101
0000
0000
0110
0000
,
1001
0000
0010
0000
0101
0000
0010
0010
0001
1000
0100
0010
0001
1000
0100
1010
,
0000
1010
0100
0000
0110
0000
0010
0000
1001
0000
0000
0101
0000
0000
0110
1000
,
0000
1000
0100
0000
0011
0000
0100
0000
0020
0000
0030
0001
0000
0000
1000
0001
,
0000
0001
1000
0000
0101
0000
0010
0000
0101
0000
0000
1010
0000
0000
0110
0000
,
1010
0000
0100
0000
1010
0000
0100
0100
0001
1000
0010
0100
0001
1000
0100
1010
,
0000
1010
0100
0000
1010
0000
0100
0000
1010
0000
0000
0101
0000
0000
0110
0001
,
0000
0001
0010
0000
0101
0000
0010
0000
2000
0000
0000
3100
0000
0000
1000
0100
,
0000
0000
0000
0010
0000
0000
0001
0000
0000
1000
0000
0000
0010
0000
0000
0100
0000
0000
0010
0000
0000
1000
0000
0000
0001
0000
0000
0100
0000
0000
0010
0000
0000
1000
0000
0000
0100
0000
0010
0000
0001
0000
1000
0000
0100
0000
0010
0000
,
0001
0000
0010
0010
0101
0000
0010
0000
1000
0000
1000
0100
0000
0010
0001
0010
,
0100
0100
1000
0100
1010
0000
0100
0000
0010
0010
0001
0010
1100
0000
0010
0000
,
1010
0000
0100
0000
0011
0000
0010
0000
1100
0000
0100
0010
0101
0000
0010
0001
,
0000
0000
0000
0000
0001
0000
0000
0000
0000
0000
0000
0000
0001
0000
0000
0000
1010
0000
0000
0000
0000
0000
0000
0000
0100
0000
0000
0000
0000
0000
0000
0000
1000
0100
0000
0000
0000
0000
0000
0000
0010
0000
0000
0000
0010
0000
0000
0000
0000
0000
0000
0000
0001
0000
0000
0000
0010
0000
0000
0000
0000
0000
0000
0000
,
1000
0000
0100
0000
1010
0000
0100
0000
0010
0000
0001
1000
0110
0000
0010
0000
,
1000
1000
0010
0100
0011
0000
0100
0000
0010
0010
0100
0010
1001
0000
0100
0000
,
1010
0000
0100
0100
0010
0000
0001
0000
0010
0000
0100
0000
1000
0000
0100
0010
,
2002
0000
0000
3003
0000
0000
0000
0000
;
