#TITLE:Pineapple Spaceship;
#SUBTITLE:;
#ARTIST:nanobii;
#TITLETRANSLIT:;
#SUBTITLETRANSLIT:;
#ARTISTTRANSLIT:;
#CREDIT:;
#BANNER:../Banner.png;
#BACKGROUND:../BG.png;
#LYRICSPATH:;
#CDTITLE:../CDTitleKIRBY.png;
#MUSIC:nanobii - Pineapple Spaceship.ogg;
#OFFSET:-0.051;
#SAMPLESTART:43.992;
#SAMPLELENGTH:12.000;
#SELECTABLE:YES;
#BPMS:0.000=170.001;
#STOPS:;
#BGCHANGES:;
// cache tags:
#FIRSTBEAT:0.000;
#LASTBEAT:480.000;
#SONGFILENAME:Songs/Index Fusion - Part 2/Pineapple Spaceship - [Kirby5464]/Pineapple Spaceship.sm;
#HASMUSIC:1;
#HASBANNER:1;
#MUSICLENGTH:175.098;
// end cache tags

//---------------dance-single - ----------------
#NOTES:
     dance-single:
     :
     Challenge:
     14:
     0.932,1.000,0.194,0.583,1.000,1002.000,34.000,102.000,0.000,1.000:
1111
0000
0000
0000
,
0000
0000
0000
0000
,
0000
0000
0000
0000
,
0000
0002
2003
3020
,
0230
0000
0000
0302
0000
0000
2003
0000
,
3000
0000
0002
0000
,
0023
0000
0000
0230
0000
0000
2300
0000
,
3000
0000
0000
0000
,
2000
3010
0100
0010
1000
0100
1000
0001
,
0010
0001
1000
0010
1000
0100
0010
0001
,
1000
0100
1000
0010
0100
0010
1000
0001
,
1000
0010
0100
0010
1000
0100
0010
0100
,
1000
0001
0010
0100
1000
0010
0100
0010
,
1000
0100
1000
0001
0010
0001
0100
0010
,
0100
0001
1000
0001
0010
0100
1000
0001
,
0100
0000
0000
0000
,
0020
0000
2030
3000
0000
0002
0000
2003
,
0000
0000
0000
3000
2000
0000
0000
0000
0000
0000
0000
0000
3002
0000
0000
0000
0203
0000
0000
0000
0000
0000
0000
0000
0320
0000
0000
0000
0000
0000
0000
0000
,
0230
0000
0000
0000
0000
0000
0000
0300
0200
0000
0000
0000
0000
0000
0000
0000
0302
0000
0000
0000
2003
0000
0000
0000
0000
0000
0000
0000
3020
0000
0000
0000
,
0000
0230
0000
0320
2030
0000
3200
0000
,
2300
0000
0000
0000
0000
0000
0000
3000
2000
0000
0000
0000
0000
0000
0000
0000
3000
0000
0000
0000
0020
0000
0000
0000
0000
0000
0000
0000
0230
0000
0000
0000
,
0000
0302
0000
2003
3020
0000
0230
0000
,
0302
0000
0000
0000
0000
0000
0000
0003
0002
0000
0000
0000
0000
0000
0000
0000
0003
0000
0000
0000
2000
0000
0000
0000
0000
0000
0000
0000
3002
0000
0000
0000
,
0000
0023
0000
0130
1000
0001
0100
0010
,
0110
1100
0011
1010
,
0101
0110
1001
1100
,
0110
0011
0110
1100
,
1001
0110
1010
0101
,
0010
1000
0100
0010
0001
0100
0010
0100
0001
1000
0001
0010
0100
1000
0010
0100
,
0010
1000
0100
1000
0001
0010
0001
1000
0010
1000
0100
0010
0100
1000
0001
0000
,
0100
0010
0100
0000
0001
0100
0010
0000
1000
0001
1000
0000
0010
0100
0001
0000
,
0000
0000
0400
0000
0304
0000
2003
3000
0020
0030
0200
0300
0000
0000
0000
0000
,
0010
1000
0100
1000
0001
0100
0001
0010
0100
1000
0010
0100
0010
1000
0100
1000
,
0001
0010
0001
1000
0001
1000
0100
0010
0001
0100
0010
0100
0001
1000
0001
0010
,
0100
1000
0001
0010
0100
0010
0001
1000
0100
1000
0001
0100
0001
0010
0100
1000
,
0001
0010
0001
0100
0010
0100
0001
1000
0001
0010
0100
1000
0010
0100
0010
1000
,
0100
1000
0001
0010
0001
1000
0010
1000
0100
0010
0001
0100
0010
0100
0001
0010
,
0001
1000
0100
1000
0001
0010
0100
0010
0001
1000
0100
0010
0001
1000
0100
1000
,
0001
0010
0100
1000
0001
0100
0001
1000
0100
1000
0010
0100
0010
1000
0001
1000
,
0010
0100
0010
1000
0100
0010
0100
1000
0002
0000
0203
0000
0302
0000
2003
0000
,
3010
1000
0100
0010
0001
0100
0010
0100
0001
0010
0100
0010
0001
1000
0100
1000
,
0010
0100
0010
1000
0001
1000
0100
0010
0001
1000
0100
0010
0100
1000
0001
0010
,
0001
0100
0010
0100
0001
1000
0010
0100
0001
0010
0100
1000
0001
0100
0001
0010
,
0100
1000
0001
0010
0100
0010
0001
1000
0010
0100
0001
0010
0100
1000
0001
0100
,
0010
0100
0001
1000
0001
0010
0100
1000
0010
0100
0010
1000
0001
1000
0100
0010
,
0001
1000
0010
1000
0100
0010
0001
0100
0010
0100
0001
0010
0001
1000
0010
1000
,
0002
0003
0100
0010
0100
0001
0010
0001
1000
0010
1000
0100
0010
0001
1000
0010
,
0100
0000
0001
0010
0001
0000
1000
0010
0100
0000
0001
1000
0004
0000
0403
0000
,
0310
0100
0010
1000
0001
1000
0100
0010
0001
1000
0100
0010
0100
1000
0001
0010
,
0001
1000
0010
1000
0100
0010
0001
0100
0010
0100
0001
0010
0001
1000
0100
1000
,
0010
0100
0010
1000
0001
1000
0010
0100
0001
0010
0100
1000
0001
0100
0001
1000
,
0100
1000
0001
0010
0100
0010
0001
1000
0010
0100
0001
0010
0001
0100
0010
0100
,
0001
0010
0100
1000
0010
0100
0010
1000
0001
1000
0100
0010
0001
0100
0010
0100
,
0001
0010
0001
1000
0100
1000
0001
0100
0010
1000
0100
0010
0100
1000
0001
0010
,
0001
1000
0010
1000
0100
0010
0001
0100
0010
0100
0001
0010
0001
1000
0100
1000
,
0001
0100
1010
0100
0001
1001
0110
0000
,
0100
0010
0100
0001
0010
0001
1000
0100
1000
0001
0010
0100
1000
0001
0010
0100
,
0010
0001
1000
0100
1000
0010
0100
0010
1000
0000
0001
0000
0010
0000
0001
0000
,
2001
0000
0000
3020
0000
0030
0210
0000
,
0000
0000
0302
0003
,
0201
0000
0000
0000
,
0320
2030
3002
0203
,
0000
0000
0302
2003
,
0000
0000
0000
0000
,
3020
0000
0000
0000
,
2030
0000
0000
0000
0000
3002
0203
0320
,
0000
0000
0000
0000
,
0000
0000
2030
3002
,
0203
0000
0320
0230
0000
0000
0300
0000
,
0000
0000
2000
3002
,
2003
0000
3020
0230
0000
0300
0000
0000
,
0000
0000
0000
0000
,
1002
0000
0000
0000
,
0203
0000
0000
0000
,
0320
0000
0000
0000
,
0030
0000
2000
3200
,
0320
0000
0032
2003
0000
0000
3000
0000
,
0000
0000
0000
0000
,
0000
0000
0000
0000
,
0000
0000
1000
0000
,
0001
1000
0000
0000
0000
0000
0000
0000
0010
0000
0000
0000
0000
0000
0000
0000
0100
0000
0000
0000
0000
0000
0000
0000
0000
0000
0000
0000
0000
0000
0000
0000
,
0010
1000
0001
0000
,
0100
0000
0000
0000
,
0000
0000
0000
0000
0010
0000
0100
0001
,
1000
0100
0010
0001
,
1000
0010
1000
0000
,
0001
0100
0000
0000
0000
0000
0000
0000
0000
0000
0000
0000
0000
0000
0000
0000
0000
0000
0000
0000
0010
0000
0000
0000
0100
0000
0000
0000
0010
0000
0000
0000
,
1000
0000
0001
0000
,
1000
0100
0010
0100
,
1000
0010
0000
0000
0000
0000
0000
0000
0000
0000
0000
0000
0000
0000
0000
0000
2100
0000
0000
0000
0000
0000
0000
0000
0000
0000
0000
0000
0000
0000
0000
0000
,
3001
1000
0001
0100
0010
0100
0001
0010
0100
0010
0001
1000
0100
1000
0001
0100
,
0001
0010
0100
1000
0010
0100
0010
1000
0100
1000
0001
0010
0001
1000
0010
1000
,
0100
0010
0001
0100
0010
0100
0001
1000
0001
0010
0100
1000
0001
0010
0100
0010
,
0001
1000
0100
1000
0001
0100
0001
0010
0100
1000
0001
0010
0001
0100
0010
0100
,
0001
1000
0001
0010
0100
1000
0010
0100
0010
1000
0100
1000
0001
0010
0001
1000
,
0010
1000
0100
0010
0001
0100
0010
0100
0001
0010
0001
1000
0100
1000
0001
0010
,
0100
0010
0001
1000
0100
0010
0001
1000
0100
1000
0001
0010
0100
1000
0001
0100
,
0001
1000
0100
1000
0010
0100
0010
1000
0002
0000
0203
0000
0320
0000
2030
0000
,
3001
0010
0001
1000
0100
0010
0001
0100
0010
0100
0001
1000
0001
0010
0100
1000
,
0001
0010
0100
0010
0001
1000
0100
1000
0001
0100
0001
0010
0100
1000
0001
0010
,
0001
0100
0010
0100
0001
1000
0001
0010
0100
1000
0010
0100
0010
1000
0100
1000
,
0001
0010
0001
1000
0010
1000
0100
0010
0001
0100
0010
0100
0001
0010
0001
1000
,
0100
1000
0001
0010
0100
0010
0001
1000
0100
0010
0001
1000
0100
1000
0001
0010
,
0100
1000
0001
0100
0001
1000
0100
1000
0010
0100
0010
1000
0001
1000
0010
0100
,
0010
0000
0000
0000
0000
0000
1000
0001
1000
0000
0000
0000
0100
0010
0100
0000
0000
0000
0001
0100
0001
0000
0000
0000
,
1000
0100
1000
0000
0000
0000
0010
0100
0010
0000
0000
0000
1000
0010
1000
0000
0000
0000
0000
0000
0000
0000
0000
0000
,
0001
1000
0100
0010
0001
0100
0010
0100
0001
0010
0100
0010
0001
1000
0100
1000
,
0010
0100
0010
1000
0001
1000
0100
0010
0001
1000
0100
0010
0100
1000
0001
0010
,
0001
0100
0010
0100
0001
1000
0010
0100
0001
0010
0100
1000
0001
0100
0001
0010
,
0100
1000
0001
0010
0100
0010
0001
1000
0010
0100
0001
0010
0100
1000
0001
0100
,
0010
0100
0001
1000
0001
0010
0100
1000
0010
0100
0010
1000
0001
1000
0100
0010
,
0001
1000
0010
1000
0100
0010
0001
0100
0010
0100
0001
0010
0001
1000
0010
1000
,
0001
0010
0100
1000
0010
0100
0010
1000
0100
1000
0001
0010
0001
1000
0010
0000
,
0110
1000
0001
0100
0010
0101
1001
0000
,
2000
0000
3020
0000
0130
0001
0010
0100
1000
0010
0100
0010
1000
0100
0010
0100
,
2000
0000
3002
0203
0000
0320
0000
0030
,
2002
3003
0000
0220
0330
0000
0202
0003
,
0000
0000
0300
0000
,
2020
0030
0000
0000
0000
0000
0000
0000
0000
0000
0000
0000
0000
0000
0000
0000
,
0000
0000
0000
0000
,
3000
0000
0000
0000
,
0000
0000
0000
0000
,
0000
0000
0000
0000
,
0000
0000
0000
0000
;
