#TITLE:Aquatic Ruins Zone;
#SUBTITLE:(Sonic Speed Remix);
#ARTIST:Kill!k;
#TITLETRANSLIT:;
#SUBTITLETRANSLIT:;
#ARTISTTRANSLIT:;
#CREDIT:;
#BANNER:bn.png;
#BACKGROUND:bg.png;
#LYRICSPATH:;
#CDTITLE:;
#MUSIC:Aquatic Ruins Zone (Sonic Speed Remix).ogg;
#OFFSET:-0.007;
#SAMPLESTART:41.458;
#SAMPLELENGTH:12.000;
#SELECTABLE:YES;
#BPMS:0.000=282.501;
#STOPS:;
#BGCHANGES:;
// cache tags:
#FIRSTBEAT:0.000;
#LASTBEAT:680.000;
#SONGFILENAME:Songs/Speedcore Rejects/Aquatic Ruins Zone - [Aoreo]/Aquatic Ruins Zone (Sonic Speed Remix).sm;
#HASMUSIC:1;
#HASBANNER:1;
#MUSICLENGTH:144.458;
// end cache tags

//---------------dance-single - J. Nero----------------
#NOTES:
     dance-single:
     J. Nero:
     Challenge:
     25:
     1.000,1.000,0.471,0.755,1.000,1343.000,68.000,109.000,9.000,0.000:
2000
0000
0000
3200
0000
0000
0320
0000
,
0032
0000
0000
0000
,
1003
0010
0100
0010
2000
0000
0000
0000
,
0000
0000
0000
3001
0010
0000
0000
0000
,
0200
0000
0000
2300
0000
0000
3002
0203
,
0320
0000
0000
0000
,
0130
0001
0010
0001
2000
0000
0000
0000
,
0000
0000
0000
3001
0100
0000
0001
1000
,
0200
0000
0000
0320
0000
0000
0032
0000
,
2003
0000
0000
0000
,
3010
0100
0001
0010
0002
0000
0000
0000
,
0000
0000
0000
0013
0100
0000
0000
0000
,
2000
0000
0000
3200
0000
0000
0320
0032
,
2003
0000
0000
0000
,
3001
0100
0010
0100
0002
0000
0000
0000
,
0000
0000
0000
1003
0100
0000
1000
0100
,
0020
0000
0000
0032
0000
0000
0203
0000
,
0320
0000
0230
0000
,
0302
0000
0003
0000
2000
0000
3200
0000
0000
0000
0000
0000
0000
0000
0000
0300
,
0200
0000
0000
0000
0000
0000
0000
0300
0200
0000
0000
0000
0000
0000
0000
0000
,
0320
0000
0000
0032
0000
0000
0203
0302
,
2003
0000
3200
0000
,
0310
0000
0002
0003
0000
0000
0002
0003
0200
0300
0000
0000
0200
0300
0000
0000
,
0002
0003
0000
0000
0002
0003
0000
0000
2000
3000
0000
0000
2000
0000
3020
0000
,
0230
0000
0000
0302
0000
0000
0203
0000
,
0320
0000
2030
0000
,
3002
0000
0000
0000
0013
0000
0200
0000
0000
0000
0000
0000
0000
0000
0000
0300
,
0200
0000
0000
0000
0000
0000
0000
0300
0200
0000
0000
0000
0000
0000
0000
0000
,
2300
0000
0000
3200
0000
0000
0320
0032
,
2003
0000
3002
0000
,
0103
0000
0010
0000
0000
0000
0010
0000
0200
0300
0000
0000
0200
0300
0000
0000
,
0002
0003
0000
0000
0002
0003
0000
0000
2000
3000
0000
0000
2000
3000
0000
0000
,
0MM0
0000
0000
0000
,
0000
0000
0000
0000
,
0000
0000
0000
0000
,
0000
0000
0000
0000
,
0000
0000
0000
0000
,
0000
0000
0000
0000
,
0002
0003
0000
0000
0000
0000
0000
0000
0000
0000
0000
0000
0000
0000
0000
0000
0000
0000
0000
0000
0000
0000
0000
0000
,
0002
0003
0000
0000
0000
0000
0000
0000
0000
0000
0000
0000
0000
0000
0000
0000
0000
0000
0000
0000
0000
0000
0000
0000
,
1000
0001
0100
0001
1000
0010
0100
0010
1000
0001
1000
0100
0010
0001
0100
0001
,
1000
0010
1000
0001
0100
0001
1000
0001
0100
0010
0100
0001
1000
0100
0010
0100
,
0010
0001
1000
0100
1000
0001
0100
0001
1000
0010
1000
0001
0100
0010
0100
0001
,
1000
0000
0000
0001
0001
0000
4000
3000
,
0001
0100
0001
1000
0010
0100
0001
1000
0100
0010
0100
0010
0001
1000
0001
1000
,
0010
0100
0001
1000
0100
0010
0001
1000
0001
0010
0100
1000
0001
0100
0001
1000
,
0100
0010
0100
0010
0001
1000
0001
1000
0010
0100
0001
1000
0001
1000
0100
0010
,
0001
1000
0001
0000
0000
0000
0100
0000
0400
0000
0000
0000
0300
0000
0000
0000
,
0001
0100
0001
1000
0100
0010
0100
0010
0001
1000
0001
1000
0100
0010
0100
1000
,
0001
0100
0010
0100
0001
1000
0001
1000
0100
0010
0001
1000
0001
1000
0010
0100
,
0001
0100
0010
1000
0001
0100
0010
1000
0010
0100
0001
1000
0001
1000
0001
0000
,
0000
0000
0000
1000
1000
0000
0004
0003
,
1000
0100
0010
0100
0010
0001
1000
0001
1000
0010
0100
0001
0100
0010
1000
0001
,
1000
0010
0100
0010
1000
0001
1000
0100
0010
0001
1000
0100
1000
0001
0100
0001
,
1000
0010
0100
0001
0100
0001
1000
0100
0010
0001
1000
0001
0100
0010
0100
0001
,
1000
0010
0100
0000
0000
0000
0001
0000
0004
0000
0000
0000
0003
0000
0000
0000
,
1000
0100
0010
0001
1000
0010
0100
0001
0100
0010
1000
0001
0010
0100
0010
0001
,
1000
0100
0010
0100
1000
0001
0100
0010
0100
0001
1000
0001
0100
0000
0001
0000
,
1000
0100
0010
0100
1000
0001
0100
0010
0100
0001
1000
0100
0010
0001
1000
0001
,
0200
0000
0302
0000
,
1003
0100
1000
0001
0100
0001
1000
0010
0100
0001
1000
0100
0010
0001
1000
0001
,
0010
0100
1000
0001
1000
0100
0010
0100
1000
0001
0100
0010
0100
0001
1000
0001
,
0010
0100
1000
0001
0100
0010
0100
0001
1000
0100
0010
0001
1000
0001
0100
0010
,
0100
0001
1000
0100
0010
0100
1000
0001
0100
0001
0010
0100
1000
0100
0010
0001
,
1000
0010
0100
0001
0100
0010
1000
0001
0010
0100
1000
0001
1000
0100
0010
0001
,
1000
0010
0100
0001
1000
0100
1000
0001
0100
0001
1000
0010
0100
0000
0001
0000
,
1000
0100
0010
0100
1000
0001
0100
0010
0100
0001
1000
0100
0010
0001
1000
0001
,
0200
0000
0302
0000
,
1003
0001
0100
0010
0100
0001
1000
0100
0010
0001
1000
0010
0100
0010
1000
0001
,
0010
0100
1000
0001
0100
0010
0100
0001
1000
0100
0010
0001
1000
0001
0010
0100
,
1000
0001
1000
0010
0100
0010
1000
0001
0010
0001
0100
0010
1000
0100
0010
0001
,
1000
0100
1000
0010
0100
0001
0010
0100
0010
0001
1000
0100
0010
0100
1000
0001
,
1000
1001
0101
0110
,
1000
0100
0010
0100
1000
0000
1100
0000
,
0110
0011
1001
1010
,
0010
0100
0001
1000
0100
0000
0110
0000
,
0011
1001
1100
0110
,
0010
0001
1000
0001
0100
0000
0110
0000
,
0010
1000
0001
0100
0001
0000
0011
0000
,
0010
0100
1000
0001
1000
0000
1001
0000
,
0011
0110
1100
1001
,
0001
0100
0010
0100
0001
0000
1001
0000
,
1010
0110
0101
1001
,
1000
0100
0010
0001
1000
0000
1010
0000
,
0101
1001
1100
0110
,
0010
0001
0100
0001
0000
0001
0000
1000
,
0001
0100
0010
0100
0001
0000
1001
0000
,
1000
0000
0100
0000
1000
0000
0001
0000
0100
0001
0100
0001
0100
0001
0100
0001
,
1000
0100
0010
0100
1000
0001
0100
0001
,
1000
0010
0100
0001
1000
0100
0010
0100
,
1000
0001
0100
0010
0100
0001
1000
0100
,
0010
0001
1000
0000
0100
1000
0001
0000
,
0100
0010
0100
0001
1000
0100
0010
0100
,
1000
0001
0100
0001
0010
0100
1000
0001
,
1000
0100
1000
0010
0100
0001
0100
0010
,
1000
0100
0040
0030
0001
1000
0400
0300
,
1000
0010
0100
0010
1000
0001
0010
0100
,
1000
0001
1000
0100
0010
0001
0100
0010
,
0100
0001
1000
0001
0010
0100
1000
0001
,
0100
0000
0020
0030
0400
0000
0000
0300
,
0101
1001
1100
0110
,
0011
1001
1100
0110
,
0011
1001
1010
0110
,
0101
1001
1100
0110
,
0011
0000
0000
0000
,
1001
0000
0000
0000
,
2001
0000
0000
3200
0000
0000
0320
0000
,
0000
0000
0000
0031
0000
0100
0001
0000
0000
0100
0000
0000
,
0020
0000
0000
2030
0000
0000
3200
0000
,
0000
0000
0000
1300
0000
0001
0100
0000
0000
0001
0000
0000
,
0020
0000
0000
0230
0000
0000
2300
0000
,
0000
0000
0000
3001
0000
0100
0010
0000
0000
0100
0000
0000
,
0002
0003
0002
0003
0020
0230
0300
2000
,
3100
0010
0100
1000
0001
0100
0010
0100
,
0002
0000
0000
0023
0000
0000
0230
0000
,
0000
0000
0000
1300
0000
0010
1000
0000
0000
0010
0000
0000
,
0200
0000
0000
0302
0000
0000
0023
0000
,
0000
0000
0000
0031
0000
1000
0010
0000
0000
1000
0000
0000
,
0200
0000
0000
0320
0000
0000
0032
0000
,
0000
0000
0000
1003
0000
0010
0100
0000
0000
0010
0000
0000
,
1000
0010
0100
0000
0000
1000
0010
0100
,
0000
0000
0000
0000
,
0001
1000
0010
0100
0001
1000
0100
0010
0001
1000
0001
0010
0100
1000
0010
1000
,
0001
0100
0001
1000
0010
0100
0001
1000
0010
0100
0010
1000
0001
0010
0100
0010
,
0100
1000
0001
0010
0001
1000
0010
1000
0001
0100
0001
1000
0010
1000
0001
0000
,
0000
0000
0000
1000
1000
0000
0004
0003
,
1000
0010
1000
0001
0100
0010
1000
0001
0010
0100
0010
0100
1000
0001
1000
0001
,
0100
0010
1000
0001
0010
0100
1000
0001
1000
0100
0010
0001
1000
0010
1000
0001
,
0010
0100
0010
0100
1000
0001
1000
0001
0100
0010
1000
0001
1000
0001
0010
0100
,
1000
0001
1000
0000
0000
0000
0010
0000
0040
0000
0000
0000
0030
0000
0000
0000
,
1000
0010
1000
0001
0100
0010
1000
0100
0010
0001
1000
0001
0010
0100
0010
0001
,
1000
0010
0100
0010
1000
0001
1000
0001
0010
0100
1000
0001
1000
0001
0100
0010
,
1000
0010
0100
0001
1000
0010
0100
0001
0100
0010
1000
0001
0100
0001
1000
0000
,
0000
0000
0000
0001
0001
0000
4000
3000
,
0001
0010
0100
0010
0100
1000
0001
1000
0001
0100
0010
1000
0010
0100
0001
1000
,
0001
0100
0010
0100
0001
1000
0001
0010
0100
1000
0001
0010
0001
1000
0010
1000
,
0001
0100
0010
1000
0010
1000
0001
0010
0100
1000
0001
1000
0010
0100
0010
1000
,
0001
0100
0010
0000
0000
0000
1000
0000
4000
0000
0000
0000
3000
0000
0000
0000
,
0001
0010
0100
1000
0001
0100
0010
1000
0010
0100
0001
1000
0100
0010
0100
1000
,
0001
0010
0100
0010
0001
1000
0010
0100
0010
1000
0001
1000
0010
0000
1000
0000
,
0001
0010
0100
0010
0001
1000
0010
0100
0010
1000
0001
0010
0100
1000
0001
1000
,
0020
0000
2030
0000
,
3001
0010
0001
1000
0010
1000
0001
0100
0010
1000
0001
0010
0100
1000
0001
1000
,
0100
0010
0001
1000
0001
0010
0100
0010
0001
1000
0010
0100
0010
1000
0001
1000
,
0100
0010
0001
1000
0010
0100
0010
1000
0001
0010
0100
1000
0001
1000
0010
0100
,
0010
1000
0001
0010
0100
0010
0001
1000
0010
1000
0100
0010
0001
0010
0100
1000
,
0001
0100
0010
1000
0010
0100
0001
1000
0100
0010
0001
1000
0001
0010
0100
1000
,
0001
0100
0010
1000
0001
0010
0001
1000
0010
1000
0001
0100
0010
0000
1000
0000
,
0001
0010
0100
0010
0001
1000
0010
0100
0010
1000
0001
0010
0100
1000
0001
1000
,
0020
0000
2030
0000
,
3001
1000
0010
0100
0010
1000
0001
0010
0100
1000
0001
0100
0010
0100
0001
1000
,
0100
0010
0001
1000
0010
0100
0010
1000
0001
0010
0100
1000
0001
1000
0100
0010
,
0001
1000
0001
0100
0010
0100
0001
1000
0100
1000
0010
0100
0001
0010
0100
1000
,
0001
0010
0001
0100
0010
1000
0100
0010
0002
0000
0000
0000
0003
0000
0000
0000
,
1100
0110
0011
1001
,
1100
0110
0011
1001
,
1010
0110
0101
1001
,
1010
0000
0110
0000
0101
0000
0001
1000
,
0100
0000
0000
0000
0110
0000
0000
0000
1001
0000
0000
0000
0001
0100
0010
1000
,
0001
0000
0000
0000
1100
0000
0000
0000
1000
0100
1000
0000
0001
0100
0001
0000
,
0100
0001
1000
0100
0010
0100
1000
0001
,
0100
0000
0000
0000
0001
0000
0000
0000
0100
0000
0000
0000
0010
0000
0000
0000
1000
0000
0000
0000
0001
0000
0000
0000
1000
0000
0000
0001
0000
0000
1000
0000
0000
0001
0000
0000
0100
0000
0000
0010
0000
0000
1000
0000
0000
0001
0000
0000
,
0100
0010
1000
0100
0010
0001
0100
0010
0100
0001
0010
0100
1000
0010
0100
0001
,
0010
0100
0010
0001
1000
0010
1000
0100
0010
0100
1000
0010
0100
0001
0010
0100
,
1000
0010
0100
0001
0010
0001
0100
0010
1000
0100
1000
0010
0100
0001
0010
0100
,
1000
0010
0100
0001
1000
0010
0100
0001
1000
0010
0100
0001
1000
0010
0100
0001
,
1000
0001
1000
0100
0010
0100
1000
0001
,
0100
0010
0100
0001
0010
0100
1000
0001
,
2000
3200
0320
0030
0000
2000
3200
0320
,
0000
0000
0000
0000
0000
0000
0000
0000
003M
0000
0M00
0000
000M
00M0
M000
0M00
,
00M0
0000
0000
0000
;
