#TITLE:Nyanpas;
#SUBTITLE:;
#ARTIST:Nico Nico Douga;
#TITLETRANSLIT:;
#SUBTITLETRANSLIT:;
#ARTISTTRANSLIT:;
#CREDIT:Owem;
#BANNER:../Banner.png;
#BACKGROUND:../BG.png;
#LYRICSPATH:;
#CDTITLE:../CdTitleOwem.png;
#MUSIC:Nico Nico Douga - Nyanpas.ogg;
#OFFSET:-0.517;
#SAMPLESTART:25.435;
#SAMPLELENGTH:29.999;
#SELECTABLE:YES;
#DISPLAYBPM:185.000;
#BPMS:0.000=191.500,5.000=185.000;
#STOPS:;
#BGCHANGES:;
// cache tags:
#FIRSTBEAT:0.000;
#LASTBEAT:321.500;
#SONGFILENAME:Songs/Owem's Simfiles 08 1.1/Nyanpas - [Owem] v1.0.2/Nyanpas.sm;
#HASMUSIC:1;
#HASBANNER:1;
#MUSICLENGTH:108.591;
// end cache tags

//---------------dance-single - 8/1/3-11/3-4----------------
#NOTES:
     dance-single:
     8/1/3-11/3-4:
     Challenge:
     16:
     1.000,1.000,0.617,0.433,1.000,907.000,67.000,47.000,0.000,28.000:
1000
0000
0000
0000
0000
0000
0000
0000
0000
0000
0000
0000
0000
0000
0000
0000
0000
0000
0000
0000
0000
0000
0000
0010
0000
0000
0000
0000
0000
0000
0000
0000
0000
0000
0000
0000
0000
0000
0000
0000
0000
0000
0000
0000
0000
0200
0000
0000
0000
0000
0000
0000
0000
0000
0000
0000
0000
0000
0000
0000
0000
0000
0000
0000
0000
0000
0000
0000
0000
0000
0000
0000
0000
0000
0000
0000
0000
0000
0000
0000
0000
0000
0000
0000
0000
0000
0000
0000
0000
0000
0000
0000
0000
0000
0000
0000
,
0000
0000
0000
0000
0000
0000
0000
0000
0301
0000
0000
0000
0000
0000
0000
0000
2000
3000
0000
0000
0000
0000
0000
0000
0100
0000
0000
0000
0010
0000
0000
0000
,
0002
0003
0000
0000
1000
0000
0000
0000
0010
0000
0000
0000
0110
0000
0000
0000
0200
0300
0000
0000
0000
0000
0000
0000
0101
0000
0000
0000
0001
0000
0000
0000
,
1001
0000
0000
0000
1000
0000
0000
0000
0020
0000
0000
0000
0000
0000
0000
0000
0230
0300
0000
0000
0001
0000
0000
0000
1000
0000
0000
0000
0001
0000
0000
0000
,
0020
0000
0000
0030
0000
0000
0000
0000
0000
0000
0000
0000
0100
0000
0000
0000
0000
0000
0000
0000
0000
0000
0000
0000
1000
0000
0000
0000
0000
0000
0010
0000
0000
0000
0000
0000
1000
0000
0000
0000
0000
0000
0000
0000
0000
0000
0000
0000
0001
0000
0000
0000
0000
0000
0000
0000
0000
0000
0000
0000
0100
0000
0000
0000
0000
0000
0000
0000
0000
0000
0000
0000
0110
0000
0000
0000
0000
0000
0000
0000
0000
0000
0000
0000
0010
0000
0000
0000
1000
0000
0000
0000
0010
0000
0000
0000
,
0100
0000
0000
0000
0000
0000
0000
0000
0000
0000
0000
0000
0001
0000
0000
0000
1000
0000
0000
0000
0001
0000
0000
0000
0100
0000
0000
0000
0000
0000
0000
0000
0000
0000
0000
0000
0000
0000
0000
0000
0000
0000
0000
0000
0000
0000
0000
0000
0210
0000
0000
0300
0000
0000
0000
0000
0000
0000
0000
0000
0000
0000
0000
0000
0000
0000
0000
0000
0000
0000
0000
0000
0010
0000
0000
0000
0000
0000
0000
0000
0000
0000
0000
0000
0100
0000
0000
0000
0000
0000
0000
0000
0000
0000
0000
0000
,
0002
0003
0000
0000
1000
0000
0000
0000
0100
0000
0000
0000
0110
0000
0000
0000
0020
0030
0000
0000
0011
0000
0000
0000
1001
0000
0000
0000
1001
0000
0000
0000
,
1010
0010
0100
0001
1000
0100
0110
0001
,
1000
0000
0010
0000
0110
0000
0110
0000
0100
0000
0001
0000
1100
0000
0000
0110
,
0000
0000
0012
0000
0000
0000
0003
0000
1000
0000
0010
0000
0100
0001
0100
0010
,
1000
0010
0100
0001
1000
0000
0100
0010
0001
0000
0010
0100
1000
0000
0001
0100
,
0001
0010
0100
1000
0010
0000
0010
0000
0100
0001
1000
0000
0100
0000
0100
0000
,
0010
0000
0010
0000
0011
0000
1000
0001
1000
0000
0010
0000
0110
0000
0100
0001
,
1000
0100
0010
0001
2000
0000
0010
0000
3010
0000
0100
0001
0100
0000
0010
1000
,
0001
1000
0100
0010
0001
0000
1000
0000
0001
0000
0010
0100
1000
0000
0001
0000
,
0100
0010
1010
1000
0001
0100
0110
0010
,
1000
0000
0000
0000
0000
0000
0001
0000
0000
0000
0000
0000
0101
0000
0000
0000
0000
0000
0110
0000
0000
0000
0000
0000
1010
0000
0000
0000
0000
0000
0001
0000
0000
0100
0000
0000
0010
0000
0000
0000
0000
0000
1000
0000
0001
0000
1000
0000
,
0001
0000
0000
0000
0000
0000
0000
0000
0000
0000
0000
0000
0010
0000
0000
0000
0100
0000
0000
0000
1000
0000
0000
0000
0001
0000
0000
0000
0000
0000
0000
0000
0000
0000
0000
0000
0000
0000
0000
0000
0000
0000
0000
0000
0000
0000
0000
0000
0100
0000
0000
0000
0000
0000
0000
0000
0000
0010
0000
0000
0000
0000
0000
0000
0000
0000
0000
0000
0000
1000
0000
0000
0000
0000
0000
0000
0000
0000
0000
0000
0000
0000
0000
0000
0100
0000
0000
0000
0000
0000
0000
0000
0000
0000
0000
0000
,
0000
0000
0000
0000
0000
0000
0000
0000
0000
0000
0000
0000
0010
0000
0000
0000
0000
0000
0000
0000
0001
0000
0000
0000
0000
0000
0000
0000
0000
0000
0000
0000
1000
0000
0000
0000
0000
0000
0000
0000
0000
0000
0000
0000
0010
0000
0000
0000
0000
0000
0000
0000
0000
0000
0100
0000
0000
0000
0000
0000
0000
0000
0000
0000
0000
0000
0000
0000
0000
0000
0000
0000
0000
0000
0000
0000
0000
0000
0001
0000
0000
0000
0000
0000
0000
0000
0000
1000
0000
0000
0000
0000
0000
0000
0000
0000
,
0020
0000
0000
0000
0130
0000
0001
0100
0000
0010
1000
0000
0001
0100
0000
0010
,
0100
0010
1000
0001
0010
0000
0100
1000
0000
0100
0010
0000
0001
0100
0000
0010
,
0100
0010
1000
0000
0001
0000
0100
0010
0000
1000
0010
0000
0100
0001
0000
1000
,
0100
0010
0001
1000
0010
0000
0100
0001
0000
1000
0001
0000
0010
0001
0000
0100
,
0010
1000
0010
0100
0001
0000
1000
0100
0000
0010
0001
0000
1000
0001
0000
0100
,
0001
0100
0010
0000
1000
0000
0001
0100
0000
0010
0100
0000
0010
1000
0000
0001
,
0100
0001
1000
0000
0010
0000
0100
0001
0000
1000
0100
0000
0010
0001
0000
1000
,
0001
1000
0010
0100
0001
0000
1000
0010
0000
0100
0001
0000
1000
0001
0000
0100
,
0010
0000
0100
0000
0001
1000
0010
1000
0100
0010
0001
1000
0100
1000
0001
0100
,
0010
1000
0010
0100
0001
1000
0100
1000
0001
1000
0100
0010
0001
1000
0100
1000
,
0001
0010
0001
0100
0010
1000
0010
0100
0010
1000
0001
0100
0001
0010
0100
1000
,
0001
0010
0001
0100
0010
1000
0010
0100
0001
1000
0100
0010
0001
1000
0100
1000
,
0001
0100
0001
1000
0100
0010
0001
1000
0100
1000
0010
0100
0010
1000
0001
0010
,
0001
0100
0010
1000
0010
0100
0001
1000
0100
0010
0001
1000
0100
1000
0001
0010
,
0001
0100
0010
1000
0010
0100
0001
1000
0100
1000
0001
0100
0001
1000
0010
0100
,
0010
1000
0001
0010
0001
0100
0010
1000
0010
0100
0001
1000
0100
0010
0001
1000
,
0100
1000
0001
0100
0010
0000
0000
0000
2000
0000
3000
0000
0002
0000
0000
0000
,
0013
0000
0100
1000
0002
0000
0003
0000
0200
0000
0300
0000
0020
0000
0000
0000
,
4030
0000
3001
0100
0002
0000
0003
0000
2100
0000
3000
0000
0020
0000
0000
0000
,
0130
0000
0001
1000
0002
0000
0003
0000
0020
0000
0030
0000
0200
0000
0000
0000
,
1300
0000
0000
0001
0000
0000
0100
0000
0010
0000
0100
0000
0001
0000
0000
0000
0000
0000
2000
0000
0000
0000
0000
0000
3200
0000
0000
0000
0000
0000
0310
0000
0000
0001
0000
0000
1000
0000
0000
0000
0000
0000
0020
0000
0000
0000
0000
0000
,
0130
0000
0000
0001
0000
0000
1000
0000
0010
0000
0100
0000
0010
0000
0000
0000
0000
0000
2000
0000
0000
0000
0000
0000
3002
0000
0000
0000
0000
0000
0013
0000
0000
0100
0000
0000
1000
0000
0000
0000
0000
0000
0020
0000
0000
0000
0000
0000
,
0130
0000
0000
0001
0000
0000
1000
0000
0100
0000
0010
0000
0001
0000
0000
0000
0000
0000
0000
0000
0000
0000
0000
0000
0202
0000
0000
0303
0000
0000
0000
0000
0000
0000
0000
0000
0220
0000
0000
0330
0000
0000
0000
0000
0000
0000
0000
0000
,
2020
3030
1000
0100
0020
0030
0000
0000
0022
0033
0000
0000
0220
0330
0000
0000
,
2002
3003
0000
0000
1000
0000
0010
0000
0100
0000
0001
0000
1000
0000
0100
0010
,
0001
1000
0001
0100
0010
1000
0010
0100
0001
1000
0100
1000
0001
0010
0001
0100
,
0010
1000
0010
0100
0002
0000
0000
0000
0000
0000
0000
0000
0003
0000
0200
0000
,
0000
0000
0000
0000
0310
0000
1000
0000
0001
0100
0001
0000
0010
0100
1000
0000
,
0001
0100
0010
0100
0001
1000
0010
1000
0100
0010
0001
1000
0100
1000
0001
0100
,
0010
1000
0010
0100
0001
1000
0100
0010
0001
1000
0100
1000
0001
0010
0001
1000
,
0001
0100
0010
1000
0010
0100
0001
1000
0100
0010
0001
1000
0100
1000
0001
0100
,
0010
1000
0010
0100
0001
1000
0100
0010
0001
1000
0010
0000
1111
0000
0000
1111
,
0000
0000
1111
0000
0000
0000
1000
0000
1111
0000
0001
1000
0001
0100
0010
1000
,
0010
0100
0001
1000
0100
0010
0001
1000
0100
1000
0001
0010
0001
0100
0010
1000
,
0010
0100
0001
1000
0100
0010
0001
1000
0100
1000
0001
0010
0001
0100
0010
1000
,
0010
0100
0001
1000
0100
0010
0001
1000
0100
1000
0001
0010
0001
0100
0010
1000
,
0010
0100
0001
1000
0100
1000
0001
0010
0001
0100
0010
1000
0010
0100
0001
1000
,
0100
0010
0001
1000
0100
1000
0001
0010
0001
0100
0010
1000
0010
0100
0001
1000
,
0010
1000
0001
1000
0100
0010
0001
1000
0100
1000
0001
0010
0001
0100
0010
1000
,
0010
0100
0001
1000
0100
0010
0001
1000
0100
1000
0001
0010
0001
0100
0010
1000
,
0010
0100
0001
1000
0100
1000
0001
0010
0001
0100
0010
1000
0010
0100
0001
1000
,
0100
1000
0010
0100
0001
0100
0010
1000
0001
1000
0100
0010
0001
1000
0100
1000
,
0001
0010
0001
0100
0010
1000
0010
0100
0001
1000
0100
0010
0001
1000
0010
1000
,
0001
0100
0010
0100
0001
1000
0010
1000
0100
0010
0001
1000
0001
0100
0010
1000
,
0010
0100
0001
1000
0001
0000
0000
0000
1111
0000
1000
0000
0100
0000
0010
0000
,
0011
0000
0000
0000
1111
0100
1111
0010
,
1111
1000
1111
0001
0110
0010
1111
1000
,
0110
0000
0010
0000
1111
0000
0001
0000
1111
0000
1000
0000
1111
0000
0000
1111
,
0000
1111
1111
0001
0101
0100
0010
0000
,
1111
1000
1111
0001
0110
0100
0001
1000
,
1111
0001
1111
1000
0110
0010
1111
0001
,
0110
0010
1111
1000
0110
0010
1111
0001
,
1111
0000
1111
0000
0200
0300
0000
0000
0001
1000
0010
1000
0100
0010
0001
1000
,
0100
1000
0001
0010
0001
0100
0010
1000
0010
0100
0001
1000
0100
0010
0001
1000
,
0100
1000
0001
0010
0001
0100
0010
1000
0010
0100
0001
1000
0100
0010
0001
1000
,
0100
1000
0001
0010
0001
0100
0010
1000
0010
0100
0001
0000
1111
0000
0000
1111
,
0000
0000
1111
0000
1000
0100
0010
0001
1000
0001
0100
0010
0100
0001
1000
0010
,
1000
0100
0010
0001
1000
0100
1000
0001
0010
0001
0100
0010
1000
0010
0100
0001
,
1000
0100
0010
0001
1000
0100
1000
0001
0010
0001
0100
0010
1000
0010
0100
0001
,
1000
0100
1000
0001
0010
0100
0010
0001
1000
0100
1000
0010
0100
0001
1000
0001
,
0010
0100
1000
0001
0200
0000
0000
0000
0000
0000
0000
0000
0000
0000
0000
0000
,
0000
0000
0000
0300
0000
0000
0000
0000
;
